<?xml version="1.0" standalone="no"?>
<!DOCTYPE svg PUBLIC "-//W3C//DTD SVG 1.1//EN" "http://www.w3.org/Graphics/SVG/1.1/DTD/svg11.dtd" >
<svg xmlns="http://www.w3.org/2000/svg" xmlns:xlink="http://www.w3.org/1999/xlink" version="1.1">
<metadata>
Created by FontForge 20170731 at Fri Jul 14 15:11:44 2017
 By Aleksey,,,
Copyright (c) 2013 by Nico Inosanto. All rights reserved.
</metadata>
<defs>
<font id="Radikal-Black" horiz-adv-x="600" >
  <font-face 
    font-family="Radikal Black"
    font-weight="900"
    font-stretch="normal"
    units-per-em="1000"
    panose-1="0 0 10 0 0 0 0 0 0 0"
    ascent="800"
    descent="-200"
    x-height="510"
    cap-height="735"
    bbox="-179 -241 1297 1099"
    underline-thickness="50"
    underline-position="-200"
    unicode-range="U+0020-FB02"
  />
<missing-glyph horiz-adv-x="586" 
d="M531 700v-700h-476v700h476zM422 624h-260l130 -207zM456 535l-121 -189l121 -189v378zM131 530v-368l116 184zM292 275l-127 -199h253z" />
    <glyph glyph-name="fi" unicode="fi" horiz-adv-x="707" 
d="M560 772q45 0 74 -29t29 -74t-29 -74t-74 -29t-74 29t-29 74t29 74t74 29zM324 760q58 0 97 -16l-45 -153q-18 10 -42 10q-49 0 -49 -58v-33h101v-154h-101v-356h-184v356h-86v154h86v27q0 98 61 160.5t162 62.5zM652 510v-510h-184v510h184z" />
    <glyph glyph-name="fl" unicode="fl" horiz-adv-x="707" 
d="M319 760q58 0 97 -16l-40 -153q-18 10 -42 10q-49 0 -49 -58v-33h101v-154h-101v-356h-184v356h-86v154h86v27q0 99 58.5 161t159.5 62zM651 760v-760h-184v760h184z" />
    <glyph glyph-name="f_j" unicode="fj" horiz-adv-x="707" 
d="M560 772q45 0 74 -29t29 -74t-29 -74t-74 -29t-74 29t-29 74t29 74t74 29zM324 760q58 0 97 -16l-45 -153q-18 10 -42 10q-49 0 -49 -58v-33h101v-154h-101v-356h-184v356h-86v154h86v27q0 98 61 160.5t162 62.5zM412 -240q-95 0 -157 53l97 131q27 -25 56 -25
q28 0 44 16t16 45v530h184v-516q0 -101 -67.5 -167.5t-172.5 -66.5z" />
    <glyph glyph-name="f_b" unicode="fb" horiz-adv-x="1029" 
d="M319 760q58 0 97 -16l-40 -153q-18 10 -42 10q-49 0 -49 -58v-33h101v-154h-101v-356h-184v356h-86v154h86v27q0 99 58.5 161t159.5 62zM651 760v-290q43 50 129 50q98 0 160 -74.5t62 -190.5t-62 -190.5t-160 -74.5q-96 0 -140 62l-9 -52h-164v760h184zM731 361
q-52 0 -80 -48v-117q29 -47 80 -47q39 0 62 28t23 78t-23 78t-62 28z" />
    <glyph glyph-name="f_h" unicode="fh" horiz-adv-x="1013" 
d="M319 760q58 0 97 -16l-40 -153q-18 10 -42 10q-49 0 -49 -58v-33h101v-154h-101v-356h-184v356h-86v154h86v27q0 99 58.5 161t159.5 62zM651 760v-287q42 47 121 47q93 0 142 -61.5t49 -169.5v-289h-184v279q0 31 -15.5 50t-42.5 19q-49 0 -70 -44v-304h-184v760h184z
" />
    <glyph glyph-name="f_k" unicode="fk" horiz-adv-x="1013" 
d="M319 760q58 0 97 -16l-40 -153q-18 10 -42 10q-49 0 -49 -58v-33h101v-154h-101v-356h-184v356h-86v154h86v27q0 99 58.5 161t159.5 62zM651 760v-479l144 229h210l-154 -207l161 -303h-207l-79 149l-115 -149h-144v760h184z" />
    <glyph glyph-name=".notdef" horiz-adv-x="586" 
d="M531 700v-700h-476v700h476zM422 624h-260l130 -207zM456 535l-121 -189l121 -189v378zM131 530v-368l116 184zM292 275l-127 -199h253z" />
    <glyph glyph-name=".null" horiz-adv-x="0" 
 />
    <glyph glyph-name="nonmarkingreturn" horiz-adv-x="333" 
 />
    <glyph glyph-name="space" unicode=" " horiz-adv-x="220" 
 />
    <glyph glyph-name="exclam" unicode="!" horiz-adv-x="318" 
d="M250 735v-483h-184v483h184zM159 204q47 0 77 -30t30 -77t-30 -77t-77 -30t-77 30t-30 77t30 77t77 30z" />
    <glyph glyph-name="quotedbl" unicode="&#x22;" horiz-adv-x="484" 
d="M108 385l-51 186q-2 7 -8.5 25.5t-10 33t-3.5 30.5q0 39 24.5 64t62.5 25q37 0 62 -25t25 -64q0 -16 -3.5 -30.5t-10 -33t-8.5 -25.5l-51 -186h-28zM348 385l-51 186q-2 7 -8.5 25.5t-10 33t-3.5 30.5q0 39 24.5 64t62.5 25q37 0 62 -25t25 -64q0 -16 -3.5 -30.5t-10 -33
t-8.5 -25.5l-51 -186h-28z" />
    <glyph glyph-name="numbersign" unicode="#" horiz-adv-x="707" 
d="M636 735l-30 -165h83v-145h-108l-21 -114h82v-147h-107l-29 -164h-183l28 164h-82l-28 -164h-185l30 164h-85v147h111l20 114h-84v145h108l30 165h183l-29 -165h82l29 165h185zM397 425h-83l-19 -114h82z" />
    <glyph glyph-name="dollar" unicode="$" horiz-adv-x="622" 
d="M338 454q143 -29 198.5 -81t55.5 -140q0 -90 -51 -152t-144 -84v-126h-151v119q-145 14 -241 98l102 156q35 -39 91 -62.5t110 -23.5q94 0 94 57q0 24 -25 40t-95 30q-140 29 -196 85t-56 142q0 85 59.5 148t156.5 81v128h151v-127q120 -17 197 -74l-91 -159
q-87 68 -187 68q-42 0 -68.5 -14.5t-26.5 -40.5q0 -23 24 -38.5t93 -29.5z" />
    <glyph glyph-name="percent" unicode="%" horiz-adv-x="901" 
d="M213 747q82 0 136.5 -54t54.5 -136q0 -81 -54.5 -134.5t-136.5 -53.5q-83 0 -137.5 53t-54.5 135t54.5 136t137.5 54zM762 735l-468 -735h-153l468 735h153zM213 619q-25 0 -40.5 -17.5t-15.5 -44.5q0 -26 15.5 -43t40.5 -17q23 0 39 17.5t16 42.5q0 27 -16 44.5
t-39 17.5zM689 365q82 0 136.5 -54t54.5 -136q0 -81 -54.5 -134.5t-136.5 -53.5q-83 0 -137.5 53t-54.5 135t54.5 136t137.5 54zM689 237q-25 0 -40.5 -17.5t-15.5 -44.5q0 -26 15.5 -43t40.5 -17q23 0 39 17.5t16 42.5q0 27 -16 44.5t-39 17.5z" />
    <glyph glyph-name="ampersand" unicode="&#x26;" horiz-adv-x="727" 
d="M737 0h-232l-39 45q-82 -55 -192 -55q-105 0 -179 56t-74 153q0 68 31.5 110t102.5 87q-81 85 -81 166t61 133.5t162 52.5t162 -52.5t61 -133.5q0 -34 -10.5 -62t-34.5 -51t-38 -34t-45 -31l73 -82l57 79h208l-146 -211zM299 601q-24 0 -39 -13t-15 -34q0 -12 8.5 -25.5
t16 -20.5t26.5 -24q18 11 28 18.5t18.5 21t8.5 30.5q0 22 -14.5 34.5t-37.5 12.5zM286 148q40 0 71 22l-106 121q-43 -29 -43 -77q0 -31 21 -48.5t57 -17.5z" />
    <glyph glyph-name="quotesingle" unicode="'" horiz-adv-x="244" 
d="M108 385l-51 186q-2 7 -8.5 25.5t-10 33t-3.5 30.5q0 39 24.5 64t62.5 25q37 0 62 -25t25 -64q0 -16 -3.5 -30.5t-10 -33t-8.5 -25.5l-51 -186h-28z" />
    <glyph glyph-name="parenleft" unicode="(" horiz-adv-x="363" 
d="M190 790l141 -97q-58 -76 -89 -156t-31 -198t31 -198t89 -156l-141 -97q-152 204 -152 451t152 451z" />
    <glyph glyph-name="parenright" unicode=")" horiz-adv-x="363" 
d="M173 790q152 -204 152 -451t-152 -451l-141 97q58 76 89 156t31 198t-31 198t-89 156z" />
    <glyph glyph-name="asterisk" unicode="*" horiz-adv-x="447" 
d="M287 734l-9 -115l107 45l39 -120l-113 -27l74 -87l-101 -73l-60 88l-60 -88l-101 73l74 87l-113 27l39 120l107 -45l-9 115h126z" />
    <glyph glyph-name="plus" unicode="+" horiz-adv-x="532" 
d="M349 582v-149h150v-167h-150v-150h-167v150h-149v167h149v149h167z" />
    <glyph glyph-name="comma" unicode="," horiz-adv-x="270" 
d="M108 200q49 0 80.5 -30.5t31.5 -76.5q0 -33 -23 -68l-133 -189h-4v356q22 8 48 8z" />
    <glyph glyph-name="hyphen" unicode="-" horiz-adv-x="386" 
d="M351 352v-167h-316v167h316z" />
    <glyph glyph-name="period" unicode="." horiz-adv-x="314" 
d="M157 204q47 0 77 -30t30 -77t-30 -77t-77 -30t-77 30t-30 77t30 77t77 30z" />
    <glyph glyph-name="slash" unicode="/" horiz-adv-x="559" 
d="M554 735l-363 -735h-186l364 735h185z" />
    <glyph glyph-name="zero" unicode="0" 
d="M300 748q126 0 199 -103t73 -277q0 -175 -73 -278t-199 -103t-199 103t-73 278q0 174 73 277t199 103zM300 587q-85 0 -85 -219q0 -220 85 -220t85 220q0 219 -85 219z" />
    <glyph glyph-name="one" unicode="1" horiz-adv-x="415" 
d="M349 748v-748h-184v455l-90 -43l-73 171l343 165h4z" />
    <glyph glyph-name="two" unicode="2" horiz-adv-x="537" 
d="M252 748q116 0 186.5 -66.5t70.5 -172.5q0 -51 -19.5 -91.5t-63.5 -101.5l-109 -153h195v-163h-488v6l253 396q27 43 36 63.5t9 45.5q0 34 -19 54t-51 20q-68 0 -80 -99l-167 38q41 224 247 224z" />
    <glyph glyph-name="three" unicode="3" horiz-adv-x="524" 
d="M256 748q112 0 180 -66.5t68 -166.5q0 -94 -73 -144q83 -48 83 -150q0 -103 -69.5 -168.5t-185.5 -65.5q-211 0 -252 224l167 38q12 -99 84 -99q32 0 51.5 21t19.5 55t-19.5 55t-51.5 21h-76v140h76q28 2 45.5 21t17.5 50q0 32 -19 52t-48 20q-28 0 -47 -20.5t-24 -59.5
l-160 67q24 84 85 130t148 46z" />
    <glyph glyph-name="four" unicode="4" horiz-adv-x="595" 
d="M501 748v-534h70v-129h-70v-85h-184v85h-326v4l506 659h4zM336 349l-107 -140h107v140z" />
    <glyph glyph-name="five" unicode="5" horiz-adv-x="554" 
d="M492 735v-163h-248v-105q20 4 39 4q110 0 181 -64t71 -181q0 -107 -70.5 -173t-190.5 -66q-184 0 -247 168l150 76q27 -81 96 -81q34 0 55.5 23.5t21.5 61.5q0 39 -23 63t-61 24q-46 0 -77 -31l-129 56v388h432z" />
    <glyph glyph-name="six" unicode="6" horiz-adv-x="574" 
d="M337 485q92 -16 152 -84.5t60 -162.5q0 -109 -76.5 -180t-186.5 -71q-109 0 -185 71t-76 180q0 44 11.5 76t40.5 81l207 340h206zM286 148q34 0 55 24.5t21 65.5t-21 66t-55 25q-33 0 -53.5 -25t-20.5 -66t20.5 -65.5t53.5 -24.5z" />
    <glyph glyph-name="seven" unicode="7" horiz-adv-x="555" 
d="M560 735v-6l-341 -729h-198l269 568h-268v167h538z" />
    <glyph glyph-name="eight" unicode="8" horiz-adv-x="574" 
d="M286 748q99 0 169 -62t70 -156q0 -86 -67 -143q91 -66 91 -164q0 -104 -76.5 -170t-186.5 -66t-185.5 66t-75.5 170q0 100 89 163q-67 56 -67 144q0 95 69.5 156.5t169.5 61.5zM286 595q-30 0 -49.5 -21t-19.5 -53t19.5 -52.5t49.5 -20.5t49.5 20.5t19.5 52.5t-20 53
t-49 21zM286 303q-32 0 -53 -23t-21 -58t21 -57.5t53 -22.5q33 0 54.5 22.5t21.5 57.5t-21.5 58t-54.5 23z" />
    <glyph glyph-name="nine" unicode="9" horiz-adv-x="574" 
d="M288 748q109 0 185 -71t76 -180q0 -44 -11.5 -76t-40.5 -81l-207 -340h-206l153 250q-92 16 -152 84.5t-60 162.5q0 109 76.5 180t186.5 71zM288 587q-34 0 -55 -24.5t-21 -65.5t21 -66t55 -25q33 0 53.5 25t20.5 66t-20.5 65.5t-53.5 24.5z" />
    <glyph glyph-name="colon" unicode=":" horiz-adv-x="300" 
d="M150 520q44 0 72 -28t28 -72t-28 -72t-72 -28t-72 28t-28 72t28 72t72 28zM150 190q44 0 72 -28t28 -72t-28 -72t-72 -28t-72 28t-28 72t28 72t72 28z" />
    <glyph glyph-name="semicolon" unicode=";" horiz-adv-x="300" 
d="M150 520q44 0 72 -28t28 -72t-28 -72t-72 -28t-72 28t-28 72t28 72t72 28zM118 190q49 0 80.5 -30.5t31.5 -76.5q0 -33 -23 -68l-133 -189h-4v356q22 8 48 8z" />
    <glyph glyph-name="less" unicode="&#x3c;" horiz-adv-x="445" 
d="M412 538l-158 -192l158 -192h-226l-153 190v4l153 190h226z" />
    <glyph glyph-name="equal" unicode="=" horiz-adv-x="532" 
d="M499 573v-167h-466v167h466zM499 289v-167h-466v167h466z" />
    <glyph glyph-name="greater" unicode="&#x3e;" horiz-adv-x="445" 
d="M259 538l153 -190v-4l-153 -190h-226l158 192l-158 192h226z" />
    <glyph glyph-name="question" unicode="?" horiz-adv-x="551" 
d="M269 748q111 0 182.5 -63t71.5 -153q0 -50 -17 -85t-41.5 -54t-49 -36t-41.5 -42t-17 -61v-2h-184v28q0 48 16.5 83t39.5 53.5t46 34t39.5 34.5t16.5 44q0 26 -18 41t-46 15q-29 0 -48.5 -20t-21.5 -49l-181 29q20 97 85 150t168 53zM266 204q46 0 76.5 -30t30.5 -77
t-30.5 -77t-76.5 -30t-76.5 30t-30.5 77t30.5 77t76.5 30z" />
    <glyph glyph-name="at" unicode="@" horiz-adv-x="892" 
d="M445 656q189 0 306 -112t117 -292q0 -102 -52 -166.5t-140 -64.5q-51 0 -88 19t-52 46l-2 3q-22 -28 -57.5 -48t-74.5 -20q-81 0 -132.5 62t-51.5 157q0 96 51.5 158t132.5 62q79 0 115 -52l8 44h136v-284q0 -43 36 -43q30 0 46.5 34t16.5 93q0 137 -84 220.5t-231 83.5
q-139 0 -226 -88.5t-87 -227.5q0 -138 84 -225.5t219 -87.5q69 0 128 24l26 -95q-72 -29 -154 -29q-179 0 -295 117t-116 296q0 180 119 298t302 118zM442 328q-32 0 -51 -23t-19 -65q0 -41 19 -64t51 -23q42 0 67 39v97q-25 39 -67 39z" />
    <glyph glyph-name="A" unicode="A" horiz-adv-x="744" 
d="M374 748l368 -748h-213l-34 86h-246l-34 -86h-213l368 748h4zM372 400l-67 -172h134z" />
    <glyph glyph-name="B" unicode="B" horiz-adv-x="685" 
d="M369 735q108 0 172 -54t64 -149q0 -85 -59 -134q117 -52 117 -178q0 -102 -71 -161t-175 -59h-350v735h302zM343 562h-86v-116h86q31 0 50 15.5t19 42.5t-19 42.5t-50 15.5zM393 303h-136v-130h136q35 0 56 17t21 48t-21 48t-56 17z" />
    <glyph glyph-name="C" unicode="C" horiz-adv-x="695" 
d="M412 748q90 0 153.5 -27t119.5 -86l-119 -138q-61 78 -154 78q-85 0 -136 -57.5t-51 -149.5t51 -150t136 -58q93 0 154 78l118 -138q-102 -113 -272 -113q-165 0 -272.5 108.5t-107.5 272.5q0 163 107.5 271.5t272.5 108.5z" />
    <glyph glyph-name="D" unicode="D" horiz-adv-x="748" 
d="M309 735q191 0 299 -97t108 -270q0 -174 -107.5 -271t-299.5 -97h-242v735h242zM303 561h-46v-388h46q109 0 164.5 50.5t55.5 143.5t-55.5 143.5t-164.5 50.5z" />
    <glyph glyph-name="E" unicode="E" horiz-adv-x="603" 
d="M556 735v-173h-299v-110h257v-159h-257v-120h307v-173h-497v735h489z" />
    <glyph glyph-name="F" unicode="F" horiz-adv-x="567" 
d="M542 735v-173h-285v-121h232v-159h-232v-282h-190v735h475z" />
    <glyph glyph-name="G" unicode="G" horiz-adv-x="760" 
d="M411 748q90 0 154 -27t120 -86l-119 -138q-61 78 -155 78q-85 0 -135.5 -57.5t-50.5 -149.5t54.5 -150t145.5 -58q43 0 88 25v85h-137v163h327v-341q-106 -105 -278 -105q-171 0 -282 108.5t-111 272.5t107 272t272 108z" />
    <glyph glyph-name="H" unicode="H" horiz-adv-x="762" 
d="M695 735v-735h-190v290h-248v-290h-190v735h190v-272h248v272h190z" />
    <glyph glyph-name="I" unicode="I" horiz-adv-x="324" 
d="M257 735v-735h-190v735h190z" />
    <glyph glyph-name="J" unicode="J" horiz-adv-x="589" 
d="M533 735v-508q0 -105 -72 -172.5t-183 -67.5q-109 0 -186 72.5t-77 203.5h184q0 -103 72 -103q34 0 53 21.5t19 56.5v497h190z" />
    <glyph glyph-name="K" unicode="K" horiz-adv-x="731" 
d="M695 735l-231 -353l256 -382h-228l-136 212l-146 -212h-143v735h190v-373l222 373h216z" />
    <glyph glyph-name="L" unicode="L" horiz-adv-x="553" 
d="M257 735v-568h286v-167h-476v735h190z" />
    <glyph glyph-name="M" unicode="M" horiz-adv-x="899" 
d="M832 748v-748h-190v246l-188 -259h-8l-189 260v-247h-190v748h4l379 -478l378 478h4z" />
    <glyph glyph-name="N" unicode="N" horiz-adv-x="743" 
d="M71 748l415 -360v347h190v-748h-4l-415 360v-347h-190v748h4z" />
    <glyph glyph-name="O" unicode="O" horiz-adv-x="830" 
d="M415 748q164 0 273.5 -108.5t109.5 -273.5q0 -164 -109.5 -271.5t-273.5 -107.5q-165 0 -274 107.5t-109 271.5q0 165 109 273.5t274 108.5zM415 575q-84 0 -137 -58.5t-53 -150.5q0 -91 53 -148.5t137 -57.5t137 57.5t53 148.5q0 92 -53 150.5t-137 58.5z" />
    <glyph glyph-name="P" unicode="P" horiz-adv-x="674" 
d="M389 735q108 0 184.5 -68t76.5 -183t-76.5 -183t-184.5 -68h-132v-233h-190v735h322zM370 572h-113v-176h113q40 0 63.5 22.5t23.5 65.5q0 41 -24 64.5t-63 23.5z" />
    <glyph glyph-name="Q" unicode="Q" horiz-adv-x="830" 
d="M870 -62h-228l-70 80q-73 -31 -157 -31q-165 0 -274 107.5t-109 271.5q0 165 109 273.5t274 108.5q164 0 273.5 -108.5t109.5 -273.5q0 -142 -86 -246zM415 160q10 0 30 2l-84 95l134 112l89 -103q21 43 21 100q0 92 -53 150.5t-137 58.5t-137 -58.5t-53 -150.5
q0 -91 53 -148.5t137 -57.5z" />
    <glyph glyph-name="R" unicode="R" horiz-adv-x="689" 
d="M688 0h-221l-141 244h-69v-244h-190v735h322q108 0 185 -67t77 -179q0 -72 -34 -126.5t-91 -85.5zM257 572v-165h114q39 0 63 22t24 60t-24 60.5t-63 22.5h-114z" />
    <glyph glyph-name="S" unicode="S" horiz-adv-x="622" 
d="M317 748q80 0 154.5 -22t122.5 -58l-91 -159q-87 68 -187 68q-42 0 -68.5 -14.5t-26.5 -40.5q0 -23 24 -38.5t93 -29.5q143 -29 198.5 -81t55.5 -140q0 -112 -77.5 -179t-212.5 -67q-182 0 -297 101l102 156q35 -39 91 -62.5t110 -23.5q94 0 94 57q0 24 -25 40t-95 30
q-140 29 -196 85t-56 142q0 101 81 168.5t206 67.5z" />
    <glyph glyph-name="T" unicode="T" horiz-adv-x="664" 
d="M651 735v-167h-224v-568h-190v568h-224v167h638z" />
    <glyph glyph-name="U" unicode="U" horiz-adv-x="724" 
d="M666 735v-467q0 -129 -79.5 -205t-224.5 -76t-224.5 76t-79.5 205v467h190v-454q0 -55 30 -88t84 -33t84 33t30 88v454h190z" />
    <glyph glyph-name="V" unicode="V" horiz-adv-x="720" 
d="M718 735l-356 -745h-4l-356 745h211l147 -364l147 364h211z" />
    <glyph glyph-name="W" unicode="W" horiz-adv-x="960" 
d="M951 735l-308 -745h-4l-159 345l-159 -345h-4l-308 745h211l117 -331l141 331h4l141 -331l117 331h211z" />
    <glyph glyph-name="X" unicode="X" horiz-adv-x="717" 
d="M698 735l-205 -363l215 -372h-218l-132 235l-131 -235h-218l215 372l-205 363h219l120 -224l121 224h219z" />
    <glyph glyph-name="Y" unicode="Y" horiz-adv-x="724" 
d="M722 735l-264 -442v-293h-190v290l-266 445h221l139 -254l139 254h221z" />
    <glyph glyph-name="Z" unicode="Z" horiz-adv-x="604" 
d="M572 735v-4l-272 -568h282v-163h-568v4l273 568h-259v163h544z" />
    <glyph glyph-name="bracketleft" unicode="[" horiz-adv-x="362" 
d="M327 769v-143h-99v-574h99v-143h-272v860h272z" />
    <glyph glyph-name="backslash" unicode="\" horiz-adv-x="559" 
d="M190 735l364 -735h-186l-363 735h185z" />
    <glyph glyph-name="bracketright" unicode="]" horiz-adv-x="362" 
d="M307 769v-860h-272v143h99v574h-99v143h272z" />
    <glyph glyph-name="asciicircum" unicode="^" horiz-adv-x="523" 
d="M261 760l247 -298h-160l-87 105l-86 -105h-160z" />
    <glyph glyph-name="underscore" unicode="_" horiz-adv-x="790" 
d="M755 0v-167h-720v167h720z" />
    <glyph glyph-name="grave" unicode="`" horiz-adv-x="363" 
d="M217 726l131 -155h-148l-185 155h202z" />
    <glyph glyph-name="a" unicode="a" horiz-adv-x="611" 
d="M246 520q94 0 136 -63l10 53h164v-510h-164l-10 52q-43 -62 -136 -62q-97 0 -158 74.5t-61 190.5t61 190.5t158 74.5zM295 361q-38 0 -60 -28t-22 -78t22 -78t60 -28q48 0 77 47v118q-29 47 -77 47z" />
    <glyph glyph-name="b" unicode="b" horiz-adv-x="618" 
d="M240 760v-290q43 50 129 50q98 0 160 -74.5t62 -190.5t-62 -190.5t-160 -74.5q-96 0 -140 62l-9 -52h-164v760h184zM320 361q-52 0 -80 -48v-117q29 -47 80 -47q39 0 62 28t23 78t-23 78t-62 28z" />
    <glyph glyph-name="c" unicode="c" horiz-adv-x="521" 
d="M296 520q142 0 215 -121l-128 -94q-26 57 -84 57q-40 0 -63 -30.5t-23 -76.5t23.5 -76.5t64.5 -30.5q55 0 88 56l122 -87q-31 -60 -87 -93.5t-128 -33.5q-115 0 -192 75.5t-77 189.5t77 189.5t192 75.5z" />
    <glyph glyph-name="d" unicode="d" horiz-adv-x="618" 
d="M562 760v-760h-164l-10 52q-43 -62 -139 -62q-98 0 -160 74.5t-62 190.5t62 190.5t160 74.5q86 0 129 -50v290h184zM298 361q-39 0 -62 -28t-23 -78t23 -78t62 -28q51 0 80 47v117q-28 48 -80 48z" />
    <glyph glyph-name="e" unicode="e" horiz-adv-x="567" 
d="M294 520q118 0 180 -73t62 -184v-52h-323q1 -33 27.5 -52.5t68.5 -19.5q61 0 95 42l123 -90q-78 -101 -226 -101q-121 0 -197.5 74.5t-76.5 189.5q0 116 74.5 191t192.5 75zM286 390q-32 0 -52 -22t-21 -54h142q-1 32 -19 54t-50 22z" />
    <glyph glyph-name="f" unicode="f" horiz-adv-x="409" 
d="M324 760q77 0 124 -29l-63 -148q-20 18 -50 18q-50 0 -50 -58v-33h101v-154h-101v-356h-184v356h-86v154h86v23q0 101 60.5 164t162.5 63z" />
    <glyph glyph-name="g" unicode="g" horiz-adv-x="616" 
d="M248 520q97 0 139 -63l10 53h164v-483q0 -124 -76.5 -195.5t-206.5 -71.5q-158 0 -261 111l119 121q31 -35 63 -54t77 -19q46 0 72.5 29.5t28.5 74.5v37q-43 -50 -129 -50q-98 0 -160 72t-62 183t62 183t160 72zM297 361q-39 0 -62 -25t-23 -71t23 -71t62 -25q52 0 80 48
v97q-29 47 -80 47z" />
    <glyph glyph-name="h" unicode="h" horiz-adv-x="602" 
d="M240 760v-287q42 47 121 47q93 0 142 -61.5t49 -169.5v-289h-184v279q0 31 -15.5 50t-42.5 19q-49 0 -70 -44v-304h-184v760h184z" />
    <glyph glyph-name="i" unicode="i" horiz-adv-x="294" 
d="M147 772q45 0 74 -29t29 -74t-29 -74t-74 -29t-74 29t-29 74t29 74t74 29zM239 510v-510h-184v510h184z" />
    <glyph glyph-name="j" unicode="j" horiz-adv-x="300" 
d="M153 772q45 0 74 -29t29 -74t-29 -74t-74 -29t-74 29t-29 74t29 74t74 29zM5 -240q-95 0 -157 53l97 131q27 -25 56 -25q28 0 44 16t16 45v530h184v-516q0 -101 -67.5 -167.5t-172.5 -66.5z" />
    <glyph glyph-name="k" unicode="k" horiz-adv-x="602" 
d="M240 760v-479l144 229h210l-154 -207l161 -303h-207l-79 149l-115 -149h-144v760h184z" />
    <glyph glyph-name="l" unicode="l" horiz-adv-x="296" 
d="M240 760v-760h-184v760h184z" />
    <glyph glyph-name="m" unicode="m" horiz-adv-x="901" 
d="M669 520q89 0 135.5 -61.5t46.5 -169.5v-289h-184v279q0 69 -53 69q-44 0 -69 -44v-304h-184v279q0 69 -53 69q-44 0 -69 -44v-304h-184v510h164l9 -51q42 61 135 61q102 0 149 -83q59 83 157 83z" />
    <glyph glyph-name="n" unicode="n" horiz-adv-x="601" 
d="M360 520q93 0 142 -61.5t49 -169.5v-289h-184v279q0 31 -15.5 50t-42.5 19q-49 0 -70 -44v-304h-184v510h164l9 -51q39 61 132 61z" />
    <glyph glyph-name="o" unicode="o" horiz-adv-x="603" 
d="M301 520q119 0 197 -75.5t78 -190.5t-78 -189.5t-197 -74.5t-196.5 74.5t-77.5 189.5t78 190.5t196 75.5zM301 361q-40 0 -64 -29.5t-24 -77.5q0 -47 24 -76t64 -29t64.5 29t24.5 76q0 48 -24.5 77.5t-64.5 29.5z" />
    <glyph glyph-name="p" unicode="p" horiz-adv-x="617" 
d="M368 520q98 0 160 -74.5t62 -190.5t-62 -190.5t-160 -74.5q-86 0 -129 50v-270h-184v740h164l9 -53q44 63 140 63zM319 361q-51 0 -80 -47v-117q28 -48 80 -48q39 0 62 28t23 78t-23 78t-62 28z" />
    <glyph glyph-name="q" unicode="q" horiz-adv-x="617" 
d="M249 520q97 0 139 -63l10 53h164v-740h-184v270q-43 -50 -129 -50q-98 0 -160 74.5t-62 190.5t62 190.5t160 74.5zM298 361q-39 0 -62 -28t-23 -78t23 -78t62 -28q52 0 80 48v117q-29 47 -80 47z" />
    <glyph glyph-name="r" unicode="r" horiz-adv-x="388" 
d="M373 520v-182h-15q-72 0 -119 -54v-284h-184v510h163l11 -65q20 33 57.5 54t86.5 21z" />
    <glyph glyph-name="s" unicode="s" horiz-adv-x="478" 
d="M267 520q114 0 186 -56l-64 -123q-65 45 -122 45q-47 0 -47 -27q0 -12 15.5 -20.5t65.5 -20.5q150 -38 150 -150q0 -81 -63 -129.5t-173 -48.5q-127 0 -198 58l65 125q60 -49 134 -49q51 0 51 27q0 14 -13.5 23.5t-56.5 20.5q-83 21 -122 55.5t-39 92.5q0 81 61 129
t170 48z" />
    <glyph glyph-name="t" unicode="t" horiz-adv-x="443" 
d="M279 677v-167h135v-154h-135v-149q0 -24 15.5 -38.5t41.5 -14.5q32 0 60 14l44 -144q-55 -34 -122 -34q-104 0 -163.5 56.5t-59.5 158.5v151h-86v154h86v167h184z" />
    <glyph glyph-name="u" unicode="u" 
d="M545 510v-510h-164l-9 51q-42 -61 -137 -61q-91 0 -138 61t-47 170v289h184v-279q0 -69 56 -69q46 0 71 44v304h184z" />
    <glyph glyph-name="v" unicode="v" horiz-adv-x="590" 
d="M590 510l-293 -520h-4l-293 520h206l89 -201l89 201h206z" />
    <glyph glyph-name="w" unicode="w" horiz-adv-x="772" 
d="M772 510l-258 -520h-4l-124 214l-125 -214h-4l-257 520h206l73 -201l105 201h4l104 -201l74 201h206z" />
    <glyph glyph-name="x" unicode="x" horiz-adv-x="557" 
d="M550 510l-148 -253l155 -257h-216l-66 140l-65 -140h-216l155 257l-148 253h213l61 -140l62 140h213z" />
    <glyph glyph-name="y" unicode="y" horiz-adv-x="590" 
d="M590 510l-414 -740h-210l230 391l-196 349h206l88 -201l90 201h206z" />
    <glyph glyph-name="z" unicode="z" horiz-adv-x="498" 
d="M475 510v-4l-191 -352h189v-154h-452v4l191 352h-179v154h442z" />
    <glyph glyph-name="braceleft" unicode="{" horiz-adv-x="356" 
d="M321 769v-143q-45 0 -62 -27t-8 -73l8 -40q12 -58 -3.5 -98t-47.5 -49q32 -9 47.5 -49t3.5 -98l-8 -40q-9 -46 8 -73t62 -27v-143q-151 0 -208.5 73t-30.5 204l8 38q9 44 -14 74.5t-61 38.5v4q38 8 61 38.5t14 74.5l-8 38q-27 131 30 204t209 73z" />
    <glyph glyph-name="bar" unicode="|" horiz-adv-x="263" 
d="M218 699v-820h-173v820h173z" />
    <glyph glyph-name="braceright" unicode="}" horiz-adv-x="356" 
d="M35 769q152 0 209 -73t30 -204l-8 -38q-9 -44 14 -74.5t61 -38.5v-4q-38 -8 -61 -38.5t-14 -74.5l8 -38q27 -131 -30 -204t-209 -73v143q45 0 62 27t8 73l-8 40q-12 58 3.5 98t47.5 49q-32 9 -47.5 49t-3.5 98l8 40q9 46 -8 73t-62 27v143z" />
    <glyph glyph-name="asciitilde" unicode="~" horiz-adv-x="651" 
d="M227 473q44 0 81 -19.5t65.5 -38.5t51.5 -19q62 0 90 65l103 -86q-29 -70 -80.5 -109t-113.5 -39q-36 0 -65.5 12t-45.5 26.5t-39 26.5t-47 12q-63 0 -91 -65l-103 86q29 70 80.5 109t113.5 39z" />
    <glyph glyph-name="exclamdown" unicode="&#xa1;" horiz-adv-x="318" 
d="M159 303q-47 0 -77 30.5t-30 76.5t30 76.5t77 30.5t77 -30.5t30 -76.5t-30 -76.5t-77 -30.5zM68 -228v483h184v-483h-184z" />
    <glyph glyph-name="cent" unicode="&#xa2;" horiz-adv-x="521" 
d="M301 148q55 0 88 56l122 -87q-47 -90 -142 -117v-151h-151v151q-86 24 -138.5 93t-52.5 162t52.5 162t138.5 93v134h151v-133q89 -25 142 -112l-128 -94q-26 57 -84 57q-40 0 -63 -30.5t-23 -76.5t23.5 -76.5t64.5 -30.5z" />
    <glyph glyph-name="sterling" unicode="&#xa3;" horiz-adv-x="618" 
d="M428 231h179q0 -231 -205 -231h-388v4q5 7 18 25.5t20 28.5t19 28.5t19 32t16 32.5t13.5 36t8 36.5t3.5 39.5t-4 40h-107v141h59q-9 30 -9 67q0 106 71 171.5t187 65.5q96 0 155.5 -53.5t78.5 -124.5l-178 -48q-2 31 -19 49t-45 18q-30 0 -48 -17.5t-18 -48.5
q0 -37 14 -79h145v-141h-103q5 -23 5 -41q0 -65 -29 -103h76q35 0 50.5 15.5t15.5 56.5z" />
    <glyph glyph-name="currency" unicode="&#xa4;" horiz-adv-x="675" 
d="M544 580l116 -116l-115 -115q17 -42 17 -87q0 -48 -18 -88l116 -115l-116 -116l-119 118q-41 -15 -88 -15t-88 15l-118 -118l-116 116l115 115q-17 42 -17 88q0 45 17 87l-115 115l116 116l116 -117q42 17 90 17q42 0 90 -17zM337 345q-31 0 -51.5 -23.5t-20.5 -59.5
q0 -35 20.5 -58t51.5 -23t52 23t21 58t-21 59t-52 24z" />
    <glyph glyph-name="yen" unicode="&#xa5;" horiz-adv-x="720" 
d="M720 735l-193 -323h95v-131h-166v-66h166v-131h-166v-84h-190v84h-166v131h166v66h-166v131h93l-193 323h221l139 -254l139 254h221z" />
    <glyph glyph-name="brokenbar" unicode="&#xa6;" horiz-adv-x="263" 
d="M218 699v-308h-173v308h173zM218 187v-308h-173v308h173z" />
    <glyph glyph-name="section" unicode="&#xa7;" horiz-adv-x="480" 
d="M263 748q105 0 172 -75l-101 -110q-28 38 -72 38q-28 0 -42.5 -13.5t-14.5 -36.5q0 -31 32 -44q10 -4 29 -6.5t23 -3.5q73 -13 118.5 -60.5t45.5 -113.5q0 -77 -63 -129q49 -39 49 -106q0 -79 -62 -134t-166 -55q-127 0 -193 89l109 110q29 -52 85 -52q28 0 42.5 13.5
t14.5 36.5q0 24 -21 39q-8 5 -17 7t-21 3.5t-19 3.5q-75 13 -120.5 60t-45.5 114q0 78 60 127q-50 41 -50 109q0 79 62 134t166 55zM239 383q-23 0 -38 -17t-15 -43q0 -25 15 -41.5t38 -16.5t38 16.5t15 41.5t-15 42.5t-38 17.5z" />
    <glyph glyph-name="dieresis" unicode="&#xa8;" horiz-adv-x="401" 
d="M97 737q36 0 59 -23t23 -59t-23 -59t-59 -23t-59 23t-23 59t23 59t59 23zM304 737q36 0 59 -23t23 -59t-23 -59t-59 -23t-59 23t-23 59t23 59t59 23z" />
    <glyph glyph-name="copyright" unicode="&#xa9;" horiz-adv-x="831" 
d="M415 748q161 0 268.5 -109t107.5 -272q0 -164 -107 -272t-269 -108q-163 0 -269 108t-106 272t106.5 272.5t268.5 108.5zM415 660q-121 0 -199.5 -84t-78.5 -209q0 -126 78.5 -209t199.5 -83q120 0 199 83t79 209q0 125 -79 209t-199 84zM434 576q86 0 143 -61l-63 -77
q-27 37 -80 37q-47 0 -73 -26.5t-26 -73.5q0 -49 26 -75.5t73 -26.5q50 0 80 37l62 -77q-55 -61 -142 -61q-90 0 -148 57t-58 146q0 87 58.5 144t147.5 57z" />
    <glyph glyph-name="ordfeminine" unicode="&#xaa;" horiz-adv-x="447" 
d="M174 754q66 0 93 -42l8 35h129v-359h-129l-8 34q-27 -41 -93 -41q-68 0 -111 52.5t-43 133.5q0 82 43 134.5t111 52.5zM214 628q-47 0 -47 -61t47 -61q28 0 45 28v67q-16 27 -45 27z" />
    <glyph glyph-name="guillemotleft" unicode="&#xab;" horiz-adv-x="607" 
d="M309 458l-108 -202l108 -202h-164l-115 200v4l115 200h164zM577 458l-108 -202l108 -202h-164l-115 200v4l115 200h164z" />
    <glyph glyph-name="logicalnot" unicode="&#xac;" horiz-adv-x="640" 
d="M605 468v-330h-126v204h-444v126h570z" />
    <glyph glyph-name="registered" unicode="&#xae;" horiz-adv-x="704" 
d="M352 790q138 0 230 -93.5t92 -233.5q0 -141 -92 -233.5t-230 -92.5q-139 0 -230.5 92.5t-91.5 233.5t91.5 234t230.5 93zM352 221q99 0 164.5 69t65.5 173q0 103 -65.5 173t-164.5 70q-100 0 -165 -69.5t-65 -173.5t65 -173t165 -69zM487 524q0 -66 -57 -101l73 -124
h-106l-62 107h-26v-107h-92v339h148q50 0 86 -31t36 -83zM309 556v-68h46q40 0 40 34t-40 34h-46z" />
    <glyph glyph-name="macron" unicode="&#xaf;" horiz-adv-x="315" 
d="M300 709v-120h-285v120h285z" />
    <glyph glyph-name="degree" unicode="&#xb0;" horiz-adv-x="380" 
d="M191 747q71 0 117.5 -46.5t46.5 -117.5q0 -70 -46.5 -116t-117.5 -46q-72 0 -119 46t-47 116q0 71 47 117.5t119 46.5zM191 637q-22 0 -35.5 -15.5t-13.5 -38.5q0 -22 14 -37t35 -15q20 0 33.5 15t13.5 37q0 23 -13.5 38.5t-33.5 15.5z" />
    <glyph glyph-name="plusminus" unicode="&#xb1;" horiz-adv-x="532" 
d="M349 712v-149h150v-167h-150v-150h-167v150h-149v167h149v149h167zM499 200v-167h-466v167h466z" />
    <glyph glyph-name="two.sups" unicode="&#xb2;" horiz-adv-x="343" 
d="M168 821q74 0 118 -41t44 -104q0 -44 -42 -104l-45 -64h87v-114h-303v3l150 239q21 33 21 44q0 26 -30 26q-31 0 -36 -49l-118 27q25 137 154 137z" />
    <glyph glyph-name="three.sups" unicode="&#xb3;" horiz-adv-x="335" 
d="M172 821q70 0 113 -40.5t43 -100.5q0 -47 -38 -78q41 -29 41 -79q0 -60 -43 -98.5t-116 -38.5q-135 0 -155 132l118 25q1 -42 37 -42q28 0 28 28q0 30 -26 30h-45v97h45q25 2 25 25q0 25 -29 25q-28 0 -29 -33l-113 47q28 101 144 101z" />
    <glyph glyph-name="acute" unicode="&#xb4;" horiz-adv-x="363" 
d="M348 726l-185 -155h-148l131 155h202z" />
    <glyph glyph-name="mu" unicode="&#xb5;" horiz-adv-x="615" 
d="M555 510v-510h-164l-9 50q-43 -60 -119 -60q-13 0 -19 1v-221h-184v740h184v-285q0 -29 14.5 -46t41.5 -17q46 0 71 44v304h184z" />
    <glyph glyph-name="paragraph" unicode="&#xb6;" horiz-adv-x="798" 
d="M773 735v-140h-79v-705h-152v705h-92v-705h-152v413h-2q-119 0 -195.5 53.5t-76.5 157.5q0 107 75.5 164t198.5 57h475z" />
    <glyph glyph-name="periodcentered" unicode="&#xb7;" horiz-adv-x="284" 
d="M142 364q46 0 76.5 -30t30.5 -77t-30.5 -77t-76.5 -30t-76.5 30t-30.5 77t30.5 77t76.5 30z" />
    <glyph glyph-name="cedilla" unicode="&#xb8;" horiz-adv-x="251" 
d="M85 33l70 -7l-19 -56q105 -8 105 -91q0 -51 -36.5 -80t-85.5 -29q-58 0 -104 37l43 59q26 -23 52 -23q16 0 25.5 9t9.5 24q0 33 -48 33q-27 0 -49 -6l-3 4z" />
    <glyph glyph-name="one.sups" unicode="&#xb9;" horiz-adv-x="278" 
d="M242 821v-427h-130v230l-44 -17l-51 122l223 92h2z" />
    <glyph glyph-name="ordmasculine" unicode="&#xba;" horiz-adv-x="431" 
d="M215 754q84 0 140 -53.5t56 -133.5q0 -81 -56 -133.5t-140 -52.5t-139.5 52.5t-55.5 133.5q0 80 55.5 133.5t139.5 53.5zM215 628q-21 0 -34.5 -17.5t-13.5 -43.5t13.5 -43.5t34.5 -17.5t35 17.5t14 43.5t-14 43.5t-35 17.5z" />
    <glyph glyph-name="guillemotright" unicode="&#xbb;" horiz-adv-x="607" 
d="M194 458l115 -200v-4l-115 -200h-164l108 202l-108 202h164zM462 458l115 -200v-4l-115 -200h-164l108 202l-108 202h164z" />
    <glyph glyph-name="onequarter" unicode="&#xbc;" horiz-adv-x="803" 
d="M677 735l-363 -735h-146l364 735h145zM242 721v-427h-130v230l-44 -17l-51 122l223 92h2zM763 428v-305h35v-89h-35v-34h-130v34h-206v1l334 393h2zM652 188l-67 -74h67v74z" />
    <glyph glyph-name="onehalf" unicode="&#xbd;" horiz-adv-x="860" 
d="M652 735l-363 -735h-146l364 735h145zM242 721v-427h-130v230l-44 -17l-51 122l223 92h2zM685 427q74 0 118 -41t44 -104q0 -44 -42 -104l-45 -64h87v-114h-303v3l150 239q21 33 21 44q0 26 -30 26q-31 0 -36 -49l-118 27q25 137 154 137z" />
    <glyph glyph-name="threequarters" unicode="&#xbe;" horiz-adv-x="860" 
d="M737 735l-363 -735h-146l364 735h145zM172 721q70 0 113 -40.5t43 -100.5q0 -47 -38 -78q41 -29 41 -79q0 -60 -43 -98.5t-116 -38.5q-135 0 -155 132l118 25q1 -42 37 -42q28 0 28 28q0 30 -26 30h-45v97h45q25 2 25 25q0 25 -29 25q-28 0 -29 -33l-113 47
q28 101 144 101zM820 428v-305h35v-89h-35v-34h-130v34h-206v1l334 393h2zM709 188l-67 -74h67v74z" />
    <glyph glyph-name="questiondown" unicode="&#xbf;" horiz-adv-x="551" 
d="M285 303q-47 0 -77 30.5t-30 76.5t30 76.5t77 30.5t77 -30.5t30 -76.5t-30 -76.5t-77 -30.5zM282 -241q-111 0 -182.5 63t-71.5 153q0 50 17 85t41.5 54t49 36t41.5 42.5t17 60.5v2h184v-28q0 -48 -16.5 -83t-39.5 -53.5t-46 -34t-39.5 -34.5t-16.5 -44q0 -26 18 -41
t46 -15q29 0 48.5 20t21.5 49l181 -29q-20 -97 -85 -150t-168 -53z" />
    <glyph glyph-name="Agrave" unicode="&#xc0;" horiz-adv-x="744" 
d="M332 905l121 -123h-168l-165 123h212zM374 748l368 -748h-213l-34 86h-246l-34 -86h-213l368 748h4zM372 400l-67 -172h134z" />
    <glyph glyph-name="Aacute" unicode="&#xc1;" horiz-adv-x="744" 
d="M607 905l-165 -123h-168l121 123h212zM374 748l368 -748h-213l-34 86h-246l-34 -86h-213l368 748h4zM372 400l-67 -172h134z" />
    <glyph glyph-name="Acircumflex" unicode="&#xc2;" horiz-adv-x="744" 
d="M372 944l186 -162h-135l-51 41l-51 -41h-135zM374 748l368 -748h-213l-34 86h-246l-34 -86h-213l368 748h4zM372 400l-67 -172h134z" />
    <glyph glyph-name="Atilde" unicode="&#xc3;" horiz-adv-x="744" 
d="M317 943q28 0 51.5 -15.5t41 -31t29.5 -15.5q29 0 29 56h90q0 -76 -37.5 -118t-92.5 -42q-23 0 -42 9.5t-28.5 21.5t-22 21.5t-25.5 9.5q-19 0 -26 -13t-7 -43h-90q0 79 37 119.5t93 40.5zM374 748l368 -748h-213l-34 86h-246l-34 -86h-213l368 748h4zM372 400l-67 -172
h134z" />
    <glyph glyph-name="Adieresis" unicode="&#xc4;" horiz-adv-x="744" 
d="M269 934q36 0 59 -23t23 -59t-23 -59t-59 -23t-59 23t-23 59t23 59t59 23zM476 934q36 0 59 -23t23 -59t-23 -59t-59 -23t-59 23t-23 59t23 59t59 23zM374 748l368 -748h-213l-34 86h-246l-34 -86h-213l368 748h4zM372 400l-67 -172h134z" />
    <glyph glyph-name="Aring" unicode="&#xc5;" horiz-adv-x="744" 
d="M373 1038q56 0 93.5 -37.5t37.5 -93.5t-37.5 -92.5t-93.5 -36.5q-57 0 -94.5 36.5t-37.5 92.5t37.5 93.5t94.5 37.5zM373 945q-15 0 -25 -11t-10 -27t10 -26t25 -10q14 0 24 10t10 26t-10 27t-24 11zM374 748l368 -748h-213l-34 86h-246l-34 -86h-213l368 748h4zM372 400
l-67 -172h134z" />
    <glyph glyph-name="AE" unicode="&#xc6;" horiz-adv-x="905" 
d="M858 735v-173h-350l43 -110h265v-159h-199l49 -120h200v-173h-337l-34 86h-246l-34 -86h-213l332 735h524zM372 400l-67 -172h134z" />
    <glyph glyph-name="Ccedilla" unicode="&#xc7;" horiz-adv-x="695" 
d="M412 160q93 0 154 78l118 -138q-102 -113 -272 -113h-6l-6 -17q105 -8 105 -91q0 -51 -36.5 -80t-85.5 -29q-58 0 -104 37l43 59q26 -23 52 -23q16 0 25.5 9t9.5 24q0 33 -48 33q-27 0 -49 -6l-3 4l28 87q-136 24 -220.5 127.5t-84.5 246.5q0 163 107.5 271.5
t272.5 108.5q90 0 153.5 -27t119.5 -86l-119 -138q-61 78 -154 78q-85 0 -136 -57.5t-51 -149.5t51 -150t136 -58z" />
    <glyph glyph-name="Egrave" unicode="&#xc8;" horiz-adv-x="603" 
d="M285 905l121 -123h-168l-165 123h212zM556 735v-173h-299v-110h257v-159h-257v-120h307v-173h-497v735h489z" />
    <glyph glyph-name="Eacute" unicode="&#xc9;" horiz-adv-x="603" 
d="M560 905l-165 -123h-168l121 123h212zM556 735v-173h-299v-110h257v-159h-257v-120h307v-173h-497v735h489z" />
    <glyph glyph-name="Ecircumflex" unicode="&#xca;" horiz-adv-x="603" 
d="M325 944l186 -162h-135l-51 41l-51 -41h-135zM556 735v-173h-299v-110h257v-159h-257v-120h307v-173h-497v735h489z" />
    <glyph glyph-name="Edieresis" unicode="&#xcb;" horiz-adv-x="603" 
d="M222 934q36 0 59 -23t23 -59t-23 -59t-59 -23t-59 23t-23 59t23 59t59 23zM429 934q36 0 59 -23t23 -59t-23 -59t-59 -23t-59 23t-23 59t23 59t59 23zM556 735v-173h-299v-110h257v-159h-257v-120h307v-173h-497v735h489z" />
    <glyph glyph-name="Igrave" unicode="&#xcc;" horiz-adv-x="324" 
d="M122 905l121 -123h-168l-165 123h212zM257 735v-735h-190v735h190z" />
    <glyph glyph-name="Iacute" unicode="&#xcd;" horiz-adv-x="324" 
d="M397 905l-165 -123h-168l121 123h212zM257 735v-735h-190v735h190z" />
    <glyph glyph-name="Icircumflex" unicode="&#xce;" horiz-adv-x="324" 
d="M162 944l186 -162h-135l-51 41l-51 -41h-135zM257 735v-735h-190v735h190z" />
    <glyph glyph-name="Idieresis" unicode="&#xcf;" horiz-adv-x="324" 
d="M59 934q36 0 59 -23t23 -59t-23 -59t-59 -23t-59 23t-23 59t23 59t59 23zM266 934q36 0 59 -23t23 -59t-23 -59t-59 -23t-59 23t-23 59t23 59t59 23zM257 735v-735h-190v735h190z" />
    <glyph glyph-name="Eth" unicode="&#xd0;" horiz-adv-x="764" 
d="M325 735q191 0 299 -97t108 -270q0 -174 -107.5 -271t-299.5 -97h-242v320h-80v120h80v295h242zM319 173q109 0 164.5 50.5t55.5 143.5t-55.5 143.5t-164.5 50.5h-46v-121h93v-120h-93v-147h46z" />
    <glyph glyph-name="Ntilde" unicode="&#xd1;" horiz-adv-x="743" 
d="M307 943q28 0 51.5 -15.5t41 -31t29.5 -15.5q29 0 29 56h90q0 -76 -37.5 -118t-92.5 -42q-23 0 -42 9.5t-28.5 21.5t-22 21.5t-25.5 9.5q-19 0 -26 -13t-7 -43h-90q0 79 37 119.5t93 40.5zM71 748l415 -360v347h190v-748h-4l-415 360v-347h-190v748h4z" />
    <glyph glyph-name="Ograve" unicode="&#xd2;" horiz-adv-x="830" 
d="M375 915l121 -123h-168l-165 123h212zM415 748q164 0 273.5 -108.5t109.5 -273.5q0 -164 -109.5 -271.5t-273.5 -107.5q-165 0 -274 107.5t-109 271.5q0 165 109 273.5t274 108.5zM415 575q-84 0 -137 -58.5t-53 -150.5q0 -91 53 -148.5t137 -57.5t137 57.5t53 148.5
q0 92 -53 150.5t-137 58.5z" />
    <glyph glyph-name="Oacute" unicode="&#xd3;" horiz-adv-x="830" 
d="M650 915l-165 -123h-168l121 123h212zM415 748q164 0 273.5 -108.5t109.5 -273.5q0 -164 -109.5 -271.5t-273.5 -107.5q-165 0 -274 107.5t-109 271.5q0 165 109 273.5t274 108.5zM415 575q-84 0 -137 -58.5t-53 -150.5q0 -91 53 -148.5t137 -57.5t137 57.5t53 148.5
q0 92 -53 150.5t-137 58.5z" />
    <glyph glyph-name="Ocircumflex" unicode="&#xd4;" horiz-adv-x="830" 
d="M415 954l186 -162h-135l-51 41l-51 -41h-135zM415 748q164 0 273.5 -108.5t109.5 -273.5q0 -164 -109.5 -271.5t-273.5 -107.5q-165 0 -274 107.5t-109 271.5q0 165 109 273.5t274 108.5zM415 575q-84 0 -137 -58.5t-53 -150.5q0 -91 53 -148.5t137 -57.5t137 57.5
t53 148.5q0 92 -53 150.5t-137 58.5z" />
    <glyph glyph-name="Otilde" unicode="&#xd5;" horiz-adv-x="830" 
d="M360 953q28 0 51.5 -15.5t41 -31t29.5 -15.5q29 0 29 56h90q0 -76 -37.5 -118t-92.5 -42q-23 0 -42 9.5t-28.5 21.5t-22 21.5t-25.5 9.5q-19 0 -26 -13t-7 -43h-90q0 79 37 119.5t93 40.5zM415 748q164 0 273.5 -108.5t109.5 -273.5q0 -164 -109.5 -271.5t-273.5 -107.5
q-165 0 -274 107.5t-109 271.5q0 165 109 273.5t274 108.5zM415 575q-84 0 -137 -58.5t-53 -150.5q0 -91 53 -148.5t137 -57.5t137 57.5t53 148.5q0 92 -53 150.5t-137 58.5z" />
    <glyph glyph-name="Odieresis" unicode="&#xd6;" horiz-adv-x="830" 
d="M312 944q36 0 59 -23t23 -59t-23 -59t-59 -23t-59 23t-23 59t23 59t59 23zM519 944q36 0 59 -23t23 -59t-23 -59t-59 -23t-59 23t-23 59t23 59t59 23zM415 748q164 0 273.5 -108.5t109.5 -273.5q0 -164 -109.5 -271.5t-273.5 -107.5q-165 0 -274 107.5t-109 271.5
q0 165 109 273.5t274 108.5zM415 575q-84 0 -137 -58.5t-53 -150.5q0 -91 53 -148.5t137 -57.5t137 57.5t53 148.5q0 92 -53 150.5t-137 58.5z" />
    <glyph glyph-name="multiply" unicode="&#xd7;" horiz-adv-x="519" 
d="M370 578l118 -118l-111 -111l111 -111l-118 -118l-111 111l-110 -110l-118 118l110 110l-110 110l118 118l110 -110z" />
    <glyph glyph-name="Oslash" unicode="&#xd8;" horiz-adv-x="820" 
d="M662 664q64 -53 100 -130t36 -168q0 -164 -109.5 -271.5t-273.5 -107.5q-62 0 -119 17l-47 -84h-162l83 149q-65 52 -101.5 129t-36.5 168q0 165 109 273.5t274 108.5q65 0 122 -18l47 85h162zM225 366q0 -75 38 -129l186 335q-17 3 -34 3q-84 0 -137 -58.5t-53 -150.5z
M415 160q84 0 137 57.5t53 148.5q0 76 -36 129l-185 -333q20 -2 31 -2z" />
    <glyph glyph-name="Ugrave" unicode="&#xd9;" horiz-adv-x="724" 
d="M322 905l121 -123h-168l-165 123h212zM666 735v-467q0 -129 -79.5 -205t-224.5 -76t-224.5 76t-79.5 205v467h190v-454q0 -55 30 -88t84 -33t84 33t30 88v454h190z" />
    <glyph glyph-name="Uacute" unicode="&#xda;" horiz-adv-x="724" 
d="M597 905l-165 -123h-168l121 123h212zM666 735v-467q0 -129 -79.5 -205t-224.5 -76t-224.5 76t-79.5 205v467h190v-454q0 -55 30 -88t84 -33t84 33t30 88v454h190z" />
    <glyph glyph-name="Ucircumflex" unicode="&#xdb;" horiz-adv-x="724" 
d="M362 944l186 -162h-135l-51 41l-51 -41h-135zM666 735v-467q0 -129 -79.5 -205t-224.5 -76t-224.5 76t-79.5 205v467h190v-454q0 -55 30 -88t84 -33t84 33t30 88v454h190z" />
    <glyph glyph-name="Udieresis" unicode="&#xdc;" horiz-adv-x="724" 
d="M259 934q36 0 59 -23t23 -59t-23 -59t-59 -23t-59 23t-23 59t23 59t59 23zM466 934q36 0 59 -23t23 -59t-23 -59t-59 -23t-59 23t-23 59t23 59t59 23zM666 735v-467q0 -129 -79.5 -205t-224.5 -76t-224.5 76t-79.5 205v467h190v-454q0 -55 30 -88t84 -33t84 33t30 88v454
h190z" />
    <glyph glyph-name="Yacute" unicode="&#xdd;" horiz-adv-x="724" 
d="M597 905l-165 -123h-168l121 123h212zM722 735l-264 -442v-293h-190v290l-266 445h221l139 -254l139 254h221z" />
    <glyph glyph-name="Thorn" unicode="&#xde;" horiz-adv-x="634" 
d="M257 735v-116h102q104 0 177.5 -62t73.5 -169t-73.5 -169t-177.5 -62h-102v-157h-190v735h190zM340 456h-83v-136h83q35 0 56 17.5t21 50.5q0 32 -21 50t-56 18z" />
    <glyph glyph-name="germandbls" unicode="&#xdf;" horiz-adv-x="660" 
d="M327 748q118 0 188 -62.5t70 -160.5q0 -79 -56 -124q45 -18 74.5 -63.5t29.5 -115.5q0 -107 -70 -171t-192 -64q-53 0 -93 16l29 161q28 -14 60 -14q33 0 56 21t23 53q0 53 -66 72q-24 7 -65 7v138q31 2 54 16q31 21 31 57q0 32 -23 52t-58 20q-34 0 -57 -22.5t-23 -65.5
v-498h-184v487q0 113 80 187t192 74z" />
    <glyph glyph-name="agrave" unicode="&#xe0;" horiz-adv-x="611" 
d="M246 726l131 -155h-148l-185 155h202zM246 520q94 0 136 -63l10 53h164v-510h-164l-10 52q-43 -62 -136 -62q-97 0 -158 74.5t-61 190.5t61 190.5t158 74.5zM295 361q-38 0 -60 -28t-22 -78t22 -78t60 -28q48 0 77 47v118q-29 47 -77 47z" />
    <glyph glyph-name="aacute" unicode="&#xe1;" horiz-adv-x="611" 
d="M544 726l-185 -155h-148l131 155h202zM246 520q94 0 136 -63l10 53h164v-510h-164l-10 52q-43 -62 -136 -62q-97 0 -158 74.5t-61 190.5t61 190.5t158 74.5zM295 361q-38 0 -60 -28t-22 -78t22 -78t60 -28q48 0 77 47v118q-29 47 -77 47z" />
    <glyph glyph-name="acircumflex" unicode="&#xe2;" horiz-adv-x="611" 
d="M298 784l176 -211h-130l-46 51l-46 -51h-130zM246 520q94 0 136 -63l10 53h164v-510h-164l-10 52q-43 -62 -136 -62q-97 0 -158 74.5t-61 190.5t61 190.5t158 74.5zM295 361q-38 0 -60 -28t-22 -78t22 -78t60 -28q48 0 77 47v118q-29 47 -77 47z" />
    <glyph glyph-name="atilde" unicode="&#xe3;" horiz-adv-x="611" 
d="M243 746q28 0 51.5 -15.5t41 -31t29.5 -15.5q29 0 29 56h90q0 -81 -37.5 -125.5t-92.5 -44.5q-23 0 -42 9.5t-28.5 21.5t-22 21.5t-25.5 9.5q-19 0 -26 -13t-7 -43h-90q0 84 37 127t93 43zM246 520q94 0 136 -63l10 53h164v-510h-164l-10 52q-43 -62 -136 -62
q-97 0 -158 74.5t-61 190.5t61 190.5t158 74.5zM295 361q-38 0 -60 -28t-22 -78t22 -78t60 -28q48 0 77 47v118q-29 47 -77 47z" />
    <glyph glyph-name="adieresis" unicode="&#xe4;" horiz-adv-x="611" 
d="M195 737q36 0 59 -23t23 -59t-23 -59t-59 -23t-59 23t-23 59t23 59t59 23zM402 737q36 0 59 -23t23 -59t-23 -59t-59 -23t-59 23t-23 59t23 59t59 23zM246 520q94 0 136 -63l10 53h164v-510h-164l-10 52q-43 -62 -136 -62q-97 0 -158 74.5t-61 190.5t61 190.5t158 74.5z
M295 361q-38 0 -60 -28t-22 -78t22 -78t60 -28q48 0 77 47v118q-29 47 -77 47z" />
    <glyph glyph-name="aring" unicode="&#xe5;" horiz-adv-x="611" 
d="M299 826q56 0 93.5 -37.5t37.5 -93.5t-37.5 -92.5t-93.5 -36.5q-57 0 -94.5 36.5t-37.5 92.5t37.5 93.5t94.5 37.5zM299 733q-15 0 -25 -11t-10 -27t10 -26t25 -10q14 0 24 10t10 26t-10 27t-24 11zM246 520q94 0 136 -63l10 53h164v-510h-164l-10 52q-43 -62 -136 -62
q-97 0 -158 74.5t-61 190.5t61 190.5t158 74.5zM295 361q-38 0 -60 -28t-22 -78t22 -78t60 -28q48 0 77 47v118q-29 47 -77 47z" />
    <glyph glyph-name="ae" unicode="&#xe6;" horiz-adv-x="947" 
d="M684 520q114 0 173 -73t59 -184v-51h-336q21 -73 109 -73q63 0 95 43l123 -91q-79 -101 -217 -101q-46 0 -83 17t-55 44l-8 -51h-152l-10 52q-43 -62 -136 -62q-97 0 -158 74.5t-61 190.5t61 190.5t158 74.5q94 0 136 -63l10 53h154l9 -51q41 61 129 61zM657 390
q-31 0 -51 -20.5t-27 -55.5h156q-1 31 -22.5 53.5t-55.5 22.5zM295 361q-38 0 -60 -28t-22 -78t22 -78t60 -28q48 0 77 47v118q-29 47 -77 47z" />
    <glyph glyph-name="ccedilla" unicode="&#xe7;" horiz-adv-x="521" 
d="M301 148q55 0 88 56l122 -87q-30 -58 -84 -91.5t-123 -35.5l-7 -20q105 -8 105 -91q0 -51 -36.5 -80t-85.5 -29q-58 0 -104 37l43 59q26 -23 52 -23q16 0 25.5 9t9.5 24q0 33 -48 33q-27 0 -49 -6l-3 4l28 89q-92 20 -149.5 90.5t-57.5 168.5q0 114 77 189.5t192 75.5
q142 0 215 -121l-128 -94q-26 57 -84 57q-40 0 -63 -30.5t-23 -76.5t23.5 -76.5t64.5 -30.5z" />
    <glyph glyph-name="egrave" unicode="&#xe8;" horiz-adv-x="567" 
d="M238 726l131 -155h-148l-185 155h202zM294 520q118 0 180 -73t62 -184v-52h-323q1 -33 27.5 -52.5t68.5 -19.5q61 0 95 42l123 -90q-78 -101 -226 -101q-121 0 -197.5 74.5t-76.5 189.5q0 116 74.5 191t192.5 75zM286 390q-32 0 -52 -22t-21 -54h142q-1 32 -19 54t-50 22
z" />
    <glyph glyph-name="eacute" unicode="&#xe9;" horiz-adv-x="567" 
d="M536 726l-185 -155h-148l131 155h202zM294 520q118 0 180 -73t62 -184v-52h-323q1 -33 27.5 -52.5t68.5 -19.5q61 0 95 42l123 -90q-78 -101 -226 -101q-121 0 -197.5 74.5t-76.5 189.5q0 116 74.5 191t192.5 75zM286 390q-32 0 -52 -22t-21 -54h142q-1 32 -19 54t-50 22
z" />
    <glyph glyph-name="ecircumflex" unicode="&#xea;" horiz-adv-x="567" 
d="M290 784l176 -211h-130l-46 51l-46 -51h-130zM294 520q118 0 180 -73t62 -184v-52h-323q1 -33 27.5 -52.5t68.5 -19.5q61 0 95 42l123 -90q-78 -101 -226 -101q-121 0 -197.5 74.5t-76.5 189.5q0 116 74.5 191t192.5 75zM286 390q-32 0 -52 -22t-21 -54h142q-1 32 -19 54
t-50 22z" />
    <glyph glyph-name="edieresis" unicode="&#xeb;" horiz-adv-x="567" 
d="M187 737q36 0 59 -23t23 -59t-23 -59t-59 -23t-59 23t-23 59t23 59t59 23zM394 737q36 0 59 -23t23 -59t-23 -59t-59 -23t-59 23t-23 59t23 59t59 23zM294 520q118 0 180 -73t62 -184v-52h-323q1 -33 27.5 -52.5t68.5 -19.5q61 0 95 42l123 -90q-78 -101 -226 -101
q-121 0 -197.5 74.5t-76.5 189.5q0 116 74.5 191t192.5 75zM286 390q-32 0 -52 -22t-21 -54h142q-1 32 -19 54t-50 22z" />
    <glyph glyph-name="igrave" unicode="&#xec;" horiz-adv-x="304" 
d="M100 726l131 -155h-148l-185 155h202zM239 510v-510h-184v510h184z" />
    <glyph glyph-name="iacute" unicode="&#xed;" horiz-adv-x="304" 
d="M398 726l-185 -155h-148l131 155h202zM239 510v-510h-184v510h184z" />
    <glyph glyph-name="icircumflex" unicode="&#xee;" horiz-adv-x="294" 
d="M147 784l176 -211h-130l-46 51l-46 -51h-130zM239 510v-510h-184v510h184z" />
    <glyph glyph-name="idieresis" unicode="&#xef;" horiz-adv-x="304" 
d="M49 737q36 0 59 -23t23 -59t-23 -59t-59 -23t-59 23t-23 59t23 59t59 23zM256 737q36 0 59 -23t23 -59t-23 -59t-59 -23t-59 23t-23 59t23 59t59 23zM239 510v-510h-184v510h184z" />
    <glyph glyph-name="eth" unicode="&#xf0;" horiz-adv-x="593" 
d="M536 359q31 -57 31 -121q0 -107 -76.5 -177.5t-192.5 -70.5t-192 70.5t-76 177.5q0 94 60 161.5t155 84.5l-28 50h-177v131h104l-53 95h220l53 -95h178v-131h-104zM298 140q37 0 61.5 27.5t24.5 70.5t-24.5 72t-61.5 29q-36 0 -60 -29t-24 -72t24 -70.5t60 -27.5z" />
    <glyph glyph-name="ntilde" unicode="&#xf1;" horiz-adv-x="601" 
d="M248 746q28 0 51.5 -15.5t41 -31t29.5 -15.5q29 0 29 56h90q0 -81 -37.5 -125.5t-92.5 -44.5q-23 0 -42 9.5t-28.5 21.5t-22 21.5t-25.5 9.5q-19 0 -26 -13t-7 -43h-90q0 84 37 127t93 43zM360 520q93 0 142 -61.5t49 -169.5v-289h-184v279q0 31 -15.5 50t-42.5 19
q-49 0 -70 -44v-304h-184v510h164l9 -51q39 61 132 61z" />
    <glyph glyph-name="ograve" unicode="&#xf2;" horiz-adv-x="603" 
d="M249 726l131 -155h-148l-185 155h202zM301 520q119 0 197 -75.5t78 -190.5t-78 -189.5t-197 -74.5t-196.5 74.5t-77.5 189.5t78 190.5t196 75.5zM301 361q-40 0 -64 -29.5t-24 -77.5q0 -47 24 -76t64 -29t64.5 29t24.5 76q0 48 -24.5 77.5t-64.5 29.5z" />
    <glyph glyph-name="oacute" unicode="&#xf3;" horiz-adv-x="603" 
d="M547 726l-185 -155h-148l131 155h202zM301 520q119 0 197 -75.5t78 -190.5t-78 -189.5t-197 -74.5t-196.5 74.5t-77.5 189.5t78 190.5t196 75.5zM301 361q-40 0 -64 -29.5t-24 -77.5q0 -47 24 -76t64 -29t64.5 29t24.5 76q0 48 -24.5 77.5t-64.5 29.5z" />
    <glyph glyph-name="ocircumflex" unicode="&#xf4;" horiz-adv-x="603" 
d="M301 784l176 -211h-130l-46 51l-46 -51h-130zM301 520q119 0 197 -75.5t78 -190.5t-78 -189.5t-197 -74.5t-196.5 74.5t-77.5 189.5t78 190.5t196 75.5zM301 361q-40 0 -64 -29.5t-24 -77.5q0 -47 24 -76t64 -29t64.5 29t24.5 76q0 48 -24.5 77.5t-64.5 29.5z" />
    <glyph glyph-name="otilde" unicode="&#xf5;" horiz-adv-x="603" 
d="M246 746q28 0 51.5 -15.5t41 -31t29.5 -15.5q29 0 29 56h90q0 -81 -37.5 -125.5t-92.5 -44.5q-23 0 -42 9.5t-28.5 21.5t-22 21.5t-25.5 9.5q-19 0 -26 -13t-7 -43h-90q0 84 37 127t93 43zM301 520q119 0 197 -75.5t78 -190.5t-78 -189.5t-197 -74.5t-196.5 74.5
t-77.5 189.5t78 190.5t196 75.5zM301 361q-40 0 -64 -29.5t-24 -77.5q0 -47 24 -76t64 -29t64.5 29t24.5 76q0 48 -24.5 77.5t-64.5 29.5z" />
    <glyph glyph-name="odieresis" unicode="&#xf6;" horiz-adv-x="603" 
d="M198 737q36 0 59 -23t23 -59t-23 -59t-59 -23t-59 23t-23 59t23 59t59 23zM405 737q36 0 59 -23t23 -59t-23 -59t-59 -23t-59 23t-23 59t23 59t59 23zM301 520q119 0 197 -75.5t78 -190.5t-78 -189.5t-197 -74.5t-196.5 74.5t-77.5 189.5t78 190.5t196 75.5zM301 361
q-40 0 -64 -29.5t-24 -77.5q0 -47 24 -76t64 -29t64.5 29t24.5 76q0 48 -24.5 77.5t-64.5 29.5z" />
    <glyph glyph-name="divide" unicode="&#xf7;" horiz-adv-x="532" 
d="M265 676q44 0 73 -29t29 -73t-29 -72.5t-73 -28.5q-43 0 -72 28.5t-29 72.5t28.5 73t72.5 29zM499 433v-167h-466v167h466zM265 226q44 0 73 -29t29 -73t-29 -72.5t-73 -28.5q-43 0 -72 28.5t-29 72.5t28.5 73t72.5 29z" />
    <glyph glyph-name="oslash" unicode="&#xf8;" horiz-adv-x="603" 
d="M472 466q49 -36 76.5 -91t27.5 -121q0 -115 -78 -189.5t-197 -74.5q-41 0 -82 11l-38 -71h-112l61 113q-103 76 -103 211q0 115 78 190.5t196 75.5q43 0 82 -11l39 71h112zM203 254q0 -31 11 -56l94 173h-7q-43 0 -70.5 -33.5t-27.5 -83.5zM301 139q43 0 71 32.5t28 82.5
q0 32 -12 58l-93 -173h6z" />
    <glyph glyph-name="ugrave" unicode="&#xf9;" 
d="M246 726l131 -155h-148l-185 155h202zM545 510v-510h-164l-9 51q-42 -61 -137 -61q-91 0 -138 61t-47 170v289h184v-279q0 -69 56 -69q46 0 71 44v304h184z" />
    <glyph glyph-name="uacute" unicode="&#xfa;" 
d="M544 726l-185 -155h-148l131 155h202zM545 510v-510h-164l-9 51q-42 -61 -137 -61q-91 0 -138 61t-47 170v289h184v-279q0 -69 56 -69q46 0 71 44v304h184z" />
    <glyph glyph-name="ucircumflex" unicode="&#xfb;" 
d="M298 784l176 -211h-130l-46 51l-46 -51h-130zM545 510v-510h-164l-9 51q-42 -61 -137 -61q-91 0 -138 61t-47 170v289h184v-279q0 -69 56 -69q46 0 71 44v304h184z" />
    <glyph glyph-name="udieresis" unicode="&#xfc;" 
d="M195 737q36 0 59 -23t23 -59t-23 -59t-59 -23t-59 23t-23 59t23 59t59 23zM402 737q36 0 59 -23t23 -59t-23 -59t-59 -23t-59 23t-23 59t23 59t59 23zM545 510v-510h-164l-9 51q-42 -61 -137 -61q-91 0 -138 61t-47 170v289h184v-279q0 -69 56 -69q46 0 71 44v304h184z
" />
    <glyph glyph-name="yacute" unicode="&#xfd;" horiz-adv-x="590" 
d="M524 726l-185 -155h-148l131 155h202zM590 510l-414 -740h-210l230 391l-196 349h206l88 -201l90 201h206z" />
    <glyph glyph-name="thorn" unicode="&#xfe;" horiz-adv-x="618" 
d="M240 760v-290q45 50 129 50q98 0 160 -74.5t62 -190.5t-62 -190.5t-160 -74.5q-86 0 -129 50v-270h-184v990h184zM320 361q-51 0 -80 -47v-117q28 -48 80 -48q39 0 62 28t23 78t-23 78t-62 28z" />
    <glyph glyph-name="ydieresis" unicode="&#xff;" horiz-adv-x="590" 
d="M175 737q36 0 59 -23t23 -59t-23 -59t-59 -23t-59 23t-23 59t23 59t59 23zM382 737q36 0 59 -23t23 -59t-23 -59t-59 -23t-59 23t-23 59t23 59t59 23zM590 510l-414 -740h-210l230 391l-196 349h206l88 -201l90 201h206z" />
    <glyph glyph-name="Amacron" unicode="&#x100;" horiz-adv-x="744" 
d="M515 912v-120h-285v120h285zM374 748l368 -748h-213l-34 86h-246l-34 -86h-213l368 748h4zM372 400l-67 -172h134z" />
    <glyph glyph-name="amacron" unicode="&#x101;" horiz-adv-x="611" 
d="M441 709v-120h-285v120h285zM246 520q94 0 136 -63l10 53h164v-510h-164l-10 52q-43 -62 -136 -62q-97 0 -158 74.5t-61 190.5t61 190.5t158 74.5zM295 361q-38 0 -60 -28t-22 -78t22 -78t60 -28q48 0 77 47v118q-29 47 -77 47z" />
    <glyph glyph-name="Abreve" unicode="&#x102;" horiz-adv-x="744" 
d="M547 951q0 -74 -49.5 -122.5t-124.5 -48.5q-76 0 -126 48.5t-50 122.5h121q0 -34 14.5 -55.5t40.5 -21.5q24 0 38.5 21.5t14.5 55.5h121zM374 748l368 -748h-213l-34 86h-246l-34 -86h-213l368 748h4zM372 400l-67 -172h134z" />
    <glyph glyph-name="abreve" unicode="&#x103;" horiz-adv-x="611" 
d="M473 746q0 -78 -49.5 -129.5t-124.5 -51.5q-76 0 -126 51t-50 130h121q0 -29 15.5 -48t39.5 -19q23 0 38 19t15 48h121zM246 520q94 0 136 -63l10 53h164v-510h-164l-10 52q-43 -62 -136 -62q-97 0 -158 74.5t-61 190.5t61 190.5t158 74.5zM295 361q-38 0 -60 -28
t-22 -78t22 -78t60 -28q48 0 77 47v118q-29 47 -77 47z" />
    <glyph glyph-name="Aogonek" unicode="&#x104;" horiz-adv-x="744" 
d="M661 -129q20 0 38 8l34 -93q-32 -16 -77 -16q-66 0 -110.5 36.5t-44.5 109.5q0 50 26 89l-32 81h-246l-34 -86h-213l368 748h4l368 -748h-70q-58 -33 -58 -82q0 -23 13 -35t34 -12zM305 228h134l-67 172z" />
    <glyph glyph-name="aogonek" unicode="&#x105;" horiz-adv-x="611" 
d="M563 -121l34 -93q-32 -16 -77 -16q-66 0 -110.5 36.5t-44.5 109.5q0 50 26 89l-9 47q-43 -62 -136 -62q-97 0 -158 74.5t-61 190.5t61 190.5t158 74.5q94 0 136 -63l10 53h164v-510h-20q-58 -33 -58 -82q0 -23 13 -35t34 -12q20 0 38 8zM372 196v118q-29 47 -77 47
q-38 0 -60 -28t-22 -78t22 -78t60 -28q48 0 77 47z" />
    <glyph glyph-name="Cacute" unicode="&#x106;" horiz-adv-x="695" 
d="M645 915l-165 -123h-168l121 123h212zM412 748q90 0 153.5 -27t119.5 -86l-119 -138q-61 78 -154 78q-85 0 -136 -57.5t-51 -149.5t51 -150t136 -58q93 0 154 78l118 -138q-102 -113 -272 -113q-165 0 -272.5 108.5t-107.5 272.5q0 163 107.5 271.5t272.5 108.5z" />
    <glyph glyph-name="cacute" unicode="&#x107;" horiz-adv-x="521" 
d="M539 726l-185 -155h-148l131 155h202zM296 520q142 0 215 -121l-128 -94q-26 57 -84 57q-40 0 -63 -30.5t-23 -76.5t23.5 -76.5t64.5 -30.5q55 0 88 56l122 -87q-31 -60 -87 -93.5t-128 -33.5q-115 0 -192 75.5t-77 189.5t77 189.5t192 75.5z" />
    <glyph glyph-name="Ccircumflex" unicode="&#x108;" horiz-adv-x="695" 
d="M410 954l186 -162h-135l-51 41l-51 -41h-135zM412 748q90 0 153.5 -27t119.5 -86l-119 -138q-61 78 -154 78q-85 0 -136 -57.5t-51 -149.5t51 -150t136 -58q93 0 154 78l118 -138q-102 -113 -272 -113q-165 0 -272.5 108.5t-107.5 272.5q0 163 107.5 271.5t272.5 108.5z
" />
    <glyph glyph-name="ccircumflex" unicode="&#x109;" horiz-adv-x="521" 
d="M293 784l176 -211h-130l-46 51l-46 -51h-130zM296 520q142 0 215 -121l-128 -94q-26 57 -84 57q-40 0 -63 -30.5t-23 -76.5t23.5 -76.5t64.5 -30.5q55 0 88 56l122 -87q-31 -60 -87 -93.5t-128 -33.5q-115 0 -192 75.5t-77 189.5t77 189.5t192 75.5z" />
    <glyph glyph-name="Cdotaccent" unicode="&#x10a;" horiz-adv-x="695" 
d="M410 985q42 0 69 -27t27 -69t-27 -69t-69 -27t-69 27t-27 69t27 69t69 27zM412 748q90 0 153.5 -27t119.5 -86l-119 -138q-61 78 -154 78q-85 0 -136 -57.5t-51 -149.5t51 -150t136 -58q93 0 154 78l118 -138q-102 -113 -272 -113q-165 0 -272.5 108.5t-107.5 272.5
q0 163 107.5 271.5t272.5 108.5z" />
    <glyph glyph-name="cdotaccent" unicode="&#x10b;" horiz-adv-x="521" 
d="M293 765q42 0 69 -27t27 -69t-27 -69t-69 -27t-69 27t-27 69t27 69t69 27zM296 520q142 0 215 -121l-128 -94q-26 57 -84 57q-40 0 -63 -30.5t-23 -76.5t23.5 -76.5t64.5 -30.5q55 0 88 56l122 -87q-31 -60 -87 -93.5t-128 -33.5q-115 0 -192 75.5t-77 189.5t77 189.5
t192 75.5z" />
    <glyph glyph-name="Ccaron" unicode="&#x10c;" horiz-adv-x="695" 
d="M596 941l-186 -162l-186 162h135l51 -41l51 41h135zM412 748q90 0 153.5 -27t119.5 -86l-119 -138q-61 78 -154 78q-85 0 -136 -57.5t-51 -149.5t51 -150t136 -58q93 0 154 78l118 -138q-102 -113 -272 -113q-165 0 -272.5 108.5t-107.5 272.5q0 163 107.5 271.5
t272.5 108.5z" />
    <glyph glyph-name="ccaron" unicode="&#x10d;" horiz-adv-x="521" 
d="M469 771l-176 -211l-176 211h130l46 -51l46 51h130zM296 520q142 0 215 -121l-128 -94q-26 57 -84 57q-40 0 -63 -30.5t-23 -76.5t23.5 -76.5t64.5 -30.5q55 0 88 56l122 -87q-31 -60 -87 -93.5t-128 -33.5q-115 0 -192 75.5t-77 189.5t77 189.5t192 75.5z" />
    <glyph glyph-name="Dcaron" unicode="&#x10e;" horiz-adv-x="748" 
d="M519 931l-186 -162l-186 162h135l51 -41l51 41h135zM309 735q191 0 299 -97t108 -270q0 -174 -107.5 -271t-299.5 -97h-242v735h242zM303 561h-46v-388h46q109 0 164.5 50.5t55.5 143.5t-55.5 143.5t-164.5 50.5z" />
    <glyph glyph-name="dcaron" unicode="&#x10f;" horiz-adv-x="618" 
d="M675 762q38 0 60.5 -20t22.5 -51q0 -43 -52 -82l-77 -58h-4v203q22 8 50 8zM562 760v-760h-164l-10 52q-43 -62 -139 -62q-98 0 -160 74.5t-62 190.5t62 190.5t160 74.5q86 0 129 -50v290h184zM298 361q-39 0 -62 -28t-23 -78t23 -78t62 -28q51 0 80 47v117
q-28 48 -80 48z" />
    <glyph glyph-name="Dcroat" unicode="&#x110;" horiz-adv-x="764" 
d="M325 735q191 0 299 -97t108 -270q0 -174 -107.5 -271t-299.5 -97h-242v320h-80v120h80v295h242zM319 173q109 0 164.5 50.5t55.5 143.5t-55.5 143.5t-164.5 50.5h-46v-121h93v-120h-93v-147h46z" />
    <glyph glyph-name="dcroat" unicode="&#x111;" horiz-adv-x="618" 
d="M623 694v-120h-61v-574h-164l-10 52q-43 -62 -139 -62q-98 0 -160 74.5t-62 190.5t62 190.5t160 74.5q86 0 129 -50v104h-120v120h120v66h184v-66h61zM378 196v117q-28 48 -80 48q-39 0 -62 -28t-23 -78t23 -78t62 -28q51 0 80 47z" />
    <glyph glyph-name="Emacron" unicode="&#x112;" horiz-adv-x="603" 
d="M468 912v-120h-285v120h285zM556 735v-173h-299v-110h257v-159h-257v-120h307v-173h-497v735h489z" />
    <glyph glyph-name="emacron" unicode="&#x113;" horiz-adv-x="567" 
d="M433 709v-120h-285v120h285zM294 520q118 0 180 -73t62 -184v-52h-323q1 -33 27.5 -52.5t68.5 -19.5q61 0 95 42l123 -90q-78 -101 -226 -101q-121 0 -197.5 74.5t-76.5 189.5q0 116 74.5 191t192.5 75zM286 390q-32 0 -52 -22t-21 -54h142q-1 32 -19 54t-50 22z" />
    <glyph glyph-name="Ebreve" unicode="&#x114;" horiz-adv-x="603" 
d="M500 951q0 -74 -49.5 -122.5t-124.5 -48.5q-76 0 -126 48.5t-50 122.5h121q0 -34 14.5 -55.5t40.5 -21.5q24 0 38.5 21.5t14.5 55.5h121zM556 735v-173h-299v-110h257v-159h-257v-120h307v-173h-497v735h489z" />
    <glyph glyph-name="ebreve" unicode="&#x115;" horiz-adv-x="567" 
d="M465 746q0 -78 -49.5 -129.5t-124.5 -51.5q-76 0 -126 51t-50 130h121q0 -29 15.5 -48t39.5 -19q23 0 38 19t15 48h121zM294 520q118 0 180 -73t62 -184v-52h-323q1 -33 27.5 -52.5t68.5 -19.5q61 0 95 42l123 -90q-78 -101 -226 -101q-121 0 -197.5 74.5t-76.5 189.5
q0 116 74.5 191t192.5 75zM286 390q-32 0 -52 -22t-21 -54h142q-1 32 -19 54t-50 22z" />
    <glyph glyph-name="Edotaccent" unicode="&#x116;" horiz-adv-x="603" 
d="M325 975q42 0 69 -27t27 -69t-27 -69t-69 -27t-69 27t-27 69t27 69t69 27zM556 735v-173h-299v-110h257v-159h-257v-120h307v-173h-497v735h489z" />
    <glyph glyph-name="edotaccent" unicode="&#x117;" horiz-adv-x="567" 
d="M290 765q42 0 69 -27t27 -69t-27 -69t-69 -27t-69 27t-27 69t27 69t69 27zM294 520q118 0 180 -73t62 -184v-52h-323q1 -33 27.5 -52.5t68.5 -19.5q61 0 95 42l123 -90q-78 -101 -226 -101q-121 0 -197.5 74.5t-76.5 189.5q0 116 74.5 191t192.5 75zM286 390
q-32 0 -52 -22t-21 -54h142q-1 32 -19 54t-50 22z" />
    <glyph glyph-name="Eogonek" unicode="&#x118;" horiz-adv-x="603" 
d="M543 -121l34 -93q-32 -16 -77 -16q-66 0 -110.5 36.5t-44.5 109.5q0 46 23 84h-301v735h489v-173h-299v-110h257v-159h-257v-120h307v-173h-48q-58 -33 -58 -82q0 -23 13 -35t34 -12q20 0 38 8z" />
    <glyph glyph-name="eogonek" unicode="&#x119;" horiz-adv-x="567" 
d="M536 263v-52h-323q1 -33 27.5 -52.5t68.5 -19.5q61 0 95 42l123 -90q-38 -48 -92 -74q-55 -32 -55 -80q0 -23 13 -35t34 -12q20 0 38 8l34 -93q-32 -16 -77 -16q-66 0 -110.5 36.5t-44.5 109.5q0 31 9 56q-111 8 -180 81t-69 182q0 116 74.5 191t192.5 75t180 -73
t62 -184zM213 314h142q-1 32 -19 54t-50 22t-52 -22t-21 -54z" />
    <glyph glyph-name="Ecaron" unicode="&#x11a;" horiz-adv-x="603" 
d="M511 931l-186 -162l-186 162h135l51 -41l51 41h135zM556 735v-173h-299v-110h257v-159h-257v-120h307v-173h-497v735h489z" />
    <glyph glyph-name="ecaron" unicode="&#x11b;" horiz-adv-x="567" 
d="M466 771l-176 -211l-176 211h130l46 -51l46 51h130zM294 520q118 0 180 -73t62 -184v-52h-323q1 -33 27.5 -52.5t68.5 -19.5q61 0 95 42l123 -90q-78 -101 -226 -101q-121 0 -197.5 74.5t-76.5 189.5q0 116 74.5 191t192.5 75zM286 390q-32 0 -52 -22t-21 -54h142
q-1 32 -19 54t-50 22z" />
    <glyph glyph-name="Gcircumflex" unicode="&#x11c;" horiz-adv-x="760" 
d="M409 954l186 -162h-135l-51 41l-51 -41h-135zM411 748q90 0 154 -27t120 -86l-119 -138q-61 78 -155 78q-85 0 -135.5 -57.5t-50.5 -149.5t54.5 -150t145.5 -58q43 0 88 25v85h-137v163h327v-341q-106 -105 -278 -105q-171 0 -282 108.5t-111 272.5t107 272t272 108z" />
    <glyph glyph-name="gcircumflex" unicode="&#x11d;" horiz-adv-x="616" 
d="M297 784l176 -211h-130l-46 51l-46 -51h-130zM248 520q97 0 139 -63l10 53h164v-483q0 -124 -76.5 -195.5t-206.5 -71.5q-158 0 -261 111l119 121q31 -35 63 -54t77 -19q46 0 72.5 29.5t28.5 74.5v37q-43 -50 -129 -50q-98 0 -160 72t-62 183t62 183t160 72zM297 361
q-39 0 -62 -25t-23 -71t23 -71t62 -25q52 0 80 48v97q-29 47 -80 47z" />
    <glyph glyph-name="Gbreve" unicode="&#x11e;" horiz-adv-x="760" 
d="M584 961q0 -74 -49.5 -122.5t-124.5 -48.5q-76 0 -126 48.5t-50 122.5h121q0 -34 14.5 -55.5t40.5 -21.5q24 0 38.5 21.5t14.5 55.5h121zM411 748q90 0 154 -27t120 -86l-119 -138q-61 78 -155 78q-85 0 -135.5 -57.5t-50.5 -149.5t54.5 -150t145.5 -58q43 0 88 25v85
h-137v163h327v-341q-106 -105 -278 -105q-171 0 -282 108.5t-111 272.5t107 272t272 108z" />
    <glyph glyph-name="gbreve" unicode="&#x11f;" horiz-adv-x="616" 
d="M472 746q0 -78 -49.5 -129.5t-124.5 -51.5q-76 0 -126 51t-50 130h121q0 -29 15.5 -48t39.5 -19q23 0 38 19t15 48h121zM248 520q97 0 139 -63l10 53h164v-483q0 -124 -76.5 -195.5t-206.5 -71.5q-158 0 -261 111l119 121q31 -35 63 -54t77 -19q46 0 72.5 29.5t28.5 74.5
v37q-43 -50 -129 -50q-98 0 -160 72t-62 183t62 183t160 72zM297 361q-39 0 -62 -25t-23 -71t23 -71t62 -25q52 0 80 48v97q-29 47 -80 47z" />
    <glyph glyph-name="Gdotaccent" unicode="&#x120;" horiz-adv-x="760" 
d="M409 985q42 0 69 -27t27 -69t-27 -69t-69 -27t-69 27t-27 69t27 69t69 27zM411 748q90 0 154 -27t120 -86l-119 -138q-61 78 -155 78q-85 0 -135.5 -57.5t-50.5 -149.5t54.5 -150t145.5 -58q43 0 88 25v85h-137v163h327v-341q-106 -105 -278 -105q-171 0 -282 108.5
t-111 272.5t107 272t272 108z" />
    <glyph glyph-name="gdotaccent" unicode="&#x121;" horiz-adv-x="616" 
d="M297 765q42 0 69 -27t27 -69t-27 -69t-69 -27t-69 27t-27 69t27 69t69 27zM248 520q97 0 139 -63l10 53h164v-483q0 -124 -76.5 -195.5t-206.5 -71.5q-158 0 -261 111l119 121q31 -35 63 -54t77 -19q46 0 72.5 29.5t28.5 74.5v37q-43 -50 -129 -50q-98 0 -160 72t-62 183
t62 183t160 72zM297 361q-39 0 -62 -25t-23 -71t23 -71t62 -25q52 0 80 48v97q-29 47 -80 47z" />
    <glyph glyph-name="Gcommaaccent" unicode="&#x122;" horiz-adv-x="760" 
d="M411 748q90 0 154 -27t120 -86l-119 -138q-61 78 -155 78q-85 0 -135.5 -57.5t-50.5 -149.5t54.5 -150t145.5 -58q43 0 88 25v85h-137v163h327v-341q-106 -105 -278 -105q-171 0 -282 108.5t-111 272.5t107 272t272 108zM393 -40q35 0 59 -19t24 -46q0 -25 -13 -42.5
t-42 -35.5l-74 -47h-4v182q22 8 50 8z" />
    <glyph glyph-name="gcommaaccent" unicode="&#x123;" horiz-adv-x="616" 
d="M312 564q-35 0 -59 19t-24 46q0 25 13 42.5t42 35.5l74 47h4v-182q-22 -8 -50 -8zM248 520q97 0 139 -63l10 53h164v-483q0 -124 -76.5 -195.5t-206.5 -71.5q-158 0 -261 111l119 121q31 -35 63 -54t77 -19q46 0 72.5 29.5t28.5 74.5v37q-43 -50 -129 -50q-98 0 -160 72
t-62 183t62 183t160 72zM297 361q-39 0 -62 -25t-23 -71t23 -71t62 -25q52 0 80 48v97q-29 47 -80 47z" />
    <glyph glyph-name="Hcircumflex" unicode="&#x124;" horiz-adv-x="762" 
d="M381 944l186 -162h-135l-51 41l-51 -41h-135zM695 735v-735h-190v290h-248v-290h-190v735h190v-272h248v272h190z" />
    <glyph glyph-name="hcircumflex" unicode="&#x125;" horiz-adv-x="606" 
d="M148 944l186 -162h-135l-51 41l-51 -41h-135zM240 760v-287q42 47 121 47q93 0 142 -61.5t49 -169.5v-289h-184v279q0 31 -15.5 50t-42.5 19q-49 0 -70 -44v-304h-184v760h184z" />
    <glyph glyph-name="Hbar" unicode="&#x126;" horiz-adv-x="790" 
d="M779 643v-120h-70v-523h-190v280h-248v-280h-190v523h-70v120h70v92h190v-92h248v92h190v-92h70zM519 443v80h-248v-80h248z" />
    <glyph glyph-name="hbar" unicode="&#x127;" horiz-adv-x="602" 
d="M361 520q93 0 142 -61.5t49 -169.5v-289h-184v279q0 31 -15.5 50t-42.5 19q-49 0 -70 -44v-304h-184v574h-61v120h61v66h184v-66h120v-120h-120v-101q42 47 121 47z" />
    <glyph glyph-name="Itilde" unicode="&#x128;" horiz-adv-x="324" 
d="M107 943q28 0 51.5 -15.5t41 -31t29.5 -15.5q29 0 29 56h90q0 -76 -37.5 -118t-92.5 -42q-23 0 -42 9.5t-28.5 21.5t-22 21.5t-25.5 9.5q-19 0 -26 -13t-7 -43h-90q0 79 37 119.5t93 40.5zM257 735v-735h-190v735h190z" />
    <glyph glyph-name="itilde" unicode="&#x129;" horiz-adv-x="304" 
d="M97 746q28 0 51.5 -15.5t41 -31t29.5 -15.5q29 0 29 56h90q0 -81 -37.5 -125.5t-92.5 -44.5q-23 0 -42 9.5t-28.5 21.5t-22 21.5t-25.5 9.5q-19 0 -26 -13t-7 -43h-90q0 84 37 127t93 43zM239 510v-510h-184v510h184z" />
    <glyph glyph-name="Imacron" unicode="&#x12a;" horiz-adv-x="324" 
d="M305 912v-120h-285v120h285zM257 735v-735h-190v735h190z" />
    <glyph glyph-name="imacron" unicode="&#x12b;" horiz-adv-x="304" 
d="M295 709v-120h-285v120h285zM239 510v-510h-184v510h184z" />
    <glyph glyph-name="Ibreve" unicode="&#x12c;" horiz-adv-x="324" 
d="M337 951q0 -74 -49.5 -122.5t-124.5 -48.5q-76 0 -126 48.5t-50 122.5h121q0 -34 14.5 -55.5t40.5 -21.5q24 0 38.5 21.5t14.5 55.5h121zM257 735v-735h-190v735h190z" />
    <glyph glyph-name="ibreve" unicode="&#x12d;" horiz-adv-x="304" 
d="M327 746q0 -78 -49.5 -129.5t-124.5 -51.5q-76 0 -126 51t-50 130h121q0 -29 15.5 -48t39.5 -19q23 0 38 19t15 48h121zM239 510v-510h-184v510h184z" />
    <glyph glyph-name="Iogonek" unicode="&#x12e;" horiz-adv-x="324" 
d="M236 -121l34 -93q-32 -16 -77 -16q-66 0 -110.5 36.5t-44.5 109.5q0 51 29 94v725h190v-735h-48q-58 -33 -58 -82q0 -23 13 -35t34 -12q20 0 38 8z" />
    <glyph glyph-name="iogonek" unicode="&#x12f;" horiz-adv-x="294" 
d="M147 566q-45 0 -74 29t-29 74t29 74t74 29t74 -29t29 -74t-29 -74t-74 -29zM227 -121l34 -93q-32 -16 -77 -16q-66 0 -110.5 36.5t-44.5 109.5q0 50 26 89v505h184v-510h-39q-58 -33 -58 -82q0 -23 13 -35t34 -12q20 0 38 8z" />
    <glyph glyph-name="Idotaccent" unicode="&#x130;" horiz-adv-x="324" 
d="M162 975q42 0 69 -27t27 -69t-27 -69t-69 -27t-69 27t-27 69t27 69t69 27zM257 735v-735h-190v735h190z" />
    <glyph glyph-name="dotlessi" unicode="&#x131;" horiz-adv-x="294" 
d="M239 510v-510h-184v510h184z" />
    <glyph glyph-name="IJ" unicode="&#x132;" horiz-adv-x="893" 
d="M257 735v-735h-190v735h190zM837 735v-508q0 -105 -72 -172.5t-183 -67.5q-109 0 -186 72.5t-77 203.5h184q0 -103 72 -103q34 0 53 21.5t19 56.5v497h190z" />
    <glyph glyph-name="ij" unicode="&#x133;" horiz-adv-x="588" 
d="M147 772q45 0 74 -29t29 -74t-29 -74t-74 -29t-74 29t-29 74t29 74t74 29zM441 772q45 0 74 -29t29 -74t-29 -74t-74 -29t-74 29t-29 74t29 74t74 29zM239 510v-510h-184v510h184zM293 -240q-95 0 -157 53l97 131q27 -25 56 -25q28 0 44 16t16 45v530h184v-516
q0 -101 -67.5 -167.5t-172.5 -66.5z" />
    <glyph glyph-name="Jcircumflex" unicode="&#x134;" horiz-adv-x="589" 
d="M435 944l186 -162h-135l-51 41l-51 -41h-135zM533 735v-508q0 -105 -72 -172.5t-183 -67.5q-109 0 -186 72.5t-77 203.5h184q0 -103 72 -103q34 0 53 21.5t19 56.5v497h190z" />
    <glyph glyph-name="jcircumflex" unicode="&#x135;" horiz-adv-x="300" 
d="M152 784l176 -211h-130l-46 51l-46 -51h-130zM5 -240q-95 0 -157 53l97 131q27 -25 56 -25q28 0 44 16t16 45v530h184v-516q0 -101 -67.5 -167.5t-172.5 -66.5z" />
    <glyph glyph-name="Kcommaaccent" unicode="&#x136;" horiz-adv-x="731" 
d="M695 735l-231 -353l256 -382h-228l-136 212l-146 -212h-143v735h190v-373l222 373h216zM344 -40q35 0 59 -19t24 -46q0 -25 -13 -42.5t-42 -35.5l-74 -47h-4v182q22 8 50 8z" />
    <glyph glyph-name="kcommaaccent" unicode="&#x137;" horiz-adv-x="602" 
d="M240 760v-479l144 229h210l-154 -207l161 -303h-207l-79 149l-115 -149h-144v760h184zM291 -40q35 0 59 -19t24 -46q0 -25 -13 -42.5t-42 -35.5l-74 -47h-4v182q22 8 50 8z" />
    <glyph glyph-name="Lacute" unicode="&#x139;" horiz-adv-x="553" 
d="M402 905l-165 -123h-168l121 123h212zM257 735v-568h286v-167h-476v735h190z" />
    <glyph glyph-name="lacute" unicode="&#x13a;" horiz-adv-x="304" 
d="M383 905l-165 -123h-168l121 123h212zM240 760v-760h-184v760h184z" />
    <glyph glyph-name="Lcommaaccent" unicode="&#x13b;" horiz-adv-x="553" 
d="M257 735v-568h286v-167h-476v735h190zM295 -40q35 0 59 -19t24 -46q0 -25 -13 -42.5t-42 -35.5l-74 -47h-4v182q22 8 50 8z" />
    <glyph glyph-name="lcommaaccent" unicode="&#x13c;" horiz-adv-x="296" 
d="M240 760v-760h-184v760h184zM127 -40q35 0 59 -19t24 -46q0 -25 -13 -42.5t-42 -35.5l-74 -47h-4v182q22 8 50 8z" />
    <glyph glyph-name="Lcaron" unicode="&#x13d;" horiz-adv-x="553" 
d="M387 742q38 0 60.5 -20t22.5 -51q0 -43 -52 -82l-77 -58h-4v203q22 8 50 8zM257 735v-568h286v-167h-476v735h190z" />
    <glyph glyph-name="lcaron" unicode="&#x13e;" horiz-adv-x="296" 
d="M350 762q38 0 60.5 -20t22.5 -51q0 -43 -52 -82l-77 -58h-4v203q22 8 50 8zM240 760v-760h-184v760h184z" />
    <glyph glyph-name="Ldot" unicode="&#x13f;" horiz-adv-x="553" 
d="M257 735v-568h286v-167h-476v735h190zM427 488q47 0 77 -30t30 -77t-30 -77t-77 -30t-77 30t-30 77t30 77t77 30z" />
    <glyph glyph-name="ldot" unicode="&#x140;" horiz-adv-x="543" 
d="M240 760v-760h-184v760h184zM418 364q46 0 76.5 -30t30.5 -77t-30.5 -77t-76.5 -30t-76.5 30t-30.5 77t30.5 77t76.5 30z" />
    <glyph glyph-name="Lslash" unicode="&#x141;" horiz-adv-x="587" 
d="M291 167h286v-167h-476v239l-63 -21l-46 133l109 37v347h190v-283l75 25l46 -133l-121 -41v-136z" />
    <glyph glyph-name="lslash" unicode="&#x142;" horiz-adv-x="340" 
d="M365 354l-103 -39v-315h-184v244l-60 -23l-43 112l103 39v388h184v-317l60 23z" />
    <glyph glyph-name="Nacute" unicode="&#x143;" horiz-adv-x="743" 
d="M597 905l-165 -123h-168l121 123h212zM71 748l415 -360v347h190v-748h-4l-415 360v-347h-190v748h4z" />
    <glyph glyph-name="nacute" unicode="&#x144;" horiz-adv-x="601" 
d="M549 726l-185 -155h-148l131 155h202zM360 520q93 0 142 -61.5t49 -169.5v-289h-184v279q0 31 -15.5 50t-42.5 19q-49 0 -70 -44v-304h-184v510h164l9 -51q39 61 132 61z" />
    <glyph glyph-name="Ncommaaccent" unicode="&#x145;" horiz-adv-x="743" 
d="M71 748l415 -360v347h190v-748h-4l-415 360v-347h-190v748h4zM402 -40q35 0 59 -19t24 -46q0 -25 -13 -42.5t-42 -35.5l-74 -47h-4v182q22 8 50 8z" />
    <glyph glyph-name="ncommaaccent" unicode="&#x146;" horiz-adv-x="601" 
d="M360 520q93 0 142 -61.5t49 -169.5v-289h-184v279q0 31 -15.5 50t-42.5 19q-49 0 -70 -44v-304h-184v510h164l9 -51q39 61 132 61zM296 -40q35 0 59 -19t24 -46q0 -25 -13 -42.5t-42 -35.5l-74 -47h-4v182q22 8 50 8z" />
    <glyph glyph-name="Ncaron" unicode="&#x147;" horiz-adv-x="743" 
d="M548 931l-186 -162l-186 162h135l51 -41l51 41h135zM71 748l415 -360v347h190v-748h-4l-415 360v-347h-190v748h4z" />
    <glyph glyph-name="ncaron" unicode="&#x148;" horiz-adv-x="601" 
d="M479 771l-176 -211l-176 211h130l46 -51l46 51h130zM360 520q93 0 142 -61.5t49 -169.5v-289h-184v279q0 31 -15.5 50t-42.5 19q-49 0 -70 -44v-304h-184v510h164l9 -51q39 61 132 61z" />
    <glyph glyph-name="Eng" unicode="&#x14a;" horiz-adv-x="743" 
d="M486 735h190v-735v-13q-5 -100 -78 -163.5t-184 -63.5v176q34 0 53 21.5t19 56.5v134l-229 199v-347h-190v748h4l415 -360v347z" />
    <glyph glyph-name="eng" unicode="&#x14b;" horiz-adv-x="601" 
d="M360 520q93 0 142 -61.5t49 -169.5v-295q0 -101 -69.5 -167.5t-174.5 -66.5v159q28 0 44 16t16 45v299q0 31 -15.5 50t-42.5 19q-49 0 -70 -44v-304h-184v510h164l9 -51q39 61 132 61z" />
    <glyph glyph-name="Omacron" unicode="&#x14c;" horiz-adv-x="830" 
d="M558 922v-120h-285v120h285zM415 748q164 0 273.5 -108.5t109.5 -273.5q0 -164 -109.5 -271.5t-273.5 -107.5q-165 0 -274 107.5t-109 271.5q0 165 109 273.5t274 108.5zM415 575q-84 0 -137 -58.5t-53 -150.5q0 -91 53 -148.5t137 -57.5t137 57.5t53 148.5
q0 92 -53 150.5t-137 58.5z" />
    <glyph glyph-name="omacron" unicode="&#x14d;" horiz-adv-x="603" 
d="M444 709v-120h-285v120h285zM301 520q119 0 197 -75.5t78 -190.5t-78 -189.5t-197 -74.5t-196.5 74.5t-77.5 189.5t78 190.5t196 75.5zM301 361q-40 0 -64 -29.5t-24 -77.5q0 -47 24 -76t64 -29t64.5 29t24.5 76q0 48 -24.5 77.5t-64.5 29.5z" />
    <glyph glyph-name="Obreve" unicode="&#x14e;" horiz-adv-x="830" 
d="M590 961q0 -74 -49.5 -122.5t-124.5 -48.5q-76 0 -126 48.5t-50 122.5h121q0 -34 14.5 -55.5t40.5 -21.5q24 0 38.5 21.5t14.5 55.5h121zM415 748q164 0 273.5 -108.5t109.5 -273.5q0 -164 -109.5 -271.5t-273.5 -107.5q-165 0 -274 107.5t-109 271.5q0 165 109 273.5
t274 108.5zM415 575q-84 0 -137 -58.5t-53 -150.5q0 -91 53 -148.5t137 -57.5t137 57.5t53 148.5q0 92 -53 150.5t-137 58.5z" />
    <glyph glyph-name="obreve" unicode="&#x14f;" horiz-adv-x="603" 
d="M476 746q0 -78 -49.5 -129.5t-124.5 -51.5q-76 0 -126 51t-50 130h121q0 -29 15.5 -48t39.5 -19q23 0 38 19t15 48h121zM301 520q119 0 197 -75.5t78 -190.5t-78 -189.5t-197 -74.5t-196.5 74.5t-77.5 189.5t78 190.5t196 75.5zM301 361q-40 0 -64 -29.5t-24 -77.5
q0 -47 24 -76t64 -29t64.5 29t24.5 76q0 48 -24.5 77.5t-64.5 29.5z" />
    <glyph glyph-name="Ohungarumlaut" unicode="&#x150;" horiz-adv-x="830" 
d="M468 915l-100 -123h-118l71 123h147zM674 915l-100 -123h-118l71 123h147zM415 748q164 0 273.5 -108.5t109.5 -273.5q0 -164 -109.5 -271.5t-273.5 -107.5q-165 0 -274 107.5t-109 271.5q0 165 109 273.5t274 108.5zM415 575q-84 0 -137 -58.5t-53 -150.5
q0 -91 53 -148.5t137 -57.5t137 57.5t53 148.5q0 92 -53 150.5t-137 58.5z" />
    <glyph glyph-name="ohungarumlaut" unicode="&#x151;" horiz-adv-x="603" 
d="M356 726l-100 -155h-118l71 155h147zM562 726l-100 -155h-118l71 155h147zM301 520q119 0 197 -75.5t78 -190.5t-78 -189.5t-197 -74.5t-196.5 74.5t-77.5 189.5t78 190.5t196 75.5zM301 361q-40 0 -64 -29.5t-24 -77.5q0 -47 24 -76t64 -29t64.5 29t24.5 76
q0 48 -24.5 77.5t-64.5 29.5z" />
    <glyph glyph-name="OE" unicode="&#x152;" horiz-adv-x="1144" 
d="M798 173h307v-173h-497v48q-83 -61 -193 -61q-165 0 -274 107.5t-109 271.5q0 165 109 273.5t274 108.5q108 0 193 -61v48h489v-173h-299v-110h257v-159h-257v-120zM415 159q84 0 137 58t53 149q0 92 -53 150.5t-137 58.5t-137 -58.5t-53 -150.5q0 -91 53 -149t137 -58z
" />
    <glyph glyph-name="oe" unicode="&#x153;" horiz-adv-x="930" 
d="M899 263v-52h-323q1 -33 27.5 -52.5t68.5 -19.5q61 0 95 42l123 -90q-78 -101 -226 -101q-108 0 -182 61q-75 -61 -181 -61q-119 0 -196.5 74.5t-77.5 189.5t78 190.5t196 75.5q105 0 179 -60q73 60 177 60q118 0 180 -73t62 -184zM576 314h142q-1 32 -19 54t-50 22
t-52 -22t-21 -54zM301 149q38 0 63.5 30t25.5 75q0 46 -25.5 76.5t-63.5 30.5t-63 -30.5t-25 -76.5q0 -45 25 -75t63 -30z" />
    <glyph glyph-name="Racute" unicode="&#x154;" horiz-adv-x="689" 
d="M568 905l-165 -123h-168l121 123h212zM688 0h-221l-141 244h-69v-244h-190v735h322q108 0 185 -67t77 -179q0 -72 -34 -126.5t-91 -85.5zM257 572v-165h114q39 0 63 22t24 60t-24 60.5t-63 22.5h-114z" />
    <glyph glyph-name="racute" unicode="&#x155;" horiz-adv-x="388" 
d="M487 726l-185 -155h-148l131 155h202zM373 520v-182h-15q-72 0 -119 -54v-284h-184v510h163l11 -65q20 33 57.5 54t86.5 21z" />
    <glyph glyph-name="Rcommaaccent" unicode="&#x156;" horiz-adv-x="689" 
d="M526 277l162 -277h-221l-141 244h-69v-244h-190v735h322q108 0 185 -67t77 -179q0 -72 -34 -126.5t-91 -85.5zM257 572v-165h114q39 0 63 22t24 60t-24 60.5t-63 22.5h-114zM341 -40q35 0 59 -19t24 -46q0 -25 -13 -42.5t-42 -35.5l-74 -47h-4v182q22 8 50 8z" />
    <glyph glyph-name="rcommaaccent" unicode="&#x157;" horiz-adv-x="388" 
d="M373 520v-182h-15q-72 0 -119 -54v-284h-184v510h163l11 -65q20 33 57.5 54t86.5 21zM132 -40q35 0 59 -19t24 -46q0 -25 -13 -42.5t-42 -35.5l-74 -47h-4v182q22 8 50 8z" />
    <glyph glyph-name="Rcaron" unicode="&#x158;" horiz-adv-x="689" 
d="M519 931l-186 -162l-186 162h135l51 -41l51 41h135zM688 0h-221l-141 244h-69v-244h-190v735h322q108 0 185 -67t77 -179q0 -72 -34 -126.5t-91 -85.5zM257 572v-165h114q39 0 63 22t24 60t-24 60.5t-63 22.5h-114z" />
    <glyph glyph-name="rcaron" unicode="&#x159;" horiz-adv-x="388" 
d="M417 771l-176 -211l-176 211h130l46 -51l46 51h130zM373 520v-182h-15q-72 0 -119 -54v-284h-184v510h163l11 -65q20 33 57.5 54t86.5 21z" />
    <glyph glyph-name="Sacute" unicode="&#x15a;" horiz-adv-x="622" 
d="M546 915l-165 -123h-168l121 123h212zM317 748q80 0 154.5 -22t122.5 -58l-91 -159q-87 68 -187 68q-42 0 -68.5 -14.5t-26.5 -40.5q0 -23 24 -38.5t93 -29.5q143 -29 198.5 -81t55.5 -140q0 -112 -77.5 -179t-212.5 -67q-182 0 -297 101l102 156q35 -39 91 -62.5
t110 -23.5q94 0 94 57q0 24 -25 40t-95 30q-140 29 -196 85t-56 142q0 101 81 168.5t206 67.5z" />
    <glyph glyph-name="sacute" unicode="&#x15b;" horiz-adv-x="478" 
d="M498 726l-185 -155h-148l131 155h202zM267 520q114 0 186 -56l-64 -123q-65 45 -122 45q-47 0 -47 -27q0 -12 15.5 -20.5t65.5 -20.5q150 -38 150 -150q0 -81 -63 -129.5t-173 -48.5q-127 0 -198 58l65 125q60 -49 134 -49q51 0 51 27q0 14 -13.5 23.5t-56.5 20.5
q-83 21 -122 55.5t-39 92.5q0 81 61 129t170 48z" />
    <glyph glyph-name="Scircumflex" unicode="&#x15c;" horiz-adv-x="622" 
d="M311 954l186 -162h-135l-51 41l-51 -41h-135zM317 748q80 0 154.5 -22t122.5 -58l-91 -159q-87 68 -187 68q-42 0 -68.5 -14.5t-26.5 -40.5q0 -23 24 -38.5t93 -29.5q143 -29 198.5 -81t55.5 -140q0 -112 -77.5 -179t-212.5 -67q-182 0 -297 101l102 156q35 -39 91 -62.5
t110 -23.5q94 0 94 57q0 24 -25 40t-95 30q-140 29 -196 85t-56 142q0 101 81 168.5t206 67.5z" />
    <glyph glyph-name="scircumflex" unicode="&#x15d;" horiz-adv-x="478" 
d="M252 784l176 -211h-130l-46 51l-46 -51h-130zM267 520q114 0 186 -56l-64 -123q-65 45 -122 45q-47 0 -47 -27q0 -12 15.5 -20.5t65.5 -20.5q150 -38 150 -150q0 -81 -63 -129.5t-173 -48.5q-127 0 -198 58l65 125q60 -49 134 -49q51 0 51 27q0 14 -13.5 23.5t-56.5 20.5
q-83 21 -122 55.5t-39 92.5q0 81 61 129t170 48z" />
    <glyph glyph-name="Scedilla" unicode="&#x15e;" horiz-adv-x="622" 
d="M338 454q143 -29 198.5 -81t55.5 -140q0 -107 -71 -173.5t-197 -72.5l-6 -17q105 -8 105 -91q0 -51 -36.5 -80t-85.5 -29q-58 0 -104 37l43 59q26 -23 52 -23q16 0 25.5 9t9.5 24q0 33 -48 33q-27 0 -49 -6l-3 4l26 82q-153 14 -248 99l102 156q35 -39 91 -62.5
t110 -23.5q94 0 94 57q0 24 -25 40t-95 30q-140 29 -196 85t-56 142q0 101 81 168.5t206 67.5q80 0 154.5 -22t122.5 -58l-91 -159q-87 68 -187 68q-42 0 -68.5 -14.5t-26.5 -40.5q0 -23 24 -38.5t93 -29.5z" />
    <glyph glyph-name="scedilla" unicode="&#x15f;" horiz-adv-x="478" 
d="M301 318q150 -38 150 -150q0 -71 -49.5 -118t-138.5 -57l-8 -23q105 -8 105 -91q0 -51 -36.5 -80t-85.5 -29q-58 0 -104 37l43 59q26 -23 52 -23q16 0 25.5 9t9.5 24q0 33 -48 33q-27 0 -49 -6l-3 4l27 84q-112 7 -174 57l65 125q60 -49 134 -49q51 0 51 27
q0 14 -13.5 23.5t-56.5 20.5q-83 21 -122 55.5t-39 92.5q0 81 61 129t170 48q114 0 186 -56l-64 -123q-65 45 -122 45q-47 0 -47 -27q0 -12 15.5 -20.5t65.5 -20.5z" />
    <glyph glyph-name="Scaron" unicode="&#x160;" horiz-adv-x="622" 
d="M497 941l-186 -162l-186 162h135l51 -41l51 41h135zM317 748q80 0 154.5 -22t122.5 -58l-91 -159q-87 68 -187 68q-42 0 -68.5 -14.5t-26.5 -40.5q0 -23 24 -38.5t93 -29.5q143 -29 198.5 -81t55.5 -140q0 -112 -77.5 -179t-212.5 -67q-182 0 -297 101l102 156
q35 -39 91 -62.5t110 -23.5q94 0 94 57q0 24 -25 40t-95 30q-140 29 -196 85t-56 142q0 101 81 168.5t206 67.5z" />
    <glyph glyph-name="scaron" unicode="&#x161;" horiz-adv-x="478" 
d="M428 771l-176 -211l-176 211h130l46 -51l46 51h130zM267 520q114 0 186 -56l-64 -123q-65 45 -122 45q-47 0 -47 -27q0 -12 15.5 -20.5t65.5 -20.5q150 -38 150 -150q0 -81 -63 -129.5t-173 -48.5q-127 0 -198 58l65 125q60 -49 134 -49q51 0 51 27q0 14 -13.5 23.5
t-56.5 20.5q-83 21 -122 55.5t-39 92.5q0 81 61 129t170 48z" />
    <glyph glyph-name="Tcedilla" unicode="&#x162;" horiz-adv-x="664" 
d="M427 0h-68l-10 -30q105 -8 105 -91q0 -51 -36.5 -80t-85.5 -29q-58 0 -104 37l43 59q26 -23 52 -23q16 0 25.5 9t9.5 24q0 33 -48 33q-27 0 -49 -6l-3 4l30 93h-51v568h-224v167h638v-167h-224v-568z" />
    <glyph glyph-name="tcedilla" unicode="&#x163;" horiz-adv-x="443" 
d="M267 -30q105 -8 105 -91q0 -51 -36.5 -80t-85.5 -29q-58 0 -104 37l43 59q26 -23 52 -23q16 0 25.5 9t9.5 24q0 33 -48 33q-27 0 -49 -6l-3 4l33 104q-114 49 -114 194v151h-86v154h86v167h184v-167h135v-154h-135v-149q0 -24 15.5 -38.5t41.5 -14.5q32 0 60 14l44 -144
q-55 -34 -122 -34q-24 0 -43 3z" />
    <glyph glyph-name="Tcaron" unicode="&#x164;" horiz-adv-x="664" 
d="M518 931l-186 -162l-186 162h135l51 -41l51 41h135zM651 735v-167h-224v-568h-190v568h-224v167h638z" />
    <glyph glyph-name="tcaron" unicode="&#x165;" horiz-adv-x="443" 
d="M389 762q38 0 60.5 -20t22.5 -51q0 -43 -52 -82l-77 -58h-4v203q22 8 50 8zM279 677v-167h135v-154h-135v-149q0 -24 15.5 -38.5t41.5 -14.5q32 0 60 14l44 -144q-55 -34 -122 -34q-104 0 -163.5 56.5t-59.5 158.5v151h-86v154h86v167h184z" />
    <glyph glyph-name="Tbar" unicode="&#x166;" horiz-adv-x="664" 
d="M651 568h-224v-168h133v-120h-133v-280h-190v280h-133v120h133v168h-224v167h638v-167z" />
    <glyph glyph-name="tbar" unicode="&#x167;" horiz-adv-x="443" 
d="M396 168l44 -144q-55 -34 -122 -34q-104 0 -163.5 56.5t-59.5 158.5v10h-86v120h86v55h-86v120h86v167h184v-167h135v-120h-135v-55h135v-120h-135v-8q0 -24 15.5 -38.5t41.5 -14.5q32 0 60 14z" />
    <glyph glyph-name="Utilde" unicode="&#x168;" horiz-adv-x="724" 
d="M307 943q28 0 51.5 -15.5t41 -31t29.5 -15.5q29 0 29 56h90q0 -76 -37.5 -118t-92.5 -42q-23 0 -42 9.5t-28.5 21.5t-22 21.5t-25.5 9.5q-19 0 -26 -13t-7 -43h-90q0 79 37 119.5t93 40.5zM666 735v-467q0 -129 -79.5 -205t-224.5 -76t-224.5 76t-79.5 205v467h190v-454
q0 -55 30 -88t84 -33t84 33t30 88v454h190z" />
    <glyph glyph-name="utilde" unicode="&#x169;" 
d="M243 746q28 0 51.5 -15.5t41 -31t29.5 -15.5q29 0 29 56h90q0 -81 -37.5 -125.5t-92.5 -44.5q-23 0 -42 9.5t-28.5 21.5t-22 21.5t-25.5 9.5q-19 0 -26 -13t-7 -43h-90q0 84 37 127t93 43zM545 510v-510h-164l-9 51q-42 -61 -137 -61q-91 0 -138 61t-47 170v289h184v-279
q0 -69 56 -69q46 0 71 44v304h184z" />
    <glyph glyph-name="Umacron" unicode="&#x16a;" horiz-adv-x="724" 
d="M505 912v-120h-285v120h285zM666 735v-467q0 -129 -79.5 -205t-224.5 -76t-224.5 76t-79.5 205v467h190v-454q0 -55 30 -88t84 -33t84 33t30 88v454h190z" />
    <glyph glyph-name="umacron" unicode="&#x16b;" 
d="M441 709v-120h-285v120h285zM545 510v-510h-164l-9 51q-42 -61 -137 -61q-91 0 -138 61t-47 170v289h184v-279q0 -69 56 -69q46 0 71 44v304h184z" />
    <glyph glyph-name="Ubreve" unicode="&#x16c;" horiz-adv-x="724" 
d="M537 951q0 -74 -49.5 -122.5t-124.5 -48.5q-76 0 -126 48.5t-50 122.5h121q0 -34 14.5 -55.5t40.5 -21.5q24 0 38.5 21.5t14.5 55.5h121zM666 735v-467q0 -129 -79.5 -205t-224.5 -76t-224.5 76t-79.5 205v467h190v-454q0 -55 30 -88t84 -33t84 33t30 88v454h190z" />
    <glyph glyph-name="ubreve" unicode="&#x16d;" 
d="M473 746q0 -78 -49.5 -129.5t-124.5 -51.5q-76 0 -126 51t-50 130h121q0 -29 15.5 -48t39.5 -19q23 0 38 19t15 48h121zM545 510v-510h-164l-9 51q-42 -61 -137 -61q-91 0 -138 61t-47 170v289h184v-279q0 -69 56 -69q46 0 71 44v304h184z" />
    <glyph glyph-name="Uring" unicode="&#x16e;" horiz-adv-x="724" 
d="M363 1038q56 0 93.5 -37.5t37.5 -93.5t-37.5 -92.5t-93.5 -36.5q-57 0 -94.5 36.5t-37.5 92.5t37.5 93.5t94.5 37.5zM363 945q-15 0 -25 -11t-10 -27t10 -26t25 -10q14 0 24 10t10 26t-10 27t-24 11zM666 735v-467q0 -129 -79.5 -205t-224.5 -76t-224.5 76t-79.5 205v467
h190v-454q0 -55 30 -88t84 -33t84 33t30 88v454h190z" />
    <glyph glyph-name="uring" unicode="&#x16f;" 
d="M299 826q56 0 93.5 -37.5t37.5 -93.5t-37.5 -92.5t-93.5 -36.5q-57 0 -94.5 36.5t-37.5 92.5t37.5 93.5t94.5 37.5zM299 733q-15 0 -25 -11t-10 -27t10 -26t25 -10q14 0 24 10t10 26t-10 27t-24 11zM545 510v-510h-164l-9 51q-42 -61 -137 -61q-91 0 -138 61t-47 170v289
h184v-279q0 -69 56 -69q46 0 71 44v304h184z" />
    <glyph glyph-name="Uhungarumlaut" unicode="&#x170;" horiz-adv-x="724" 
d="M415 905l-100 -123h-118l71 123h147zM621 905l-100 -123h-118l71 123h147zM666 735v-467q0 -129 -79.5 -205t-224.5 -76t-224.5 76t-79.5 205v467h190v-454q0 -55 30 -88t84 -33t84 33t30 88v454h190z" />
    <glyph glyph-name="uhungarumlaut" unicode="&#x171;" 
d="M353 726l-100 -155h-118l71 155h147zM559 726l-100 -155h-118l71 155h147zM545 510v-510h-164l-9 51q-42 -61 -137 -61q-91 0 -138 61t-47 170v289h184v-279q0 -69 56 -69q46 0 71 44v304h184z" />
    <glyph glyph-name="Uogonek" unicode="&#x172;" horiz-adv-x="724" 
d="M476 735h190v-467q0 -103 -52 -174t-150 -95q-36 -29 -36 -68q0 -23 13 -35t34 -12q20 0 38 8l34 -93q-32 -16 -77 -16q-66 0 -110.5 36.5t-44.5 109.5q0 32 11 59q-128 10 -198 85t-70 195v467h190v-454q0 -55 30 -88t84 -33t84 33t30 88v454z" />
    <glyph glyph-name="uogonek" unicode="&#x173;" 
d="M545 -121l34 -93q-32 -16 -77 -16q-66 0 -110.5 36.5t-44.5 109.5q0 54 32 98l-7 37q-42 -61 -137 -61q-91 0 -138 61t-47 170v289h184v-279q0 -69 56 -69q46 0 71 44v304h184v-510h-27q-58 -33 -58 -82q0 -23 13 -35t34 -12q20 0 38 8z" />
    <glyph glyph-name="Wcircumflex" unicode="&#x174;" horiz-adv-x="960" 
d="M480 944l186 -162h-135l-51 41l-51 -41h-135zM951 735l-308 -745h-4l-159 345l-159 -345h-4l-308 745h211l117 -331l141 331h4l141 -331l117 331h211z" />
    <glyph glyph-name="wcircumflex" unicode="&#x175;" horiz-adv-x="772" 
d="M386 784l176 -211h-130l-46 51l-46 -51h-130zM772 510l-258 -520h-4l-124 214l-125 -214h-4l-257 520h206l73 -201l105 201h4l104 -201l74 201h206z" />
    <glyph glyph-name="Ycircumflex" unicode="&#x176;" horiz-adv-x="724" 
d="M362 944l186 -162h-135l-51 41l-51 -41h-135zM722 735l-264 -442v-293h-190v290l-266 445h221l139 -254l139 254h221z" />
    <glyph glyph-name="ycircumflex" unicode="&#x177;" horiz-adv-x="590" 
d="M278 784l176 -211h-130l-46 51l-46 -51h-130zM590 510l-414 -740h-210l230 391l-196 349h206l88 -201l90 201h206z" />
    <glyph glyph-name="Ydieresis" unicode="&#x178;" horiz-adv-x="724" 
d="M259 934q36 0 59 -23t23 -59t-23 -59t-59 -23t-59 23t-23 59t23 59t59 23zM466 934q36 0 59 -23t23 -59t-23 -59t-59 -23t-59 23t-23 59t23 59t59 23zM722 735l-264 -442v-293h-190v290l-266 445h221l139 -254l139 254h221z" />
    <glyph glyph-name="Zacute" unicode="&#x179;" horiz-adv-x="604" 
d="M533 905l-165 -123h-168l121 123h212zM572 735v-4l-272 -568h282v-163h-568v4l273 568h-259v163h544z" />
    <glyph glyph-name="zacute" unicode="&#x17a;" horiz-adv-x="498" 
d="M494 726l-185 -155h-148l131 155h202zM475 510v-4l-191 -352h189v-154h-452v4l191 352h-179v154h442z" />
    <glyph glyph-name="Zdotaccent" unicode="&#x17b;" horiz-adv-x="604" 
d="M298 975q42 0 69 -27t27 -69t-27 -69t-69 -27t-69 27t-27 69t27 69t69 27zM572 735v-4l-272 -568h282v-163h-568v4l273 568h-259v163h544z" />
    <glyph glyph-name="zdotaccent" unicode="&#x17c;" horiz-adv-x="498" 
d="M248 765q42 0 69 -27t27 -69t-27 -69t-69 -27t-69 27t-27 69t27 69t69 27zM475 510v-4l-191 -352h189v-154h-452v4l191 352h-179v154h442z" />
    <glyph glyph-name="Zcaron" unicode="&#x17d;" horiz-adv-x="604" 
d="M484 931l-186 -162l-186 162h135l51 -41l51 41h135zM572 735v-4l-272 -568h282v-163h-568v4l273 568h-259v163h544z" />
    <glyph glyph-name="zcaron" unicode="&#x17e;" horiz-adv-x="498" 
d="M424 771l-176 -211l-176 211h130l46 -51l46 51h130zM475 510v-4l-191 -352h189v-154h-452v4l191 352h-179v154h442z" />
    <glyph glyph-name="florin" unicode="&#x192;" horiz-adv-x="478" 
d="M366 760q77 0 124 -29l-63 -148q-20 18 -50 18q-44 0 -50 -58l-4 -33h113l-17 -154h-113l-45 -407q-10 -86 -69 -137.5t-152 -51.5q-77 0 -124 29l63 148q20 -18 50 -18q44 0 50 58l42 379h-73l17 154h73l7 61q10 86 69 137.5t152 51.5z" />
    <glyph glyph-name="Aringacute" unicode="&#x1fa;" horiz-adv-x="744" 
d="M637 1099l-185 -155h-148l131 155h202zM417 661l325 -661h-213l-34 86h-246l-34 -86h-213l326 662q-39 13 -62.5 45.5t-23.5 76.5q0 56 37.5 93.5t94.5 37.5q56 0 93.5 -37.5t37.5 -93.5q0 -44 -24 -77t-64 -46zM374 822q-15 0 -25 -11t-10 -27t10 -26t25 -10q14 0 24 10
t10 26t-10 27t-24 11zM305 228h134l-67 172z" />
    <glyph glyph-name="aringacute" unicode="&#x1fb;" horiz-adv-x="611" 
d="M554 942l-165 -123h-168l121 123h212zM303 801q56 0 93.5 -37.5t37.5 -93.5t-37.5 -92.5t-93.5 -36.5q-57 0 -94.5 36.5t-37.5 92.5t37.5 93.5t94.5 37.5zM303 708q-15 0 -25 -11t-10 -27t10 -26t25 -10q14 0 24 10t10 26t-10 27t-24 11zM246 520q94 0 136 -63l10 53h164
v-510h-164l-10 52q-43 -62 -136 -62q-97 0 -158 74.5t-61 190.5t61 190.5t158 74.5zM295 361q-38 0 -60 -28t-22 -78t22 -78t60 -28q48 0 77 47v118q-29 47 -77 47z" />
    <glyph glyph-name="AEacute" unicode="&#x1fc;" horiz-adv-x="905" 
d="M750 905l-165 -123h-168l121 123h212zM858 735v-173h-350l43 -110h265v-159h-199l49 -120h200v-173h-337l-34 86h-246l-34 -86h-213l332 735h524zM372 400l-67 -172h134z" />
    <glyph glyph-name="aeacute" unicode="&#x1fd;" horiz-adv-x="947" 
d="M714 726l-185 -155h-148l131 155h202zM684 520q114 0 173 -73t59 -184v-51h-336q21 -73 109 -73q63 0 95 43l123 -91q-79 -101 -217 -101q-46 0 -83 17t-55 44l-8 -51h-152l-10 52q-43 -62 -136 -62q-97 0 -158 74.5t-61 190.5t61 190.5t158 74.5q94 0 136 -63l10 53h154
l9 -51q41 61 129 61zM657 390q-31 0 -51 -20.5t-27 -55.5h156q-1 31 -22.5 53.5t-55.5 22.5zM295 361q-38 0 -60 -28t-22 -78t22 -78t60 -28q48 0 77 47v118q-29 47 -77 47z" />
    <glyph glyph-name="Oslashacute" unicode="&#x1fe;" horiz-adv-x="830" 
d="M650 915l-165 -123h-168l121 123h212zM662 664q64 -53 100 -130t36 -168q0 -164 -109.5 -271.5t-273.5 -107.5q-62 0 -119 17l-47 -84h-162l83 149q-65 52 -101.5 129t-36.5 168q0 165 109 273.5t274 108.5q65 0 122 -18l47 85h162zM225 366q0 -75 38 -129l186 335
q-17 3 -34 3q-84 0 -137 -58.5t-53 -150.5zM415 160q84 0 137 57.5t53 148.5q0 76 -36 129l-185 -333q20 -2 31 -2z" />
    <glyph glyph-name="oslashacute" unicode="&#x1ff;" horiz-adv-x="603" 
d="M538 726l-185 -155h-148l131 155h202zM472 466q49 -36 76.5 -91t27.5 -121q0 -115 -78 -189.5t-197 -74.5q-41 0 -82 11l-38 -71h-112l61 113q-103 76 -103 211q0 115 78 190.5t196 75.5q43 0 82 -11l39 71h112zM203 254q0 -31 11 -56l94 173h-7q-43 0 -70.5 -33.5
t-27.5 -83.5zM301 139q43 0 71 32.5t28 82.5q0 32 -12 58l-93 -173h6z" />
    <glyph glyph-name="Scommaaccent" unicode="&#x218;" horiz-adv-x="622" 
d="M317 748q80 0 154.5 -22t122.5 -58l-91 -159q-87 68 -187 68q-42 0 -68.5 -14.5t-26.5 -40.5q0 -23 24 -38.5t93 -29.5q143 -29 198.5 -81t55.5 -140q0 -112 -77.5 -179t-212.5 -67q-182 0 -297 101l102 156q35 -39 91 -62.5t110 -23.5q94 0 94 57q0 24 -25 40t-95 30
q-140 29 -196 85t-56 142q0 101 81 168.5t206 67.5zM312 -40q35 0 59 -19t24 -46q0 -25 -13 -42.5t-42 -35.5l-74 -47h-4v182q22 8 50 8z" />
    <glyph glyph-name="scommaaccent" unicode="&#x219;" horiz-adv-x="478" 
d="M267 520q114 0 186 -56l-64 -123q-65 45 -122 45q-47 0 -47 -27q0 -12 15.5 -20.5t65.5 -20.5q150 -38 150 -150q0 -81 -63 -129.5t-173 -48.5q-127 0 -198 58l65 125q60 -49 134 -49q51 0 51 27q0 14 -13.5 23.5t-56.5 20.5q-83 21 -122 55.5t-39 92.5q0 81 61 129
t170 48zM222 -40q35 0 59 -19t24 -46q0 -25 -13 -42.5t-42 -35.5l-74 -47h-4v182q22 8 50 8z" />
    <glyph glyph-name="Tcommaaccent" unicode="&#x21a;" horiz-adv-x="664" 
d="M651 735v-167h-224v-568h-190v568h-224v167h638zM319 -40q35 0 59 -19t24 -46q0 -25 -13 -42.5t-42 -35.5l-74 -47h-4v182q22 8 50 8z" />
    <glyph glyph-name="tcommaaccent" unicode="&#x21b;" horiz-adv-x="443" 
d="M279 677v-167h135v-154h-135v-149q0 -24 15.5 -38.5t41.5 -14.5q32 0 60 14l44 -144q-55 -34 -122 -34q-104 0 -163.5 56.5t-59.5 158.5v151h-86v154h86v167h184zM232 -40q35 0 59 -19t24 -46q0 -25 -13 -42.5t-42 -35.5l-74 -47h-4v182q22 8 50 8z" />
    <glyph glyph-name="circumflex" unicode="&#x2c6;" horiz-adv-x="382" 
d="M191 784l176 -211h-130l-46 51l-46 -51h-130z" />
    <glyph glyph-name="caron" unicode="&#x2c7;" horiz-adv-x="382" 
d="M367 771l-176 -211l-176 211h130l46 -51l46 51h130z" />
    <glyph glyph-name="breve" unicode="&#x2d8;" horiz-adv-x="380" 
d="M365 746q0 -78 -49.5 -129.5t-124.5 -51.5q-76 0 -126 51t-50 130h121q0 -29 15.5 -48t39.5 -19q23 0 38 19t15 48h121z" />
    <glyph glyph-name="dotaccent" unicode="&#x2d9;" horiz-adv-x="236" 
d="M118 765q42 0 69 -27t27 -69t-27 -69t-69 -27t-69 27t-27 69t27 69t69 27z" />
    <glyph glyph-name="ring" unicode="&#x2da;" horiz-adv-x="293" 
d="M147 826q56 0 93.5 -37.5t37.5 -93.5t-37.5 -92.5t-93.5 -36.5q-57 0 -94.5 36.5t-37.5 92.5t37.5 93.5t94.5 37.5zM147 733q-15 0 -25 -11t-10 -27t10 -26t25 -10q14 0 24 10t10 26t-10 27t-24 11z" />
    <glyph glyph-name="ogonek" unicode="&#x2db;" horiz-adv-x="262" 
d="M113 79l53 -79q-58 -33 -58 -82q0 -23 13 -35t34 -12q20 0 38 8l34 -93q-32 -16 -77 -16q-66 0 -110.5 36.5t-44.5 109.5q0 60 35.5 102.5t82.5 60.5z" />
    <glyph glyph-name="tilde" unicode="&#x2dc;" horiz-adv-x="401" 
d="M145 746q28 0 51.5 -15.5t41 -31t29.5 -15.5q29 0 29 56h90q0 -81 -37.5 -125.5t-92.5 -44.5q-23 0 -42 9.5t-28.5 21.5t-22 21.5t-25.5 9.5q-19 0 -26 -13t-7 -43h-90q0 84 37 127t93 43z" />
    <glyph glyph-name="hungarumlaut" unicode="&#x2dd;" horiz-adv-x="454" 
d="M263 726l-100 -155h-118l71 155h147zM469 726l-100 -155h-118l71 155h147z" />
    <glyph glyph-name="uni03A9" unicode="&#x3a9;" horiz-adv-x="858" 
d="M429 750q158 0 251 -96t93 -247q0 -47 -13.5 -91.5t-23.5 -63t-30 -49.5h117v-203h-351v193q44 49 67.5 95.5t23.5 109.5q0 71 -36 110.5t-98 39.5t-98 -39.5t-36 -110.5q0 -63 23.5 -109.5t67.5 -95.5v-193h-351v203h117q-20 31 -30 49.5t-23.5 63t-13.5 91.5
q0 151 93 247t251 96z" />
    <glyph glyph-name="pi" unicode="&#x3c0;" horiz-adv-x="783" 
d="M636 576l145 -84q-17 -69 -62 -114t-124 -45h-3l-16 -133q-4 -33 18 -33q16 0 36 16l63 -132q-78 -61 -179 -61q-41 0 -67 14t-35.5 36.5t-13 51t1.5 56.5l24 185h-56l-25 -195q-9 -76 -42 -138h-186q3 7 12.5 25.5t12.5 25.5t10 22t10 23.5t7 21.5t6.5 24.5t4.5 24.5
l22 166h-7q-55 0 -92 -55l-86 129q48 49 92.5 71.5t123.5 22.5h267q63 0 91.5 18t46.5 57z" />
    <glyph glyph-name="Wgrave" unicode="&#x1e80;" horiz-adv-x="960" 
d="M440 905l121 -123h-168l-165 123h212zM951 735l-308 -745h-4l-159 345l-159 -345h-4l-308 745h211l117 -331l141 331h4l141 -331l117 331h211z" />
    <glyph glyph-name="wgrave" unicode="&#x1e81;" horiz-adv-x="772" 
d="M334 726l131 -155h-148l-185 155h202zM772 510l-258 -520h-4l-124 214l-125 -214h-4l-257 520h206l73 -201l105 201h4l104 -201l74 201h206z" />
    <glyph glyph-name="Wacute" unicode="&#x1e82;" horiz-adv-x="960" 
d="M715 905l-165 -123h-168l121 123h212zM951 735l-308 -745h-4l-159 345l-159 -345h-4l-308 745h211l117 -331l141 331h4l141 -331l117 331h211z" />
    <glyph glyph-name="wacute" unicode="&#x1e83;" horiz-adv-x="772" 
d="M632 726l-185 -155h-148l131 155h202zM772 510l-258 -520h-4l-124 214l-125 -214h-4l-257 520h206l73 -201l105 201h4l104 -201l74 201h206z" />
    <glyph glyph-name="Wdieresis" unicode="&#x1e84;" horiz-adv-x="960" 
d="M377 934q36 0 59 -23t23 -59t-23 -59t-59 -23t-59 23t-23 59t23 59t59 23zM584 934q36 0 59 -23t23 -59t-23 -59t-59 -23t-59 23t-23 59t23 59t59 23zM951 735l-308 -745h-4l-159 345l-159 -345h-4l-308 745h211l117 -331l141 331h4l141 -331l117 331h211z" />
    <glyph glyph-name="wdieresis" unicode="&#x1e85;" horiz-adv-x="772" 
d="M283 737q36 0 59 -23t23 -59t-23 -59t-59 -23t-59 23t-23 59t23 59t59 23zM490 737q36 0 59 -23t23 -59t-23 -59t-59 -23t-59 23t-23 59t23 59t59 23zM772 510l-258 -520h-4l-124 214l-125 -214h-4l-257 520h206l73 -201l105 201h4l104 -201l74 201h206z" />
    <glyph glyph-name="Ygrave" unicode="&#x1ef2;" horiz-adv-x="724" 
d="M322 905l121 -123h-168l-165 123h212zM722 735l-264 -442v-293h-190v290l-266 445h221l139 -254l139 254h221z" />
    <glyph glyph-name="ygrave" unicode="&#x1ef3;" horiz-adv-x="590" 
d="M226 726l131 -155h-148l-185 155h202zM590 510l-414 -740h-210l230 391l-196 349h206l88 -201l90 201h206z" />
    <glyph glyph-name="endash" unicode="&#x2013;" horiz-adv-x="545" 
d="M510 352v-167h-475v167h475z" />
    <glyph glyph-name="emdash" unicode="&#x2014;" horiz-adv-x="790" 
d="M755 352v-167h-720v167h720z" />
    <glyph glyph-name="quoteleft" unicode="&#x2018;" horiz-adv-x="248" 
d="M195 743v-356q-22 -8 -48 -8q-49 0 -80.5 30.5t-31.5 76.5q0 34 23 68l133 189h4z" />
    <glyph glyph-name="quoteright" unicode="&#x2019;" horiz-adv-x="248" 
d="M101 743q49 0 80.5 -30.5t31.5 -76.5q0 -34 -23 -68l-133 -189h-4v356q22 8 48 8z" />
    <glyph glyph-name="quotesinglbase" unicode="&#x201a;" horiz-adv-x="248" 
d="M101 185q49 0 80.5 -30.5t31.5 -76.5q0 -34 -23 -68l-133 -189h-4v356q22 8 48 8z" />
    <glyph glyph-name="quotedblleft" unicode="&#x201c;" horiz-adv-x="475" 
d="M195 743v-356q-22 -8 -48 -8q-49 0 -80.5 30.5t-31.5 76.5q0 34 23 68l133 189h4zM422 743v-356q-22 -8 -48 -8q-49 0 -80.5 30.5t-31.5 76.5q0 34 23 68l133 189h4z" />
    <glyph glyph-name="quotedblright" unicode="&#x201d;" horiz-adv-x="475" 
d="M101 743q49 0 80.5 -30.5t31.5 -76.5q0 -34 -23 -68l-133 -189h-4v356q22 8 48 8zM328 743q49 0 80.5 -30.5t31.5 -76.5q0 -34 -23 -68l-133 -189h-4v356q22 8 48 8z" />
    <glyph glyph-name="quotedblbase" unicode="&#x201e;" horiz-adv-x="475" 
d="M101 185q49 0 80.5 -30.5t31.5 -76.5q0 -34 -23 -68l-133 -189h-4v356q22 8 48 8zM328 185q49 0 80.5 -30.5t31.5 -76.5q0 -34 -23 -68l-133 -189h-4v356q22 8 48 8z" />
    <glyph glyph-name="dagger" unicode="&#x2020;" horiz-adv-x="498" 
d="M338 735v-157h139v-163h-139v-415h-180v415h-137v163h137v157h180z" />
    <glyph glyph-name="daggerdbl" unicode="&#x2021;" horiz-adv-x="500" 
d="M340 735v-157h139v-163h-139v-95h137v-163h-137v-157h-180v157h-139v163h139v95h-137v163h137v157h180z" />
    <glyph glyph-name="bullet" unicode="&#x2022;" horiz-adv-x="295" 
d="M147 381q53 0 88 -35t35 -88t-35 -87.5t-88 -34.5t-87.5 35t-34.5 87q0 53 34.5 88t87.5 35z" />
    <glyph glyph-name="ellipsis" unicode="&#x2026;" horiz-adv-x="942" 
d="M157 204q47 0 77 -30t30 -77t-30 -77t-77 -30t-77 30t-30 77t30 77t77 30zM471 204q47 0 77 -30t30 -77t-30 -77t-77 -30t-77 30t-30 77t30 77t77 30zM785 204q47 0 77 -30t30 -77t-30 -77t-77 -30t-77 30t-30 77t30 77t77 30z" />
    <glyph glyph-name="perthousand" unicode="&#x2030;" horiz-adv-x="1318" 
d="M213 747q82 0 136.5 -54t54.5 -136q0 -81 -54.5 -134.5t-136.5 -53.5q-83 0 -137.5 53t-54.5 135t54.5 136t137.5 54zM762 735l-468 -735h-153l468 735h153zM213 619q-25 0 -40.5 -17.5t-15.5 -44.5q0 -26 15.5 -43t40.5 -17q23 0 39 17.5t16 42.5q0 27 -16 44.5
t-39 17.5zM689 365q82 0 136.5 -54t54.5 -136q0 -81 -54.5 -134.5t-136.5 -53.5q-83 0 -137.5 53t-54.5 135t54.5 136t137.5 54zM1106 365q82 0 136.5 -54t54.5 -136q0 -81 -54.5 -134.5t-136.5 -53.5q-83 0 -137.5 53t-54.5 135t54.5 136t137.5 54zM689 237
q-25 0 -40.5 -17.5t-15.5 -44.5q0 -26 15.5 -43t40.5 -17q23 0 39 17.5t16 42.5q0 27 -16 44.5t-39 17.5zM1106 237q-25 0 -40.5 -17.5t-15.5 -44.5q0 -26 15.5 -43t40.5 -17q23 0 39 17.5t16 42.5q0 27 -16 44.5t-39 17.5z" />
    <glyph glyph-name="guilsinglleft" unicode="&#x2039;" horiz-adv-x="339" 
d="M309 458l-108 -202l108 -202h-164l-115 200v4l115 200h164z" />
    <glyph glyph-name="guilsinglright" unicode="&#x203a;" horiz-adv-x="339" 
d="M194 458l115 -200v-4l-115 -200h-164l108 202l-108 202h164z" />
    <glyph glyph-name="fraction" unicode="&#x2044;" horiz-adv-x="259" 
d="M384 735l-363 -735h-146l364 735h145z" />
    <glyph glyph-name="zero.sups" unicode="&#x2070;" horiz-adv-x="383" 
d="M202 820q76 0 121 -58.5t45 -157.5q0 -100 -45 -159t-121 -59t-121.5 59t-45.5 159q0 99 45 157.5t122 58.5zM202 707q-35 0 -35 -103q0 -104 35 -104q34 0 34 104q0 103 -34 103z" />
    <glyph glyph-name="four.sups" unicode="&#x2074;" horiz-adv-x="386" 
d="M346 822v-305h35v-89h-35v-34h-130v34h-206v1l334 393h2zM235 582l-67 -74h67v74z" />
    <glyph glyph-name="five.sups" unicode="&#x2075;" horiz-adv-x="356" 
d="M321 813v-114h-140v-30h10q69 0 112.5 -33.5t43.5 -110.5q0 -64 -43 -101.5t-116 -37.5q-128 0 -157 101l107 50q9 -36 41 -36q37 0 37 31q0 14 -11 23t-28 9q-21 0 -35 -14l-91 40v223h270z" />
    <glyph glyph-name="six.sups" unicode="&#x2076;" horiz-adv-x="370" 
d="M242 672q51 -14 83 -51.5t32 -88.5q0 -63 -47.5 -104.5t-115.5 -41.5q-67 0 -114 41.5t-47 104.5q0 41 24 80l126 201h147zM194 494q35 0 35 38q0 40 -35 40q-34 0 -34 -40q0 -38 34 -38z" />
    <glyph glyph-name="seven.sups" unicode="&#x2077;" horiz-adv-x="358" 
d="M365 813v-4l-198 -415h-140l147 302h-142v117h333z" />
    <glyph glyph-name="eight.sups" unicode="&#x2078;" horiz-adv-x="371" 
d="M195 821q63 0 106.5 -37t43.5 -94q0 -42 -34 -76q47 -41 47 -89q0 -61 -47.5 -100t-115.5 -39q-67 0 -114 39t-47 100q0 50 46 88q-35 35 -35 77q0 57 43.5 94t106.5 37zM195 719q-15 0 -25 -10.5t-10 -25.5q0 -14 9.5 -23t25.5 -9t26 9t10 23q0 15 -10 25.5t-26 10.5z
M195 560q-15 0 -24.5 -10t-9.5 -26t9.5 -25t24.5 -9q35 0 35 34q0 16 -9.5 26t-25.5 10z" />
    <glyph glyph-name="nine.sups" unicode="&#x2079;" horiz-adv-x="370" 
d="M196 821q67 0 114 -41.5t47 -104.5q0 -41 -24 -80l-126 -201h-147l88 141q-51 14 -83 51.5t-32 88.5q0 63 47.5 104.5t115.5 41.5zM196 713q-35 0 -35 -38q0 -40 35 -40q34 0 34 40q0 38 -34 38z" />
    <glyph glyph-name="n.sups" unicode="&#x207f;" horiz-adv-x="437" 
d="M267 754q66 0 100 -43.5t34 -121.5v-201h-146v193q0 37 -29 37q-15 0 -25 -8t-13 -17v-205h-145v359h129l7 -33q24 40 88 40z" />
    <glyph glyph-name="Euro" unicode="&#x20ac;" horiz-adv-x="670" 
d="M427 150q74 0 121 73l112 -131q-89 -105 -233 -105q-113 0 -196 62.5t-117 173.5h-87v114h68q-1 10 -1 31q0 24 1 36h-68v114h89q34 109 116.5 169.5t194.5 60.5q144 0 233 -105l-112 -131q-47 73 -121 73q-70 0 -109 -67h119v-114h-149q-1 -12 -1 -36q0 -21 1 -31h149
v-114h-121q37 -73 111 -73z" />
    <glyph glyph-name="afii61289" unicode="&#x2113;" horiz-adv-x="584" 
d="M356 750q78 0 132.5 -45.5t54.5 -130.5q0 -51 -19 -101.5t-54 -96t-65.5 -77t-71.5 -68.5v-50q0 -38 33 -38q13 0 23 3.5t23 17t18.5 21t25.5 34.5l105 -86q-90 -147 -229 -147q-72 0 -118 37t-46 79v1q-20 -22 -58 -53l-89 130q96 80 140 124v247q0 104 49 151.5
t146 47.5zM355 611q-14 0 -25 -11.5t-11 -31.5v-156q24 25 48 70.5t24 85.5q0 21 -10.5 32t-25.5 11z" />
    <glyph glyph-name="trademark" unicode="&#x2122;" horiz-adv-x="918" 
d="M883 742v-383h-130v91l-87 -98h-4l-87 98v-91h-130v383h2l217 -227l217 227h2zM385 735v-124h-115v-252h-130v252h-115v124h360z" />
    <glyph glyph-name="Omega" unicode="&#x2126;" horiz-adv-x="858" 
d="M429 750q158 0 251 -96t93 -247q0 -47 -13.5 -91.5t-23.5 -63t-30 -49.5h117v-203h-351v193q44 49 67.5 95.5t23.5 109.5q0 71 -36 110.5t-98 39.5t-98 -39.5t-36 -110.5q0 -63 23.5 -109.5t67.5 -95.5v-193h-351v203h117q-20 31 -30 49.5t-23.5 63t-13.5 91.5
q0 151 93 247t251 96z" />
    <glyph glyph-name="estimated" unicode="&#x212e;" horiz-adv-x="591" 
d="M308 533q109 0 178.5 -67.5t69.5 -192.5h-366v-176q0 -48 38 -64q26 -12 80 -12q66 0 121 32.5t92 91.5l30 -19q-89 -140 -243 -140q-119 0 -196 75t-77 198t77 198.5t196 75.5zM308 498q-51 0 -83 -15q-35 -15 -35 -62v-113h225v111q0 30 -6.5 44.5t-28.5 22.5
q-30 12 -72 12z" />
    <glyph glyph-name="partialdiff" unicode="&#x2202;" horiz-adv-x="556" 
d="M262 748q70 0 121.5 -29t79 -71t44 -101.5t21 -106t4.5 -98.5q0 -120 -35 -204q-62 -148 -218 -148q-110 0 -181.5 66.5t-71.5 174.5q0 109 68 175.5t172 66.5q56 0 82 -22q0 61 -27.5 93t-73.5 32q-64 0 -101 -64l-122 115q86 121 238 121zM281 311q-31 0 -50 -22
t-19 -58t19 -57.5t50 -21.5t50.5 21.5t19.5 57.5t-19.5 58t-50.5 22z" />
    <glyph glyph-name="uni2206" unicode="&#x2206;" horiz-adv-x="721" 
d="M361 646l325 -646h-651zM361 312l-84 -167h167z" />
    <glyph glyph-name="product" unicode="&#x220f;" horiz-adv-x="706" 
d="M671 740v-173h-85v-668h-172v668h-121v-668h-174v668h-84v173h636z" />
    <glyph glyph-name="summation" unicode="&#x2211;" horiz-adv-x="610" 
d="M563 740v-186h-266l124 -169l-134 -199h288v-186h-540v124l171 257l-168 235v124h525z" />
    <glyph glyph-name="minus" unicode="&#x2212;" horiz-adv-x="532" 
d="M499 433v-167h-466v167h466z" />
    <glyph glyph-name="radical" unicode="&#x221a;" horiz-adv-x="697" 
d="M527 698l155 -66l-312 -709l-168 310l-101 -62l-86 137l280 167l70 -148z" />
    <glyph glyph-name="infinity" unicode="&#x221e;" horiz-adv-x="782" 
d="M546 512q89 0 145 -60.5t56 -148.5q0 -89 -56 -149.5t-145 -60.5q-83 0 -162 71l-10 9l-9 -8q-67 -58 -143 -58q-85 0 -136 55.5t-51 139.5t51 140.5t136 56.5q73 0 142 -62l9 -7l6 6q76 76 167 76zM549 358q-31 0 -72 -44l-9 -12l9 -11q44 -44 72 -44q21 0 33.5 16
t12.5 40q0 23 -12.5 39t-33.5 16zM219 350q-18 0 -28.5 -14t-10.5 -34t10.5 -33.5t28.5 -13.5q34 0 59 36l7 10l-7 7q-33 42 -59 42z" />
    <glyph glyph-name="integral" unicode="&#x222b;" horiz-adv-x="434" 
d="M269 750q78 0 140 -22l-32 -145q-36 12 -64 12q-23 0 -23 -25v-581q0 -98 -34.5 -139t-110.5 -41q-78 0 -140 22l32 145q36 -12 64 -12q23 0 23 25v581q0 98 34.5 139t110.5 41z" />
    <glyph glyph-name="approxequal" unicode="&#x2248;" horiz-adv-x="669" 
d="M245 602q44 0 81 -19t65.5 -38.5t51.5 -19.5q62 0 90 65l103 -86q-29 -70 -80.5 -109t-113.5 -39q-36 0 -65.5 12t-45.5 26.5t-39 26.5t-47 12q-63 0 -91 -65l-103 86q29 70 80.5 109t113.5 39zM227 329q44 0 81 -19.5t65.5 -38.5t51.5 -19q62 0 90 65l103 -86
q-29 -70 -80.5 -109t-113.5 -39q-36 0 -65.5 12t-45.5 26.5t-39 26.5t-47 12q-63 0 -91 -65l-103 86q29 70 80.5 109t113.5 39z" />
    <glyph glyph-name="notequal" unicode="&#x2260;" horiz-adv-x="532" 
d="M499 406h-135l-42 -117h177v-167h-236l-32 -92h-153l32 92h-77v167h136l42 117h-178v167h236l47 132h153l-47 -132h77v-167z" />
    <glyph glyph-name="lessequal" unicode="&#x2264;" horiz-adv-x="445" 
d="M412 638l-155 -162l155 -162h-229l-150 160v4l150 160h229zM412 266v-167h-379v167h379z" />
    <glyph glyph-name="greaterequal" unicode="&#x2265;" horiz-adv-x="445" 
d="M262 638l150 -160v-4l-150 -160h-229l155 162l-155 162h229zM412 266v-167h-379v167h379z" />
    <glyph glyph-name="lozenge" unicode="&#x25ca;" horiz-adv-x="569" 
d="M341 738l203 -402l-203 -401h-112l-204 401l204 402h112zM285 468l-68 -132l68 -133l68 133z" />
    <glyph glyph-name="commaaccent" unicode="&#xf6c3;" horiz-adv-x="0" 
d="M-129 -40q35 0 59 -19t24 -46q0 -25 -13 -42.5t-42 -35.5l-74 -47h-4v182q22 8 50 8z" />
    <glyph glyph-name="CR" horiz-adv-x="250" 
 />
    <glyph glyph-name="germandbls.cap" horiz-adv-x="709" 
d="M353 748q104 0 175 -37t126 -105l-97 -178q125 -50 125 -193q0 -110 -75.5 -179t-199.5 -69q-76 0 -118 18l33 172q29 -17 63 -17q38 0 64.5 27t26.5 67q0 54 -43 73t-121 19l-2 5l102 195q-27 27 -72 27q-42 0 -66 -27.5t-24 -74.5v-471h-184v472q0 119 81 197.5
t206 78.5z" />
    <glyph glyph-name="endash_guilsinglright" horiz-adv-x="673" 
d="M331 553l312 -280l-312 -280l-84 102l121 103h-339v148h341l-123 105z" />
    <glyph glyph-name="emdash_guilsinglright" horiz-adv-x="989" 
d="M647 553l313 -280l-313 -280l-84 102l121 103h-655v148h657l-123 105z" />
    <glyph glyph-name="guilsinglleft_endash" horiz-adv-x="672" 
d="M342 553l84 -102l-123 -105h340v-148h-338l121 -103l-84 -102l-313 280z" />
    <glyph glyph-name="guilsinglleft_emdash" horiz-adv-x="989" 
d="M342 553l84 -102l-123 -105h657v-148h-655l121 -103l-84 -102l-313 280z" />
    <glyph glyph-name="at.cap" horiz-adv-x="892" 
d="M445 784q189 0 306 -112t117 -292q0 -102 -52 -166.5t-140 -64.5q-51 0 -88 19t-52 46l-2 3q-22 -28 -57.5 -48t-74.5 -20q-81 0 -132.5 62t-51.5 157q0 96 51.5 158t132.5 62q79 0 115 -52l8 44h136v-284q0 -43 36 -43q30 0 46.5 34t16.5 93q0 137 -84 220.5t-231 83.5
q-139 0 -226 -88.5t-87 -227.5q0 -138 84 -225.5t219 -87.5q69 0 128 24l26 -95q-72 -29 -154 -29q-179 0 -295 117t-116 296q0 180 119 298t302 118zM442 456q-32 0 -51 -23t-19 -65q0 -41 19 -64t51 -23q42 0 67 39v97q-25 39 -67 39z" />
    <glyph glyph-name="grave.cap" horiz-adv-x="363" 
d="M227 905l121 -123h-168l-165 123h212z" />
    <glyph glyph-name="acute.cap" horiz-adv-x="363" 
d="M348 905l-165 -123h-168l121 123h212z" />
    <glyph glyph-name="circumflex.cap" horiz-adv-x="402" 
d="M201 944l186 -162h-135l-51 41l-51 -41h-135z" />
    <glyph glyph-name="caron.cap" horiz-adv-x="402" 
d="M387 931l-186 -162l-186 162h135l51 -41l51 41h135z" />
    <glyph glyph-name="tilde.cap" horiz-adv-x="401" 
d="M145 943q28 0 51.5 -15.5t41 -31t29.5 -15.5q29 0 29 56h90q0 -76 -37.5 -118t-92.5 -42q-23 0 -42 9.5t-28.5 21.5t-22 21.5t-25.5 9.5q-19 0 -26 -13t-7 -43h-90q0 79 37 119.5t93 40.5z" />
    <glyph glyph-name="dieresis.cap" horiz-adv-x="401" 
d="M97 934q36 0 59 -23t23 -59t-23 -59t-59 -23t-59 23t-23 59t23 59t59 23zM304 934q36 0 59 -23t23 -59t-23 -59t-59 -23t-59 23t-23 59t23 59t59 23z" />
    <glyph glyph-name="macron.cap" horiz-adv-x="315" 
d="M300 912v-120h-285v120h285z" />
    <glyph glyph-name="breve.cap" horiz-adv-x="380" 
d="M365 951q0 -74 -49.5 -122.5t-124.5 -48.5q-76 0 -126 48.5t-50 122.5h121q0 -34 14.5 -55.5t40.5 -21.5q24 0 38.5 21.5t14.5 55.5h121z" />
    <glyph glyph-name="ring.cap" horiz-adv-x="293" 
d="M147 1038q56 0 93.5 -37.5t37.5 -93.5t-37.5 -92.5t-93.5 -36.5q-57 0 -94.5 36.5t-37.5 92.5t37.5 93.5t94.5 37.5zM147 945q-15 0 -25 -11t-10 -27t10 -26t25 -10q14 0 24 10t10 26t-10 27t-24 11z" />
    <glyph glyph-name="hungarumlaut.cap" horiz-adv-x="454" 
d="M265 905l-100 -123h-118l71 123h147zM471 905l-100 -123h-118l71 123h147z" />
    <glyph glyph-name="dotaccent.cap" horiz-adv-x="217" 
d="M108 975q42 0 69 -27t27 -69t-27 -69t-69 -27t-69 27t-27 69t27 69t69 27z" />
    <glyph glyph-name="parenleft.cap" horiz-adv-x="363" 
d="M190 818l141 -97q-58 -76 -89 -156t-31 -198t31 -198t89 -156l-141 -97q-152 204 -152 451t152 451z" />
    <glyph glyph-name="parenright.cap" horiz-adv-x="363" 
d="M173 818q152 -204 152 -451t-152 -451l-141 97q58 76 89 156t31 198t-31 198t-89 156z" />
    <glyph glyph-name="bracketleft.cap" horiz-adv-x="362" 
d="M327 797v-143h-99v-574h99v-143h-272v860h272z" />
    <glyph glyph-name="bracketright.cap" horiz-adv-x="362" 
d="M307 797v-860h-272v143h99v574h-99v143h272z" />
    <glyph glyph-name="braceleft.cap" horiz-adv-x="356" 
d="M321 797v-143q-45 0 -62 -27t-8 -73l8 -40q12 -58 -3.5 -98t-47.5 -49q32 -9 47.5 -49t3.5 -98l-8 -40q-9 -46 8 -73t62 -27v-143q-152 0 -209 73t-30 204l8 38q9 44 -14 74.5t-61 38.5v4q38 8 61 38.5t14 74.5l-8 38q-27 131 30 204t209 73z" />
    <glyph glyph-name="braceright.cap" horiz-adv-x="356" 
d="M35 797q152 0 209 -73t30 -204l-8 -38q-9 -44 14 -74.5t61 -38.5v-4q-38 -8 -61 -38.5t-14 -74.5l8 -38q27 -131 -30 -204t-209 -73v143q45 0 62 27t8 73l-8 40q-12 58 3.5 98t47.5 49q-32 9 -47.5 49t-3.5 98l8 40q9 46 -8 73t-62 27v143z" />
    <glyph glyph-name="guilsinglleft.cap" horiz-adv-x="359" 
d="M329 576l-128 -222l128 -222h-164l-135 220v4l135 220h164z" />
    <glyph glyph-name="guilsinglright.cap" horiz-adv-x="359" 
d="M194 576l135 -220v-4l-135 -220h-164l128 222l-128 222h164z" />
    <glyph glyph-name="guillemotleft.cap" horiz-adv-x="627" 
d="M329 576l-128 -222l128 -222h-164l-135 220v4l135 220h164zM597 576l-128 -222l128 -222h-164l-135 220v4l135 220h164z" />
    <glyph glyph-name="guillemotright.cap" horiz-adv-x="627" 
d="M194 576l135 -220v-4l-135 -220h-164l128 222l-128 222h164zM462 576l135 -220v-4l-135 -220h-164l128 222l-128 222h164z" />
    <glyph glyph-name="exclamdown.cap" horiz-adv-x="318" 
d="M159 531q-47 0 -77 30.5t-30 76.5t30 76.5t77 30.5t77 -30.5t30 -76.5t-30 -76.5t-77 -30.5zM68 0v483h184v-483h-184z" />
    <glyph glyph-name="questiondown.cap" horiz-adv-x="551" 
d="M285 531q-47 0 -77 30.5t-30 76.5t30 76.5t77 30.5t77 -30.5t30 -76.5t-30 -76.5t-77 -30.5zM282 -13q-111 0 -182.5 63t-71.5 153q0 50 17 85t41.5 54t49 36t41.5 42.5t17 60.5v2h184v-28q0 -48 -16.5 -83t-39.5 -53.5t-46 -34t-39.5 -34.5t-16.5 -44q0 -26 18 -41
t46 -15q29 0 48.5 20t21.5 49l181 -29q-20 -97 -85 -150t-168 -53z" />
    <glyph glyph-name="endash.cap" horiz-adv-x="545" 
d="M510 440v-167h-475v167h475z" />
    <glyph glyph-name="periodcentered.cap" horiz-adv-x="284" 
d="M142 462q46 0 76.5 -30t30.5 -77t-30.5 -77t-76.5 -30t-76.5 30t-30.5 77t30.5 77t76.5 30z" />
    <glyph glyph-name="emdash.cap" horiz-adv-x="790" 
d="M755 440v-167h-720v167h720z" />
    <glyph glyph-name="hyphen.cap" horiz-adv-x="386" 
d="M351 440v-167h-316v167h316z" />
    <glyph glyph-name="zero.dnom" horiz-adv-x="403" 
d="M202 426q76 0 121 -58.5t45 -157.5q0 -100 -45 -159t-121 -59t-121.5 59t-45.5 159q0 99 45 157.5t122 58.5zM202 313q-35 0 -35 -103q0 -104 35 -104q34 0 34 104q0 103 -34 103z" />
    <glyph glyph-name="one.dnom" horiz-adv-x="298" 
d="M242 427v-427h-130v230l-44 -17l-51 122l223 92h2z" />
    <glyph glyph-name="two.dnom" horiz-adv-x="363" 
d="M168 427q74 0 118 -41t44 -104q0 -44 -42 -104l-45 -64h87v-114h-303v3l150 239q21 33 21 44q0 26 -30 26q-31 0 -36 -49l-118 27q25 137 154 137z" />
    <glyph glyph-name="three.dnom" horiz-adv-x="355" 
d="M172 427q70 0 113 -40.5t43 -100.5q0 -47 -38 -78q41 -29 41 -79q0 -60 -43 -98.5t-116 -38.5q-135 0 -155 132l118 25q1 -42 37 -42q28 0 28 28q0 30 -26 30h-45v97h45q25 2 25 25q0 25 -29 25q-28 0 -29 -33l-113 47q28 101 144 101z" />
    <glyph glyph-name="four.dnom" horiz-adv-x="406" 
d="M346 428v-305h35v-89h-35v-34h-130v34h-206v1l334 393h2zM235 188l-67 -74h67v74z" />
    <glyph glyph-name="five.dnom" horiz-adv-x="376" 
d="M321 419v-114h-140v-30h10q69 0 112.5 -33.5t43.5 -110.5q0 -64 -43 -101.5t-116 -37.5q-128 0 -157 101l107 50q9 -36 41 -36q37 0 37 31q0 14 -11 23t-28 9q-21 0 -35 -14l-91 40v223h270z" />
    <glyph glyph-name="six.dnom" horiz-adv-x="390" 
d="M242 278q51 -14 83 -51.5t32 -88.5q0 -63 -47.5 -104.5t-115.5 -41.5q-67 0 -114 41.5t-47 104.5q0 41 24 80l126 201h147zM194 100q35 0 35 38q0 40 -35 40q-34 0 -34 -40q0 -38 34 -38z" />
    <glyph glyph-name="seven.dnom" horiz-adv-x="378" 
d="M365 419v-4l-198 -415h-140l147 302h-142v117h333z" />
    <glyph glyph-name="eight.dnom" horiz-adv-x="391" 
d="M195 427q63 0 106.5 -37t43.5 -94q0 -42 -34 -76q47 -41 47 -89q0 -61 -47.5 -100t-115.5 -39q-67 0 -114 39t-47 100q0 50 46 88q-35 35 -35 77q0 57 43.5 94t106.5 37zM195 325q-15 0 -25 -10.5t-10 -25.5q0 -14 9.5 -23t25.5 -9t26 9t10 23q0 15 -10 25.5t-26 10.5z
M195 166q-15 0 -24.5 -10t-9.5 -26t9.5 -25t24.5 -9q35 0 35 34q0 16 -9.5 26t-25.5 10z" />
    <glyph glyph-name="nine.dnom" horiz-adv-x="390" 
d="M196 427q67 0 114 -41.5t47 -104.5q0 -41 -24 -80l-126 -201h-147l88 141q-51 14 -83 51.5t-32 88.5q0 63 47.5 104.5t115.5 41.5zM196 319q-35 0 -35 -38q0 -40 35 -40q34 0 34 40q0 38 -34 38z" />
    <glyph glyph-name="zero.numr" horiz-adv-x="383" 
d="M202 740q76 0 121 -58.5t45 -157.5q0 -100 -45 -159t-121 -59t-121.5 59t-45.5 159q0 99 45 157.5t122 58.5zM202 627q-35 0 -35 -103q0 -104 35 -104q34 0 34 104q0 103 -34 103z" />
    <glyph glyph-name="one.numr" horiz-adv-x="278" 
d="M242 741v-427h-130v230l-44 -17l-51 122l223 92h2z" />
    <glyph glyph-name="two.numr" horiz-adv-x="343" 
d="M168 741q74 0 118 -41t44 -104q0 -44 -42 -104l-45 -64h87v-114h-303v3l150 239q21 33 21 44q0 26 -30 26q-31 0 -36 -49l-118 27q25 137 154 137z" />
    <glyph glyph-name="three.numr" horiz-adv-x="335" 
d="M172 741q70 0 113 -40.5t43 -100.5q0 -47 -38 -78q41 -29 41 -79q0 -60 -43 -98.5t-116 -38.5q-135 0 -155 132l118 25q1 -42 37 -42q28 0 28 28q0 30 -26 30h-45v97h45q25 2 25 25q0 25 -29 25q-28 0 -29 -33l-113 47q28 101 144 101z" />
    <glyph glyph-name="four.numr" horiz-adv-x="386" 
d="M346 742v-305h35v-89h-35v-34h-130v34h-206v1l334 393h2zM235 502l-67 -74h67v74z" />
    <glyph glyph-name="five.numr" horiz-adv-x="356" 
d="M321 733v-114h-140v-30h10q69 0 112.5 -33.5t43.5 -110.5q0 -64 -43 -101.5t-116 -37.5q-128 0 -157 101l107 50q9 -36 41 -36q37 0 37 31q0 14 -11 23t-28 9q-21 0 -35 -14l-91 40v223h270z" />
    <glyph glyph-name="six.numr" horiz-adv-x="370" 
d="M242 592q51 -14 83 -51.5t32 -88.5q0 -63 -47.5 -104.5t-115.5 -41.5q-67 0 -114 41.5t-47 104.5q0 41 24 80l126 201h147zM194 414q35 0 35 38q0 40 -35 40q-34 0 -34 -40q0 -38 34 -38z" />
    <glyph glyph-name="seven.numr" horiz-adv-x="358" 
d="M365 733v-4l-198 -415h-140l147 302h-142v117h333z" />
    <glyph glyph-name="eight.numr" horiz-adv-x="371" 
d="M195 741q63 0 106.5 -37t43.5 -94q0 -42 -34 -76q47 -41 47 -89q0 -61 -47.5 -100t-115.5 -39q-67 0 -114 39t-47 100q0 50 46 88q-35 35 -35 77q0 57 43.5 94t106.5 37zM195 639q-15 0 -25 -10.5t-10 -25.5q0 -14 9.5 -23t25.5 -9t26 9t10 23q0 15 -10 25.5t-26 10.5z
M195 480q-15 0 -24.5 -10t-9.5 -26t9.5 -25t24.5 -9q35 0 35 34q0 16 -9.5 26t-25.5 10z" />
    <glyph glyph-name="nine.numr" horiz-adv-x="370" 
d="M196 741q67 0 114 -41.5t47 -104.5q0 -41 -24 -80l-126 -201h-147l88 141q-51 14 -83 51.5t-32 88.5q0 63 47.5 104.5t115.5 41.5zM196 633q-35 0 -35 -38q0 -40 35 -40q34 0 34 40q0 38 -34 38z" />
    <glyph glyph-name="zero.subs" horiz-adv-x="383" 
d="M202 326q76 0 121 -58.5t45 -157.5q0 -100 -45 -159t-121 -59t-121.5 59t-45.5 159q0 99 45 157.5t122 58.5zM202 213q-35 0 -35 -103q0 -104 35 -104q34 0 34 104q0 103 -34 103z" />
    <glyph glyph-name="one.subs" horiz-adv-x="278" 
d="M242 327v-427h-130v230l-44 -17l-51 122l223 92h2z" />
    <glyph glyph-name="two.subs" horiz-adv-x="343" 
d="M168 327q74 0 118 -41t44 -104q0 -44 -42 -104l-45 -64h87v-114h-303v3l150 239q21 33 21 44q0 26 -30 26q-31 0 -36 -49l-118 27q25 137 154 137z" />
    <glyph glyph-name="three.subs" horiz-adv-x="335" 
d="M172 327q70 0 113 -40.5t43 -100.5q0 -47 -38 -78q41 -29 41 -79q0 -60 -43 -98.5t-116 -38.5q-135 0 -155 132l118 25q1 -42 37 -42q28 0 28 28q0 30 -26 30h-45v97h45q25 2 25 25q0 25 -29 25q-28 0 -29 -33l-113 47q28 101 144 101z" />
    <glyph glyph-name="four.subs" horiz-adv-x="386" 
d="M346 328v-305h35v-89h-35v-34h-130v34h-206v1l334 393h2zM235 88l-67 -74h67v74z" />
    <glyph glyph-name="five.subs" horiz-adv-x="356" 
d="M321 319v-114h-140v-30h10q69 0 112.5 -33.5t43.5 -110.5q0 -64 -43 -101.5t-116 -37.5q-128 0 -157 101l107 50q9 -36 41 -36q37 0 37 31q0 14 -11 23t-28 9q-21 0 -35 -14l-91 40v223h270z" />
    <glyph glyph-name="six.subs" horiz-adv-x="370" 
d="M242 178q51 -14 83 -51.5t32 -88.5q0 -63 -47.5 -104.5t-115.5 -41.5q-67 0 -114 41.5t-47 104.5q0 41 24 80l126 201h147zM194 0q35 0 35 38q0 40 -35 40q-34 0 -34 -40q0 -38 34 -38z" />
    <glyph glyph-name="seven.subs" horiz-adv-x="358" 
d="M365 319v-4l-198 -415h-140l147 302h-142v117h333z" />
    <glyph glyph-name="eight.subs" horiz-adv-x="371" 
d="M195 327q63 0 106.5 -37t43.5 -94q0 -42 -34 -76q47 -41 47 -89q0 -61 -47.5 -100t-115.5 -39q-67 0 -114 39t-47 100q0 50 46 88q-35 35 -35 77q0 57 43.5 94t106.5 37zM195 225q-15 0 -25 -10.5t-10 -25.5q0 -14 9.5 -23t25.5 -9t26 9t10 23q0 15 -10 25.5t-26 10.5z
M195 66q-15 0 -24.5 -10t-9.5 -26t9.5 -25t24.5 -9q35 0 35 34q0 16 -9.5 26t-25.5 10z" />
    <glyph glyph-name="nine.subs" horiz-adv-x="370" 
d="M196 327q67 0 114 -41.5t47 -104.5q0 -41 -24 -80l-126 -201h-147l88 141q-51 14 -83 51.5t-32 88.5q0 63 47.5 104.5t115.5 41.5zM196 219q-35 0 -35 -38q0 -40 35 -40q34 0 34 40q0 38 -34 38z" />
    <glyph glyph-name="zero.lnum" 
d="M300 748q126 0 199 -103t73 -277q0 -175 -73 -278t-199 -103t-199 103t-73 278q0 174 73 277t199 103zM300 587q-85 0 -85 -219q0 -220 85 -220t85 220q0 219 -85 219z" />
    <glyph glyph-name="one.lnum" 
d="M411 748v-581h112v-167h-423v167h127v288l-128 -58l-73 171l381 180h4z" />
    <glyph glyph-name="two.lnum" 
d="M287 748q116 0 186.5 -66.5t70.5 -172.5q0 -51 -19.5 -91.5t-63.5 -101.5l-109 -153h195v-163h-488v6l253 396q27 43 36 63.5t9 45.5q0 34 -19 54t-51 20q-68 0 -80 -99l-167 38q41 224 247 224z" />
    <glyph glyph-name="three.lnum" 
d="M300 748q112 0 180 -66.5t68 -166.5q0 -94 -73 -144q83 -48 83 -150q0 -103 -69.5 -168.5t-185.5 -65.5q-211 0 -252 224l167 38q12 -99 84 -99q32 0 51.5 21t19.5 55t-19.5 55t-51.5 21h-76v140h76q28 2 45.5 21t17.5 50q0 32 -19 52t-48 20q-28 0 -47 -20.5t-24 -59.5
l-160 67q24 84 85 130t148 46z" />
    <glyph glyph-name="four.lnum" 
d="M511 748v-534h70v-129h-70v-85h-184v85h-326v4l506 659h4zM346 349l-107 -140h107v140z" />
    <glyph glyph-name="five.lnum" 
d="M522 735v-163h-248v-105q17 5 39 5q111 0 181.5 -60t70.5 -186q0 -107 -69 -173t-186 -66q-96 0 -162.5 42t-92.5 128l154 75q23 -82 91 -82q35 0 57.5 23.5t22.5 61.5q0 39 -24 63t-62 24q-47 0 -75 -31l-129 56v388h432z" />
    <glyph glyph-name="six.lnum" 
d="M349 485q92 -16 152 -84.5t60 -162.5q0 -109 -76.5 -180t-186.5 -71q-109 0 -185 71t-76 180q0 44 11.5 76t40.5 81l207 340h206zM298 148q34 0 55 24.5t21 65.5t-21 66t-55 25q-33 0 -53.5 -25t-20.5 -66t20.5 -65.5t53.5 -24.5z" />
    <glyph glyph-name="seven.lnum" 
d="M590 735v-6l-341 -729h-198l269 568h-268v167h538z" />
    <glyph glyph-name="eight.lnum" 
d="M299 748q99 0 169 -62t70 -156q0 -86 -67 -143q91 -66 91 -164q0 -104 -76.5 -170t-186.5 -66t-185.5 66t-75.5 170q0 100 89 163q-67 56 -67 144q0 95 69.5 156.5t169.5 61.5zM299 595q-30 0 -49.5 -21t-19.5 -53t19.5 -52.5t49.5 -20.5t49.5 20.5t19.5 52.5t-20 53
t-49 21zM299 303q-32 0 -53 -23t-21 -58t21 -57.5t53 -22.5q33 0 54.5 22.5t21.5 57.5t-21.5 58t-54.5 23z" />
    <glyph glyph-name="nine.lnum" 
d="M301 748q109 0 185 -71t76 -180q0 -44 -11.5 -76t-40.5 -81l-207 -340h-206l153 250q-92 16 -152 84.5t-60 162.5q0 109 76.5 180t186.5 71zM301 587q-34 0 -55 -24.5t-21 -65.5t21.5 -66t54.5 -25t53.5 25t20.5 66t-20.5 65.5t-53.5 24.5z" />
    <glyph glyph-name="zero.tnum" horiz-adv-x="601" 
d="M301 570q118 0 195 -82t77 -208t-77 -208t-196 -82q-118 0 -195 82t-77 208t77 208t196 82zM301 411q-39 0 -63 -36t-24 -95q0 -60 23.5 -95.5t62.5 -35.5t63 36t24 95q0 60 -23.5 95.5t-62.5 35.5z" />
    <glyph glyph-name="one.tnum" horiz-adv-x="415" 
d="M349 570v-570h-184v277l-90 -43l-73 171l343 165h4z" />
    <glyph glyph-name="two.tnum" horiz-adv-x="537" 
d="M259 570q104 0 170.5 -62.5t66.5 -144.5q0 -22 -4.5 -42.5t-9 -33.5t-16 -29.5t-17 -22.5t-21.5 -22.5t-19 -20.5l-27 -29h125v-163h-456v6l177 206q34 39 47 55.5t23.5 38t10.5 43.5q0 25 -16.5 41.5t-43.5 16.5q-44 0 -61 -58l-154 74q59 147 225 147z" />
    <glyph glyph-name="three.tnum" horiz-adv-x="524" 
d="M256 570q112 0 180 -64.5t68 -161.5q0 -91 -73 -140q83 -47 83 -146q0 -100 -69.5 -163.5t-185.5 -63.5q-211 0 -252 218l167 37q12 -96 84 -96q32 0 51.5 20t19.5 53q0 34 -19.5 54t-51.5 20h-76v136h76q28 2 45.5 20.5t17.5 48.5q0 31 -19 50t-48 19q-28 0 -47 -19.5
t-24 -57.5l-160 65q24 81 85 126t148 45z" />
    <glyph glyph-name="four.tnum" horiz-adv-x="595" 
d="M501 570v-518h70v-125h-70v-83h-184v83h-326v4l506 639h4zM336 183l-107 -136h107v136z" />
    <glyph glyph-name="five.tnum" horiz-adv-x="554" 
d="M492 560v-158h-248v-102q17 5 39 5q111 0 181.5 -58.5t70.5 -180.5q0 -104 -69 -168t-186 -64q-203 0 -255 165l152 73q20 -80 91 -80q36 0 59 22.5t23 60.5q0 37 -24 60.5t-62 23.5q-48 0 -75 -30l-129 54v377h432z" />
    <glyph glyph-name="six.tnum" horiz-adv-x="574" 
d="M337 471q92 -16 152 -82.5t60 -157.5q0 -106 -76.5 -175t-186.5 -69q-109 0 -185 69t-76 175q0 68 41 133l218 349h206zM286 143q34 0 55 23.5t21 64.5q0 40 -21.5 64t-54.5 24t-53.5 -24t-20.5 -64q0 -41 20.5 -64.5t53.5 -23.5z" />
    <glyph glyph-name="seven.tnum" horiz-adv-x="555" 
d="M560 560v-6l-341 -707h-198l269 551h-268v162h538z" />
    <glyph glyph-name="eight.tnum" horiz-adv-x="574" 
d="M286 726q99 0 169 -60t70 -152q0 -83 -67 -139q91 -63 91 -159q0 -100 -76.5 -164.5t-186.5 -64.5q-109 0 -185 64.5t-76 164.5q0 98 89 158q-67 54 -67 140q0 92 69.5 152t169.5 60zM286 576q-30 0 -49.5 -20.5t-19.5 -51.5t19.5 -51t49.5 -20q29 0 49 20t20 51
t-20 51.5t-49 20.5zM286 293q-32 0 -53 -22.5t-21 -56.5t21 -55.5t53 -21.5q33 0 54.5 21.5t21.5 55.5t-21.5 56.5t-54.5 22.5z" />
    <glyph glyph-name="nine.tnum" horiz-adv-x="574" 
d="M288 570q109 0 185 -69t76 -175q0 -68 -41 -133l-218 -349h-206l153 242q-92 16 -152 82.5t-60 157.5q0 106 76.5 175t186.5 69zM288 238q33 0 53.5 24t20.5 64q0 41 -20.5 64.5t-53.5 23.5q-34 0 -55 -23.5t-21 -64.5q0 -40 21.5 -64t54.5 -24z" />
    <glyph glyph-name="a.sups" horiz-adv-x="447" 
d="M174 754q66 0 93 -42l8 35h129v-359h-129l-8 34q-27 -41 -93 -41q-68 0 -111 52.5t-43 133.5q0 82 43 134.5t111 52.5zM214 628q-47 0 -47 -61t47 -61q28 0 45 28v67q-16 27 -45 27z" />
    <glyph glyph-name="b.sups" horiz-adv-x="447" 
d="M188 920v-198q28 32 85 32q68 0 111 -52.5t43 -134.5q0 -81 -43 -133.5t-111 -52.5q-65 0 -94 41l-7 -34h-129v532h145zM233 628q-29 0 -45 -28v-66q17 -28 45 -28q47 0 47 61t-47 61z" />
    <glyph glyph-name="c.sups" horiz-adv-x="376" 
d="M212 754q105 0 160 -87l-106 -78q-21 40 -53 40q-22 0 -34 -18t-12 -44t12.5 -44t33.5 -18q32 0 52 41l106 -78q-54 -87 -159 -87q-81 0 -136.5 53t-55.5 133t55.5 133.5t136.5 53.5z" />
    <glyph glyph-name="d.sups" horiz-adv-x="447" 
d="M404 920v-532h-129l-8 34q-27 -41 -93 -41q-68 0 -111 52.5t-43 133.5q0 82 43 134.5t111 52.5q57 0 85 -32v198h145zM214 628q-47 0 -47 -61t47 -61q28 0 45 28v66q-16 28 -45 28z" />
    <glyph glyph-name="e.sups" horiz-adv-x="407" 
d="M211 754q85 0 128 -51.5t43 -129.5v-35h-219q2 -40 52 -40q36 0 56 28l99 -81q-60 -64 -158 -64q-85 0 -138.5 52.5t-53.5 133.5t53 134t138 53zM204 655q-19 0 -30 -12.5t-11 -31.5h81q-2 44 -40 44z" />
    <glyph glyph-name="f.sups" horiz-adv-x="304" 
d="M239 920q56 0 89 -19l-49 -117q-13 11 -32 11q-29 0 -29 -34v-14h65v-122h-65v-237h-145v237h-59v122h59v6q0 75 45 121t121 46z" />
    <glyph glyph-name="g.sups" horiz-adv-x="448" 
d="M175 754q67 0 92 -42l9 35h129v-337q0 -88 -56.5 -139t-152.5 -51q-114 0 -189 80l94 95q46 -50 94 -50q29 0 46 18t18 43v22q-27 -31 -84 -31q-68 0 -111 50.5t-43 127.5q0 78 43 128.5t111 50.5zM215 628q-47 0 -47 -53t47 -53q29 0 44 28v51q-14 27 -44 27z" />
    <glyph glyph-name="h.sups" horiz-adv-x="437" 
d="M188 920v-195q27 29 79 29q66 0 100 -43.5t34 -121.5v-201h-146v193q0 37 -29 37q-15 0 -25 -8t-13 -17v-205h-145v532h145z" />
    <glyph glyph-name="i.sups" horiz-adv-x="231" 
d="M116 937q35 0 57 -22.5t22 -57.5t-22.5 -57t-56.5 -22q-35 0 -57.5 22t-22.5 57t22.5 57.5t57.5 22.5zM188 747v-359h-145v359h145z" />
    <glyph glyph-name="j.sups" horiz-adv-x="241" 
d="M125 937q35 0 57.5 -22.5t22.5 -57.5t-22.5 -57t-57.5 -22t-57 22t-22 57t22 57.5t57 22.5zM198 747v-353q0 -77 -53.5 -125.5t-146.5 -48.5v125q55 0 55 37v365h145z" />
    <glyph glyph-name="k.sups" horiz-adv-x="445" 
d="M188 920v-299l78 126h174l-109 -137l110 -222h-163l-45 95l-77 -95h-113v532h145z" />
    <glyph glyph-name="l.sups" horiz-adv-x="231" 
d="M188 920v-532h-145v532h145z" />
    <glyph glyph-name="m.sups" horiz-adv-x="642" 
d="M478 754q63 0 95.5 -43.5t32.5 -121.5v-201h-145v193q0 37 -27 37q-26 0 -36 -24l-1 4v-210h-145v193q0 37 -27 37q-25 0 -37 -25v-205h-145v359h129l7 -34q27 41 91 41q68 0 103 -55q38 55 105 55z" />
    <glyph glyph-name="o.sups" horiz-adv-x="431" 
d="M215 754q84 0 140 -53.5t56 -133.5q0 -81 -56 -133.5t-140 -52.5t-139.5 52.5t-55.5 133.5q0 80 55.5 133.5t139.5 53.5zM215 628q-48 0 -48 -61t48 -61q23 0 36 16t13 45t-13 45t-36 16z" />
    <glyph glyph-name="p.sups" horiz-adv-x="447" 
d="M273 754q68 0 111 -52.5t43 -134.5q0 -81 -43 -133.5t-111 -52.5q-56 0 -85 31v-185h-145v520h129l7 -35q29 42 94 42zM233 628q-29 0 -45 -27v-67q17 -28 45 -28q47 0 47 61t-47 61z" />
    <glyph glyph-name="q.sups" horiz-adv-x="447" 
d="M174 754q66 0 93 -42l8 35h129v-520h-145v185q-29 -31 -85 -31q-68 0 -111 52.5t-43 133.5q0 82 43 134.5t111 52.5zM214 628q-47 0 -47 -61t47 -61q28 0 45 28v67q-16 27 -45 27z" />
    <glyph glyph-name="r.sups" horiz-adv-x="295" 
d="M280 754v-144h-12q-47 0 -80 -33v-189h-145v359h128l9 -45q31 52 100 52z" />
    <glyph glyph-name="s.sups" horiz-adv-x="351" 
d="M200 754q76 0 134 -36l-46 -95q-47 30 -88 30q-24 0 -24 -16q0 -15 50 -28q53 -14 78 -36.5t25 -61.5q0 -59 -46 -94.5t-126 -35.5q-40 0 -79 12t-61 32l51 92q41 -35 90 -35q26 0 26 16q0 8 -8 13.5t-33 12.5q-60 17 -86.5 38.5t-26.5 61.5q0 58 45 94t125 36z" />
    <glyph glyph-name="t.sups" horiz-adv-x="328" 
d="M214 863v-116h90v-122h-90v-85q0 -13 9.5 -21.5t24.5 -8.5q22 0 40 10l34 -114q-40 -25 -88 -25q-78 0 -121.5 41.5t-43.5 116.5v86h-58v122h58v116h145z" />
    <glyph glyph-name="u.sups" horiz-adv-x="437" 
d="M394 747v-359h-129l-7 33q-27 -40 -91 -40q-65 0 -98 43.5t-33 121.5v201h145v-193q0 -37 30 -37q27 0 38 25v205h145z" />
    <glyph glyph-name="v.sups" horiz-adv-x="438" 
d="M432 747l-211 -366h-3l-212 366h163l50 -115l51 115h162z" />
    <glyph glyph-name="w.sups" horiz-adv-x="558" 
d="M552 747l-187 -366h-3l-83 126l-84 -126h-3l-186 366h163l41 -116l68 116h2l67 -116l42 116h163z" />
    <glyph glyph-name="x.sups" horiz-adv-x="409" 
d="M403 747l-101 -179l106 -180h-170l-36 76l-35 -76h-170l105 180l-100 179h168l32 -78l33 78h168z" />
    <glyph glyph-name="y.sups" horiz-adv-x="437" 
d="M432 747l-299 -520h-166l173 289l-135 231h163l50 -115l51 115h163z" />
    <glyph glyph-name="z.sups" horiz-adv-x="365" 
d="M345 747v-3l-112 -235h110v-121h-325v3l112 234h-104v122h319z" />
    <glyph glyph-name="G.smcp_I.smcp" 
d="M352 790q138 0 230 -93.5t92 -233.5q0 -141 -92 -233.5t-230 -92.5q-139 0 -230.5 92.5t-91.5 233.5t91.5 234t230.5 93zM352 706q-100 0 -165 -69.5t-65 -173.5t65 -173t165 -69q99 0 164.5 69t65.5 173q0 103 -65.5 173t-164.5 70z" />
    <glyph glyph-name="zero.slash" 
d="M300 748q126 0 199 -103t73 -277q0 -175 -73 -278t-199 -103t-199 103t-73 278q0 174 73 277t199 103zM300 597q-85 0 -85 -229q0 -35 1 -52l137 247q-20 34 -53 34zM300 138q85 0 85 230q0 31 -1 45l-135 -244q20 -31 51 -31z" />
    <glyph glyph-name="K.alt" horiz-adv-x="736" 
d="M693 735l-233 -343l261 -392h-228l-158 241l-78 -109v-132h-190v735h190v-353l222 353h214z" />
    <glyph glyph-name="Kcommaaccent.alt" horiz-adv-x="736" 
d="M693 735l-233 -343l261 -392h-228l-158 241l-78 -109v-132h-190v735h190v-353l222 353h214zM357 -40q35 0 59 -19t24 -46q0 -25 -13 -42.5t-42 -35.5l-74 -47h-4v182q22 8 50 8z" />
    <glyph glyph-name="M.alt" horiz-adv-x="849" 
d="M782 748v-748h-190v320l-163 -166h-8l-164 167v-321h-190v748h4l354 -352l353 352h4z" />
    <glyph glyph-name="idotaccent" horiz-adv-x="294" 
d="M147 772q45 0 74 -29t29 -74t-29 -74t-74 -29t-74 29t-29 74t29 74t74 29zM239 510v-510h-184v510h184z" />
    <glyph glyph-name="k.alt" horiz-adv-x="602" 
d="M240 760v-439l154 189h200l-160 -190l165 -320h-205l-89 175l-65 -69v-106h-184v760h184z" />
    <glyph glyph-name="kcommaaccent.alt" horiz-adv-x="602" 
d="M240 760v-439l154 189h200l-160 -190l165 -320h-205l-89 175l-65 -69v-106h-184v760h184zM301 -40q35 0 59 -19t24 -46q0 -25 -13 -42.5t-42 -35.5l-74 -47h-4v182q22 8 50 8z" />
    <glyph glyph-name="f_k.alt" horiz-adv-x="1013" 
d="M319 760q58 0 97 -16l-40 -153q-18 10 -42 10q-49 0 -49 -58v-33h101v-154h-101v-356h-184v356h-86v154h86v27q0 99 58.5 161t159.5 62zM651 760v-439l154 189h200l-160 -190l165 -320h-205l-89 175l-65 -69v-106h-184v760h184z" />
    </font>
</defs>
</svg>
