<?xml version="1.0" standalone="no"?>
<!DOCTYPE svg PUBLIC "-//W3C//DTD SVG 1.1//EN" "http://www.w3.org/Graphics/SVG/1.1/DTD/svg11.dtd" >
<svg xmlns="http://www.w3.org/2000/svg" xmlns:xlink="http://www.w3.org/1999/xlink" version="1.1">
<metadata>
Created by FontForge 20170731 at Thu May  4 08:02:33 2023
 By Aleksey,,,
Copyright (c) 2013 by Nico Inosanto. All rights reserved.
</metadata>
<defs>
<font id="Radikal-Bold" horiz-adv-x="1218" >
  <font-face 
    font-family="Radikal"
    font-weight="700"
    font-stretch="normal"
    units-per-em="2048"
    panose-1="0 0 8 0 0 0 0 0 0 0"
    ascent="1638"
    descent="-410"
    x-height="1038"
    cap-height="1505"
    bbox="-319 -502 2607 2226"
    underline-thickness="102"
    underline-position="-307"
    unicode-range="U+0020-FB02"
  />
<missing-glyph horiz-adv-x="1206" 
d="M1085 1434v-1434h-966v1434h966zM895 1300h-590l295 -469zM954 1147l-278 -438l278 -441v879zM252 1137v-858l270 430zM600 586l-289 -453h576z" />
    <glyph glyph-name="fi" unicode="fi" horiz-adv-x="1355" 
d="M627 1556q120 0 190 -36l-78 -252q-34 24 -98 24q-59 0 -92 -39.5t-33 -107.5v-107h232v-256h-232v-782h-303v782h-180v256h180v97q0 186 113 303.5t301 117.5zM1079 1544q77 0 127.5 -51t50.5 -127t-50.5 -127t-127.5 -51q-76 0 -126 50.5t-50 127.5t50 127.5t126 50.5z
M1231 1038v-1038h-303v1038h303z" />
    <glyph glyph-name="fl" unicode="fl" horiz-adv-x="1355" 
d="M618 1556q119 0 189 -36l-68 -252q-34 24 -98 24q-59 0 -92 -39.5t-33 -107.5v-107h232v-256h-232v-782h-303v782h-180v256h180v97q0 186 109.5 303.5t295.5 117.5zM1227 1556v-1556h-303v1556h303z" />
    <glyph glyph-name="f_j" unicode="fj" horiz-adv-x="1355" 
d="M627 1556q120 0 190 -36l-78 -252q-34 24 -98 24q-59 0 -92 -39.5t-33 -107.5v-107h232v-256h-232v-782h-303v782h-180v256h180v97q0 186 113 303.5t301 117.5zM1079 1544q77 0 127.5 -51t50.5 -127t-50.5 -127t-127.5 -51q-76 0 -126 50.5t-50 127.5t50 127.5t126 50.5z
M786 -492q-178 0 -297 99l162 219q64 -53 133 -53q65 0 104.5 41t39.5 112v1112h303v-1095q0 -187 -125.5 -311t-319.5 -124z" />
    <glyph glyph-name="f_b" unicode="fb" horiz-adv-x="2039" 
d="M618 1556q119 0 189 -36l-68 -252q-34 24 -98 24q-59 0 -92 -39.5t-33 -107.5v-107h232v-256h-232v-782h-303v782h-180v256h180v97q0 186 109.5 303.5t295.5 117.5zM1227 1556v-612q99 115 289 115q204 0 333 -153t129 -388t-129 -386.5t-333 -151.5q-106 0 -184.5 37.5
t-121.5 97.5l-14 -115h-272v1556h303zM1442 795q-137 0 -215 -131v-291q78 -129 215 -129q103 0 166 74t63 200t-63.5 201.5t-165.5 75.5z" />
    <glyph glyph-name="f_h" unicode="fh" horiz-adv-x="2009" 
d="M618 1556q119 0 189 -36l-68 -252q-34 24 -98 24q-59 0 -92 -39.5t-33 -107.5v-107h232v-256h-232v-782h-303v782h-180v256h180v97q0 186 109.5 303.5t295.5 117.5zM1227 1556v-610q101 113 276 113q188 0 289.5 -123.5t101.5 -337.5v-598h-303v582q0 87 -45.5 139.5
t-122.5 52.5q-119 0 -196 -121v-653h-303v1556h303z" />
    <glyph glyph-name="f_k" unicode="fk" horiz-adv-x="1972" 
d="M618 1556q119 0 189 -36l-68 -252q-34 24 -98 24q-59 0 -92 -39.5t-33 -107.5v-107h232v-256h-232v-782h-303v782h-180v256h180v97q0 186 109.5 303.5t295.5 117.5zM1227 1556v-1069l364 551h344l-315 -436l344 -602h-344l-203 350l-254 -350h-239v1556h303z" />
    <glyph glyph-name=".notdef" horiz-adv-x="1206" 
d="M1085 1434v-1434h-966v1434h966zM895 1300h-590l295 -469zM954 1147l-278 -438l278 -441v879zM252 1137v-858l270 430zM600 586l-289 -453h576z" />
    <glyph glyph-name=".null" horiz-adv-x="0" 
 />
    <glyph glyph-name="nonmarkingreturn" horiz-adv-x="682" 
 />
    <glyph glyph-name="space" unicode=" " horiz-adv-x="464" 
 />
    <glyph glyph-name="exclam" unicode="!" horiz-adv-x="602" 
d="M453 1505v-1030h-303v1030h303zM301 348q80 0 132 -51.5t52 -132.5q0 -80 -52.5 -132t-131.5 -52t-131.5 52t-52.5 132t52.5 132t131.5 52z" />
    <glyph glyph-name="quotedbl" unicode="&#x22;" horiz-adv-x="882" 
d="M199 856l-88 352q-3 13 -14 47t-17 62.5t-6 58.5q0 68 42 111t107 43q64 0 107 -43t43 -111q0 -30 -5.5 -57t-18.5 -65t-15 -46l-88 -352h-47zM637 856l-88 352q-3 13 -14 47t-17 62.5t-6 58.5q0 68 42.5 111t107.5 43q64 0 106.5 -43t42.5 -111q0 -30 -5.5 -57
t-18.5 -65t-15 -46l-88 -352h-47z" />
    <glyph glyph-name="numbersign" unicode="#" horiz-adv-x="1447" 
d="M1266 1505l-68 -368h213v-242h-254l-53 -289h211v-244h-252l-64 -362h-301l64 362h-244l-61 -362h-305l65 362h-215v244h258l51 289h-213v242h254l66 368h301l-66 -368h244l66 368h303zM856 895h-246l-49 -289h244z" />
    <glyph glyph-name="dollar" unicode="$" horiz-adv-x="1249" 
d="M1184 459q0 -186 -111 -311t-309 -162v-250h-250v241q-292 28 -483 197l170 258q75 -80 191 -128t233 -48t181 44.5t64 127.5q0 70 -63 113.5t-227 76.5q-144 30 -242 73t-154 100.5t-80 123.5t-24 152q0 178 119 302t315 155v256h250v-256q242 -35 403 -154l-149 -264
q-184 143 -391 143q-104 0 -169 -42.5t-65 -121.5q0 -70 58 -110t221 -74q193 -40 306.5 -100.5t159.5 -141.5t46 -200z" />
    <glyph glyph-name="percent" unicode="%" horiz-adv-x="1812" 
d="M432 1530q163 0 271 -109.5t108 -275.5q0 -165 -108 -273t-271 -108q-166 0 -274.5 107.5t-108.5 273.5t108.5 275.5t274.5 109.5zM1520 1505l-969 -1505h-256l969 1505h256zM432 1317q-68 0 -112 -48.5t-44 -123.5q0 -72 44 -119t112 -47q66 0 110 47t44 119
q0 75 -44 123.5t-110 48.5zM1382 739q163 0 272 -110t109 -275t-109 -273t-272 -108q-166 0 -274.5 107.5t-108.5 273.5t108.5 275.5t274.5 109.5zM1382 526q-69 0 -112 -48.5t-43 -123.5q0 -71 43.5 -118.5t111.5 -47.5q65 0 109.5 48t44.5 118q0 74 -44.5 123t-109.5 49z
" />
    <glyph glyph-name="ampersand" unicode="&#x26;" horiz-adv-x="1454" 
d="M1468 0h-385l-114 131q-182 -151 -424 -151q-133 0 -244.5 48t-181.5 145.5t-70 227.5q0 75 18.5 134.5t61 110.5t91.5 90.5t128 90.5q-79 86 -122.5 168t-43.5 179q0 158 114.5 258t301.5 100q189 0 303.5 -100t114.5 -258q0 -55 -17.5 -104t-39 -81.5t-65.5 -71
t-70 -56.5t-81 -54l224 -248l143 191h348l-299 -406zM602 1286q-61 0 -99 -34t-38 -93q0 -46 29.5 -88t87.5 -98q82 51 117.5 90t35.5 98q0 58 -36 91.5t-97 33.5zM563 242q120 0 223 96l-276 315q-79 -54 -115.5 -104.5t-36.5 -122.5q0 -86 57 -135t148 -49z" />
    <glyph glyph-name="quotesingle" unicode="'" horiz-adv-x="446" 
d="M199 856l-88 352q-3 13 -14 47t-17 62.5t-6 58.5q0 68 42 111t107 43q64 0 107 -43t43 -111q0 -30 -5.5 -57t-18.5 -65t-15 -46l-88 -352h-47z" />
    <glyph glyph-name="parenleft" unicode="(" horiz-adv-x="694" 
d="M395 1597l232 -161q-56 -72 -97 -139t-80 -157.5t-59 -203t-20 -242.5t20 -242t59 -202.5t79.5 -157.5t97.5 -139l-232 -162q-63 81 -112 163.5t-96.5 194.5t-74 251.5t-26.5 293.5t26.5 293t74.5 251t96.5 194t111.5 165z" />
    <glyph glyph-name="parenright" unicode=")" horiz-adv-x="694" 
d="M299 1597q63 -83 111.5 -165t96.5 -194t74.5 -251t26.5 -293t-26.5 -293.5t-74 -251.5t-96.5 -194.5t-112 -163.5l-231 162q57 72 97.5 139t79.5 157.5t59 202.5t20 242t-20 242.5t-59 203t-80 157.5t-97 139z" />
    <glyph glyph-name="asterisk" unicode="*" horiz-adv-x="884" 
d="M549 1503l-14 -252l235 92l66 -198l-244 -66l158 -192l-170 -123l-136 194l-135 -194l-170 123l158 192l-246 66l66 198l235 -92l-14 252h211z" />
    <glyph glyph-name="plus" unicode="+" horiz-adv-x="1050" 
d="M662 1167v-313h315v-276h-315v-314h-277v314h-311v276h311v313h277z" />
    <glyph glyph-name="comma" unicode="," horiz-adv-x="509" 
d="M209 346q83 0 138.5 -53t55.5 -131q0 -53 -36 -119l-232 -369h-8v660q37 12 82 12z" />
    <glyph glyph-name="hyphen" unicode="-" horiz-adv-x="790" 
d="M715 686v-276h-639v276h639z" />
    <glyph glyph-name="period" unicode="." horiz-adv-x="583" 
d="M291 352q82 0 134 -52t52 -134t-52 -134t-134 -52q-80 0 -133.5 52.5t-53.5 133.5t53.5 133.5t133.5 52.5z" />
    <glyph glyph-name="slash" unicode="/" horiz-adv-x="1071" 
d="M1061 1505l-744 -1505h-307l746 1505h305z" />
    <glyph glyph-name="zero" unicode="0" 
d="M610 1532q254 0 399.5 -210t145.5 -568q0 -360 -145.5 -570.5t-399.5 -210.5q-255 0 -399.5 210.5t-144.5 570.5q0 359 144.5 568.5t399.5 209.5zM610 1264q-120 0 -177.5 -134.5t-57.5 -375.5q0 -242 57.5 -377t177.5 -135q119 0 177.5 135.5t58.5 376.5
q0 239 -58.5 374.5t-177.5 135.5z" />
    <glyph glyph-name="one" unicode="1" horiz-adv-x="815" 
d="M668 1532v-1532h-303v1026l-222 -117l-123 279l639 344h9z" />
    <glyph glyph-name="two" unicode="2" horiz-adv-x="1081" 
d="M514 1532q224 0 361 -132t137 -341q0 -116 -43 -209.5t-135 -212.5l-281 -367h469v-270h-967v12l535 770q65 92 88.5 150t23.5 131q0 91 -52 145t-136 54q-89 0 -139.5 -56t-69.5 -168l-274 62q79 432 483 432z" />
    <glyph glyph-name="three" unicode="3" horiz-adv-x="1073" 
d="M530 1532q215 0 348.5 -129.5t133.5 -327.5q0 -205 -172 -305q94 -44 148 -128t54 -200q0 -208 -136.5 -338.5t-364.5 -130.5q-405 0 -504 422l276 66q46 -217 228 -217q88 0 143 56.5t55 148.5q0 89 -58.5 145.5t-150.5 56.5h-157v240h159q75 2 126 50.5t51 131.5
q0 86 -51.5 137.5t-129.5 51.5q-75 0 -125.5 -48t-70.5 -139l-264 113q51 162 169 253t293 91z" />
    <glyph glyph-name="four" unicode="4" horiz-adv-x="1185" 
d="M971 1526v-1075h168v-232h-168v-219h-303v219h-672v8l967 1299h8zM690 807l-266 -363h266v363z" />
    <glyph glyph-name="five" unicode="5" horiz-adv-x="1120" 
d="M983 1505v-270h-541v-307q61 22 131 22q144 0 256 -56t178 -169t66 -268q0 -214 -138 -349t-370 -135q-362 0 -495 326l247 129q72 -184 242 -184q91 0 150 64t59 163q0 101 -61.5 163t-161.5 62q-113 0 -199 -78l-207 95v792h844z" />
    <glyph glyph-name="six" unicode="6" horiz-adv-x="1153" 
d="M623 985q200 -18 335.5 -159t135.5 -347q0 -145 -70.5 -261.5t-189.5 -180.5t-261 -64q-141 0 -258.5 64t-187.5 180.5t-70 261.5q0 84 23.5 152.5t77.5 156.5l450 717h342zM573 242q92 0 152.5 65.5t60.5 171.5q0 107 -60.5 173.5t-152.5 66.5q-90 0 -148 -66t-58 -174
q0 -106 58 -171.5t148 -65.5z" />
    <glyph glyph-name="seven" unicode="7" horiz-adv-x="1122" 
d="M1116 1505v-12l-723 -1493h-327l604 1229h-621v276h1067z" />
    <glyph glyph-name="eight" unicode="8" horiz-adv-x="1153" 
d="M571 1532q126 0 232.5 -54.5t169.5 -153.5t63 -222q0 -95 -42 -173.5t-115 -133.5q98 -58 155.5 -150.5t57.5 -200.5q0 -136 -71 -244.5t-189.5 -167.5t-260.5 -59q-141 0 -258.5 59t-187.5 167.5t-70 244.5q0 109 56 201t153 148q-74 54 -116 133t-42 176q0 123 63 222
t169.5 153.5t232.5 54.5zM571 1274q-77 0 -129.5 -52.5t-52.5 -131.5q0 -83 52.5 -137t129.5 -54t130 54.5t53 136.5q0 79 -53 131.5t-130 52.5zM571 651q-88 0 -147 -60t-59 -151q0 -89 59 -148t147 -59q91 0 152 59t61 148q0 91 -61 151t-152 60z" />
    <glyph glyph-name="nine" unicode="9" horiz-adv-x="1153" 
d="M578 1532q141 0 258.5 -64t187.5 -180.5t70 -261.5q0 -84 -22.5 -153t-76.5 -156l-452 -717h-340l327 520q-202 18 -337.5 159t-135.5 347q0 145 70.5 261.5t189.5 180.5t261 64zM578 786q90 0 148 66t58 174q0 107 -58 172.5t-148 65.5q-92 0 -152.5 -65.5t-60.5 -172.5
t60.5 -173.5t152.5 -66.5z" />
    <glyph glyph-name="colon" unicode=":" horiz-adv-x="561" 
d="M281 1059q77 0 126.5 -49.5t49.5 -126.5t-49.5 -126.5t-126.5 -49.5t-127 50t-50 126t50 126t127 50zM281 330q77 0 126.5 -49t49.5 -125t-49.5 -126t-126.5 -50t-127 50t-50 126q0 75 50.5 124.5t126.5 49.5z" />
    <glyph glyph-name="semicolon" unicode=";" horiz-adv-x="561" 
d="M281 1059q77 0 126.5 -49.5t49.5 -126.5t-49.5 -126.5t-126.5 -49.5t-127 50t-50 126t50 126t127 50zM223 330q85 0 140 -52.5t55 -134.5q0 -50 -37 -114l-229 -371h-9v659q37 13 80 13z" />
    <glyph glyph-name="less" unicode="&#x3c;" horiz-adv-x="868" 
d="M795 1102l-355 -393l355 -394h-375l-346 390v8l346 389h375z" />
    <glyph glyph-name="equal" unicode="=" horiz-adv-x="1050" 
d="M977 1122v-276h-903v276h903zM977 580v-277h-903v277h903z" />
    <glyph glyph-name="greater" unicode="&#x3e;" horiz-adv-x="868" 
d="M449 1102l346 -389v-8l-346 -390h-375l352 394l-352 393h375z" />
    <glyph glyph-name="question" unicode="?" horiz-adv-x="1077" 
d="M524 1532q214 0 351 -123.5t137 -306.5q0 -73 -19 -131.5t-48.5 -96.5t-66 -70t-73 -60.5t-66 -58t-48.5 -71.5t-19 -94v-45h-303v86q0 68 18 123t46.5 92t63.5 68t69.5 57.5t63 53.5t46.5 63t18 80q0 76 -49 120t-125 44t-125 -47t-61 -125l-297 49q39 188 163 290.5
t324 102.5zM522 348q80 0 131.5 -51.5t51.5 -132.5q0 -80 -52 -132t-131 -52q-81 0 -133.5 52t-52.5 132t52.5 132t133.5 52z" />
    <glyph glyph-name="at" unicode="@" horiz-adv-x="1798" 
d="M897 1327q249 0 441.5 -102.5t298.5 -288t106 -424.5q0 -209 -100.5 -338t-274.5 -129q-94 0 -160.5 37t-93.5 92l-4 8q-46 -58 -119.5 -97.5t-161.5 -39.5q-169 0 -276 126t-107 321q0 196 107 322t276 126q172 0 254 -111l13 95h227v-605q0 -88 78 -88q69 0 107 75.5
t38 205.5q0 282 -176 457.5t-473 175.5q-189 0 -336.5 -84t-228 -232t-80.5 -335q0 -188 79 -335.5t222.5 -230t327.5 -82.5q140 0 264 50l51 -175q-148 -57 -315 -57q-178 0 -331.5 62t-262 171.5t-170.5 263.5t-62 333q0 178 63 332.5t173 264.5t267 173t339 63zM893 721
q-86 0 -138.5 -61.5t-52.5 -167.5q0 -105 52.5 -166.5t138.5 -61.5q108 0 178 103v251q-69 103 -178 103z" />
    <glyph glyph-name="A" unicode="A" horiz-adv-x="1484" 
d="M745 1532l730 -1532h-349l-96 231h-575l-99 -231h-346l727 1532h8zM741 926l-188 -449h379z" />
    <glyph glyph-name="B" unicode="B" horiz-adv-x="1384" 
d="M733 1505q223 0 350 -108.5t127 -298.5q0 -102 -41.5 -175.5t-103.5 -115.5q266 -93 266 -369q0 -204 -141.5 -321t-358.5 -117h-681v1505h583zM692 1221h-229v-330h235q89 0 142 45t53 119q0 78 -53.5 122t-147.5 44zM784 643h-321v-358h332q100 0 159.5 47t59.5 133
t-60.5 132t-169.5 46z" />
    <glyph glyph-name="C" unicode="C" horiz-adv-x="1423" 
d="M838 1532q178 0 308 -55t240 -170l-196 -230q-143 168 -352 168q-201 0 -326 -137.5t-125 -353.5q0 -217 125 -355.5t326 -138.5q213 0 356 172l197 -229q-110 -121 -245 -175.5t-308 -54.5q-132 0 -251 38t-212.5 108.5t-162.5 166.5t-105.5 216t-36.5 252
q0 164 57.5 308.5t158.5 247.5t244 162.5t308 59.5z" />
    <glyph glyph-name="D" unicode="D" horiz-adv-x="1521" 
d="M629 1505q387 0 605 -198t218 -553q0 -356 -217 -555t-606 -199h-479v1505h479zM618 1217h-155v-930h155q252 0 384.5 121.5t132.5 343.5q0 223 -132.5 344t-384.5 121z" />
    <glyph glyph-name="E" unicode="E" 
d="M1122 1505v-286h-659v-322h573v-268h-573v-342h676v-287h-989v1505h972z" />
    <glyph glyph-name="F" unicode="F" horiz-adv-x="1136" 
d="M1094 1505v-286h-631v-345h522v-268h-522v-606h-313v1505h944z" />
    <glyph glyph-name="G" unicode="G" horiz-adv-x="1542" 
d="M836 1532q179 0 309.5 -55t240.5 -170l-196 -230q-143 168 -354 168q-201 0 -325 -137t-124 -354t131 -355.5t346 -138.5q129 0 246 74v244h-324v270h637v-668q-216 -207 -559 -207q-171 0 -319.5 59.5t-252.5 163.5t-163 248.5t-59 309.5q0 164 57.5 308.5t158 247.5
t243 162.5t307.5 59.5z" />
    <glyph glyph-name="H" unicode="H" horiz-adv-x="1536" 
d="M1386 1505v-1505h-313v627h-610v-627h-313v1505h313v-592h610v592h313z" />
    <glyph glyph-name="I" unicode="I" horiz-adv-x="614" 
d="M463 1505v-1505h-313v1505h313z" />
    <glyph glyph-name="J" unicode="J" horiz-adv-x="1163" 
d="M1036 1505v-1054q0 -212 -138 -345t-355 -133q-101 0 -191.5 34.5t-162 99.5t-113 168t-41.5 231h305q0 -119 49 -182.5t141 -63.5q90 0 141.5 56t51.5 151v1038h313z" />
    <glyph glyph-name="K" unicode="K" horiz-adv-x="1437" 
d="M1356 1505l-465 -727l522 -778h-377l-323 496l-326 -496h-237v1505h313v-901l536 901h357z" />
    <glyph glyph-name="L" unicode="L" horiz-adv-x="1126" 
d="M463 1505v-1229h641v-276h-954v1505h313z" />
    <glyph glyph-name="M" unicode="M" horiz-adv-x="1818" 
d="M1667 1532v-1532h-313v641l-436 -661h-15l-440 663v-643h-313v1532h8l751 -1061l750 1061h8z" />
    <glyph glyph-name="N" unicode="N" horiz-adv-x="1509" 
d="M158 1532l889 -862v835h313v-1532h-8l-889 865v-838h-313v1532h8z" />
    <glyph glyph-name="O" unicode="O" horiz-adv-x="1687" 
d="M844 1532q218 0 395 -100.5t278 -279.5t101 -402q0 -221 -101 -399t-278 -278t-395 -100q-219 0 -396 100t-277.5 278t-100.5 399q0 223 100.5 402t277.5 279.5t396 100.5zM844 1245q-201 0 -329 -138.5t-128 -356.5q0 -214 128 -352t329 -138q199 0 326.5 138t127.5 352
q0 218 -127 356.5t-327 138.5z" />
    <glyph glyph-name="P" unicode="P" horiz-adv-x="1331" 
d="M752 1505q147 0 265.5 -56.5t191.5 -171t73 -269.5t-73 -269.5t-191.5 -171.5t-265.5 -57h-289v-510h-313v1505h602zM721 1235h-258v-455h258q112 0 177 58.5t65 169.5q0 107 -65.5 167t-176.5 60z" />
    <glyph glyph-name="Q" unicode="Q" horiz-adv-x="1687" 
d="M1729 -154h-379l-172 197q-156 -70 -334 -70q-219 0 -396 100t-277.5 278t-100.5 399q0 223 100.5 402t277.5 279.5t396 100.5q218 0 395 -100.5t278 -279.5t101 -402q0 -158 -54 -296t-151 -243zM844 260q67 0 129 16l-201 232l221 186l215 -250q90 129 90 306
q0 218 -127 356.5t-327 138.5q-201 0 -329 -138.5t-128 -356.5q0 -214 128 -352t329 -138z" />
    <glyph glyph-name="R" unicode="R" horiz-adv-x="1361" 
d="M1350 0h-367l-315 530h-207v-530h-314v1505h594q108 0 204.5 -33t169.5 -93.5t116 -154t43 -206.5q0 -155 -73.5 -265.5t-201.5 -168.5zM461 1235v-434h250q113 0 179 56.5t66 160.5q0 103 -66.5 160t-178.5 57h-250z" />
    <glyph glyph-name="S" unicode="S" horiz-adv-x="1249" 
d="M629 1532q156 0 296.5 -44t241.5 -118l-149 -264q-184 143 -391 143q-104 0 -169 -42.5t-65 -121.5q0 -70 58 -110t221 -74q193 -40 306.5 -100.5t159.5 -141.5t46 -200q0 -220 -153.5 -353t-416.5 -133q-173 0 -322.5 52t-260.5 149l170 258q75 -80 191 -128t233 -48
t181 44.5t64 127.5q0 70 -63 113.5t-227 76.5q-144 30 -242 73t-154 100.5t-80 123.5t-24 152q0 203 154 334t395 131z" />
    <glyph glyph-name="T" unicode="T" horiz-adv-x="1341" 
d="M1315 1505v-276h-488v-1229h-313v1229h-487v276h1288z" />
    <glyph glyph-name="U" unicode="U" horiz-adv-x="1466" 
d="M1335 1505v-964q0 -261 -157 -414.5t-445 -153.5t-445 153.5t-157 414.5v964h313v-944q0 -138 75.5 -219.5t213.5 -81.5q137 0 213 81.5t76 219.5v944h313z" />
    <glyph glyph-name="V" unicode="V" horiz-adv-x="1468" 
d="M1458 1505l-719 -1528h-8l-721 1528h346l379 -880l379 880h344z" />
    <glyph glyph-name="W" unicode="W" horiz-adv-x="1972" 
d="M1950 1505l-611 -1528h-8l-344 824l-346 -824h-8l-608 1528h346l286 -805l326 805h8l324 -805l287 805h348z" />
    <glyph glyph-name="X" unicode="X" horiz-adv-x="1427" 
d="M1384 1505l-450 -741l471 -764h-361l-331 541l-330 -541h-360l471 764l-451 741h363l307 -516l309 516h362z" />
    <glyph glyph-name="Y" unicode="Y" horiz-adv-x="1427" 
d="M1419 1505l-547 -889v-616h-313v610l-551 895h365l342 -579l338 579h366z" />
    <glyph glyph-name="Z" unicode="Z" horiz-adv-x="1216" 
d="M1145 1505v-8l-629 -1223h651v-274h-1128v8l631 1223h-602v274h1077z" />
    <glyph glyph-name="bracketleft" unicode="[" horiz-adv-x="704" 
d="M633 1575v-240h-234v-1282h234v-239h-520v1761h520z" />
    <glyph glyph-name="backslash" unicode="\" horiz-adv-x="1071" 
d="M315 1505l746 -1505h-307l-744 1505h305z" />
    <glyph glyph-name="bracketright" unicode="]" horiz-adv-x="708" 
d="M596 1575v-1761h-524v239h237v1282h-237v240h524z" />
    <glyph glyph-name="asciicircum" unicode="^" horiz-adv-x="1079" 
d="M539 1556l505 -610h-266l-239 287l-236 -287h-268z" />
    <glyph glyph-name="underscore" unicode="_" horiz-adv-x="1626" 
d="M1550 0v-276h-1474v276h1474z" />
    <glyph glyph-name="grave" unicode="`" horiz-adv-x="684" 
d="M381 1470l272 -296h-260l-354 296h342z" />
    <glyph glyph-name="a" unicode="a" horiz-adv-x="1226" 
d="M518 1059q201 0 297 -137l14 116h273v-1038h-273l-14 115q-43 -60 -118 -97.5t-179 -37.5q-203 0 -330 151.5t-127 386.5t127.5 388t329.5 153zM592 795q-100 0 -161.5 -75t-61.5 -202q0 -126 61 -200t162 -74q129 0 207 129v293q-78 129 -207 129z" />
    <glyph glyph-name="b" unicode="b" horiz-adv-x="1243" 
d="M432 1556v-612q99 115 287 115q204 0 333.5 -153t129.5 -388t-129.5 -386.5t-333.5 -151.5q-106 0 -183 37.5t-122 97.5l-15 -115h-270v1556h303zM645 795q-139 0 -213 -131v-291q75 -129 213 -129q104 0 168 74t64 200t-64 201.5t-168 75.5z" />
    <glyph glyph-name="c" unicode="c" horiz-adv-x="1056" 
d="M600 1059q279 0 426 -240l-211 -155q-73 133 -213 133q-110 0 -171.5 -78.5t-61.5 -200.5q0 -120 62.5 -198t174.5 -78q137 0 217 133l205 -150q-68 -117 -176.5 -181t-251.5 -64q-236 0 -387.5 152t-151.5 386t152 387.5t387 153.5z" />
    <glyph glyph-name="d" unicode="d" horiz-adv-x="1243" 
d="M1116 1556v-1556h-272l-15 115q-43 -60 -121 -97.5t-182 -37.5q-206 0 -335.5 151.5t-129.5 386.5t130 388t335 153q188 0 287 -115v612h303zM600 795q-104 0 -167.5 -75.5t-63.5 -201.5t63.5 -200t167.5 -74q135 0 213 129v291q-78 131 -213 131z" />
    <glyph glyph-name="e" unicode="e" horiz-adv-x="1134" 
d="M586 1059q119 0 212.5 -42t152 -115t88.5 -167t30 -203v-96h-700q4 -98 69 -152.5t176 -54.5q76 0 137 29t97 76l201 -154q-156 -200 -443 -200q-244 0 -394.5 150.5t-150.5 385.5t147.5 389t377.5 154zM575 831q-90 0 -146.5 -57t-59.5 -147h401q-3 91 -54 147.5
t-141 56.5z" />
    <glyph glyph-name="f" unicode="f" horiz-adv-x="794" 
d="M627 1556q151 0 241 -65l-106 -242q-46 43 -119 43q-61 0 -94 -38.5t-33 -108.5v-107h232v-256h-232v-782h-303v782h-180v256h180v90q0 190 112.5 309t301.5 119z" />
    <glyph glyph-name="g" unicode="g" horiz-adv-x="1239" 
d="M524 1059q106 0 183 -37.5t120 -99.5l17 116h270v-995q0 -248 -150 -391.5t-403 -143.5q-169 0 -291 58t-219 164l199 200q65 -75 137 -116t170 -41q118 0 185 73t69 191v80q-97 -113 -287 -113q-206 0 -334.5 148t-128.5 378q0 231 129 380t334 149zM598 795
q-104 0 -167.5 -71.5t-63.5 -193.5t63.5 -193t167.5 -71q133 0 213 131v269q-78 129 -213 129z" />
    <glyph glyph-name="h" unicode="h" horiz-adv-x="1212" 
d="M432 1556v-610q101 113 275 113q188 0 289.5 -123.5t101.5 -337.5v-598h-303v582q0 87 -45.5 139.5t-122.5 52.5q-122 0 -195 -121v-653h-303v1556h303z" />
    <glyph glyph-name="i" unicode="i" horiz-adv-x="552" 
d="M276 1544q77 0 128 -51t51 -127t-51 -127t-128 -51q-76 0 -126 50.5t-50 127.5t50 127.5t126 50.5zM428 1038v-1038h-303v1038h303z" />
    <glyph glyph-name="j" unicode="j" horiz-adv-x="565" 
d="M289 1544q77 0 127.5 -51t50.5 -127t-50.5 -127t-127.5 -51q-76 0 -126 50.5t-50 127.5t50 127.5t126 50.5zM-4 -492q-178 0 -297 99l162 219q64 -53 133 -53q65 0 104 41t39 112v1112h303v-1095q0 -187 -125 -311t-319 -124z" />
    <glyph glyph-name="k" unicode="k" horiz-adv-x="1175" 
d="M432 1556v-1069l363 551h344l-316 -436l346 -602h-346l-200 350l-256 -350h-238v1556h303z" />
    <glyph glyph-name="l" unicode="l" horiz-adv-x="559" 
d="M432 1556v-1556h-303v1556h303z" />
    <glyph glyph-name="m" unicode="m" horiz-adv-x="1845" 
d="M1358 1059q179 0 276 -123.5t97 -337.5v-598h-304v582q0 88 -41.5 140t-115.5 52q-112 0 -191 -121v-24v-629h-303v582q0 88 -40.5 140t-114.5 52q-108 0 -193 -121v-653h-303v1038h272l15 -114q43 60 117.5 97.5t177.5 37.5q215 0 311 -178q127 178 340 178z" />
    <glyph glyph-name="n" unicode="n" horiz-adv-x="1208" 
d="M705 1059q188 0 289.5 -123.5t101.5 -337.5v-598h-303v582q0 87 -45.5 139.5t-124.5 52.5q-118 0 -195 -121v-653h-303v1038h272l15 -114q41 60 116.5 97.5t176.5 37.5z" />
    <glyph glyph-name="o" unicode="o" 
d="M608 1059q236 0 392.5 -155t156.5 -388q0 -153 -71 -276t-196.5 -191.5t-281.5 -68.5q-237 0 -392 151.5t-155 384.5q0 154 70.5 278t196 194.5t280.5 70.5zM608 795q-106 0 -172.5 -78t-66.5 -201q0 -120 66.5 -196t172.5 -76q107 0 175.5 76t68.5 196q0 123 -68.5 201
t-175.5 78z" />
    <glyph glyph-name="p" unicode="p" horiz-adv-x="1241" 
d="M717 1059q204 0 333.5 -153t129.5 -388t-129.5 -386.5t-333.5 -151.5q-191 0 -289 114v-565h-303v1509h272l15 -116q43 61 120.5 99t184.5 38zM643 795q-137 0 -215 -129v-293q78 -129 215 -129q103 0 166 74t63 200t-63.5 201.5t-165.5 75.5z" />
    <glyph glyph-name="q" unicode="q" horiz-adv-x="1241" 
d="M526 1059q105 0 182.5 -38t120.5 -99l15 116h272v-1509h-303v565q-98 -114 -287 -114q-206 0 -335.5 151.5t-129.5 386.5t130 388t335 153zM600 795q-104 0 -167.5 -75.5t-63.5 -201.5t63.5 -200t167.5 -74q135 0 213 129v293q-78 129 -213 129z" />
    <glyph glyph-name="r" unicode="r" horiz-adv-x="741" 
d="M713 1059v-301h-27q-154 0 -258 -137v-621h-303v1038h270l19 -137q41 69 118.5 113.5t180.5 44.5z" />
    <glyph glyph-name="s" unicode="s" horiz-adv-x="958" 
d="M520 1059q106 0 205 -29.5t166 -79.5l-111 -213q-129 88 -262 88t-133 -82q0 -38 37.5 -60t146.5 -48q167 -40 247.5 -115t80.5 -192q0 -158 -122 -253t-331 -95q-119 0 -224.5 31.5t-174.5 86.5l115 217q127 -104 286 -104q148 0 148 88q0 42 -36 66.5t-136 48.5
q-178 44 -258 113.5t-80 189.5q0 158 116 250t320 92z" />
    <glyph glyph-name="t" unicode="t" horiz-adv-x="868" 
d="M510 1382v-344h297v-256h-297v-391q0 -65 38.5 -103t100.5 -38q67 0 135 33l78 -240q-99 -63 -237 -63q-194 0 -306 106.5t-112 300.5v395h-187v256h187v344h303z" />
    <glyph glyph-name="u" unicode="u" horiz-adv-x="1202" 
d="M1075 1038v-1038h-270l-14 113q-96 -133 -302 -133q-181 0 -277.5 121.5t-96.5 334.5v602h303v-585q0 -87 41 -138t116 -51q116 0 197 121v653h303z" />
    <glyph glyph-name="v" unicode="v" horiz-adv-x="1161" 
d="M1155 1038l-569 -1058h-8l-572 1058h334l242 -516l241 516h332z" />
    <glyph glyph-name="w" unicode="w" horiz-adv-x="1568" 
d="M1563 1038l-500 -1058h-8l-271 509l-272 -509h-8l-498 1058h332l197 -501l245 501h8l244 -501l199 501h332z" />
    <glyph glyph-name="x" unicode="x" horiz-adv-x="1091" 
d="M1065 1038l-317 -514l331 -524h-352l-186 332l-187 -332h-352l332 524l-318 514h349l176 -325l176 325h348z" />
    <glyph glyph-name="y" unicode="y" horiz-adv-x="1161" 
d="M1155 1038l-807 -1509h-346l416 733l-412 776h332l240 -520l245 520h332z" />
    <glyph glyph-name="z" unicode="z" horiz-adv-x="980" 
d="M934 1038v-8l-445 -774h441v-256h-885v8l442 774h-415v256h862z" />
    <glyph glyph-name="braceleft" unicode="{" horiz-adv-x="718" 
d="M647 1575v-240q-101 0 -147 -59.5t-29 -173.5l18 -121q18 -116 -12.5 -190t-97.5 -97q67 -23 97.5 -96.5t12.5 -189.5l-18 -121q-17 -114 29 -174t147 -60v-239q-275 0 -386.5 136.5t-67.5 393.5l16 115q16 93 -32 152t-136 79v8q88 20 136 79.5t32 152.5l-16 117
q-44 256 68 392t386 136z" />
    <glyph glyph-name="bar" unicode="|" horiz-adv-x="516" 
d="M401 1432v-1680h-286v1680h286z" />
    <glyph glyph-name="braceright" unicode="}" horiz-adv-x="718" 
d="M72 1575q275 0 387.5 -136t68.5 -392l-18 -117q-16 -92 32.5 -152t137.5 -80v-8q-89 -20 -137.5 -79.5t-32.5 -151.5l18 -115q44 -257 -68.5 -393.5t-387.5 -136.5v239q102 0 147.5 59.5t28.5 174.5l-17 121q-20 116 11 189.5t98 96.5q-67 23 -98 97t-11 190l17 121
q17 115 -28.5 174t-147.5 59v240z" />
    <glyph glyph-name="asciitilde" unicode="~" horiz-adv-x="1302" 
d="M444 942q59 0 111 -17.5t89.5 -42t71 -49t70.5 -42t74 -17.5q71 0 120.5 40.5t76.5 105.5l172 -142q-54 -132 -152 -207t-219 -75q-61 0 -111.5 17t-84.5 41.5t-65 49t-70 41.5t-83 17q-139 0 -198 -146l-172 141q55 134 151.5 209.5t218.5 75.5z" />
    <glyph glyph-name="exclamdown" unicode="&#xa1;" horiz-adv-x="602" 
d="M303 682q-79 0 -131.5 52t-52.5 132t52.5 132.5t131.5 52.5t131.5 -52.5t52.5 -132.5t-52.5 -132t-131.5 -52zM152 -475v1030h303v-1030h-303z" />
    <glyph glyph-name="cent" unicode="&#xa2;" horiz-adv-x="1056" 
d="M1028 225q-107 -187 -309 -233v-297h-252v299q-183 42 -294.5 184.5t-111.5 339.5q0 198 111.5 341t294.5 185v271h252v-268q195 -45 307 -228l-211 -155q-73 133 -213 133q-110 0 -171.5 -78.5t-61.5 -200.5q0 -120 62.5 -198t174.5 -78q137 0 217 133z" />
    <glyph glyph-name="sterling" unicode="&#xa3;" horiz-adv-x="1232" 
d="M893 446h297q0 -217 -100 -331.5t-304 -114.5h-755v8q10 16 40 61.5t44.5 68.5t41 69.5t39.5 78.5t29.5 80t21.5 88.5t5 90t-10 98.5h-199v236h127q-27 98 -27 170q0 220 135 351.5t361 131.5q95 0 175 -30t134.5 -80.5t90.5 -108t55 -121.5l-293 -80q-12 71 -58 113.5
t-116 42.5q-85 0 -133 -53.5t-48 -145.5q0 -75 35 -190h324v-236h-260q14 -61 14 -104q0 -156 -80 -275h246q89 0 128.5 40t39.5 142z" />
    <glyph glyph-name="currency" unicode="&#xa4;" horiz-adv-x="1361" 
d="M1120 1165l193 -190l-240 -240q45 -92 45 -198q0 -111 -47 -197l242 -242l-193 -190l-246 244q-85 -43 -194 -43q-110 0 -195 43l-243 -244l-193 190l242 242q-49 90 -49 197q0 105 49 198l-242 240l193 190l241 -241q86 47 197 47q103 0 199 -47zM680 745
q-81 0 -133.5 -59t-52.5 -149q0 -88 52.5 -145.5t133.5 -57.5t133.5 57.5t52.5 145.5q0 90 -52.5 149t-133.5 59z" />
    <glyph glyph-name="yen" unicode="&#xa5;" horiz-adv-x="1421" 
d="M1415 1505l-428 -694h221v-219h-340v-150h340v-219h-340v-223h-313v223h-338v219h338v150h-338v219h217l-428 694h365l340 -579l340 579h364z" />
    <glyph glyph-name="brokenbar" unicode="&#xa6;" horiz-adv-x="516" 
d="M401 1432v-631h-286v631h286zM401 383v-631h-286v631h286z" />
    <glyph glyph-name="section" unicode="&#xa7;" horiz-adv-x="940" 
d="M510 1532q201 0 330 -139l-166 -183q-68 78 -164 78q-71 0 -110.5 -34.5t-39.5 -92.5q0 -89 95 -121q23 -9 65 -15t60 -11q136 -29 219.5 -124.5t83.5 -223.5q0 -88 -40 -159t-110 -116q119 -78 119 -223q0 -155 -120 -262t-318 -107q-112 0 -208 41.5t-161 124.5
l180 182q70 -104 191 -104q73 0 114 36t41 97q0 71 -75 109q-17 9 -37 13.5t-44.5 8t-39.5 6.5q-143 26 -230.5 122.5t-87.5 230.5q0 85 39 156t107 114q-123 81 -123 233t117 257.5t313 105.5zM469 817q-64 0 -104.5 -42.5t-40.5 -108.5t40.5 -108t104.5 -42q63 0 105 42
t42 108t-42 108.5t-105 42.5z" />
    <glyph glyph-name="dieresis" unicode="&#xa8;" horiz-adv-x="751" 
d="M178 1473q64 0 105 -40.5t41 -103.5t-41 -103t-105 -40q-63 0 -103 40t-40 103t40 103.5t103 40.5zM571 1473q63 0 104.5 -40.5t41.5 -103.5t-41.5 -103t-104.5 -40t-103 40t-40 103t40 103.5t103 40.5z" />
    <glyph glyph-name="copyright" unicode="&#xa9;" horiz-adv-x="1679" 
d="M840 1532q214 0 387.5 -101.5t271.5 -280t98 -398.5q0 -166 -57.5 -311t-157.5 -247.5t-241 -161.5t-301 -59q-163 0 -304 59t-240.5 162t-156.5 247.5t-57 310.5q0 220 97 398.5t270.5 280t390.5 101.5zM840 1372q-168 0 -302.5 -81t-209 -223t-74.5 -316
q0 -176 74.5 -317.5t209 -221.5t302.5 -80q125 0 233.5 47t185 128.5t120.5 196.5t44 247q0 130 -44 245t-120.5 197.5t-185 130t-233.5 47.5zM872 1180q96 0 165.5 -30.5t129.5 -94.5l-114 -142q-67 80 -181 80q-105 0 -166 -62.5t-61 -170.5q0 -112 60.5 -174t166.5 -62
q115 0 181 80l114 -141q-113 -125 -295 -125q-183 0 -302 119t-119 303q0 181 119.5 300.5t301.5 119.5z" />
    <glyph glyph-name="ordfeminine" unicode="&#xaa;" horiz-adv-x="901" 
d="M365 1538q143 0 208 -90l13 76h215v-729h-215l-13 75q-68 -90 -208 -90t-229 107t-89 272t89 272t229 107zM430 1329q-63 0 -101 -45.5t-38 -124.5t38 -124.5t101 -45.5q78 0 129 78v186q-50 76 -129 76z" />
    <glyph glyph-name="guillemotleft" unicode="&#xab;" horiz-adv-x="1171" 
d="M592 938l-244 -414l244 -413h-273l-256 409v8l256 410h273zM1108 938l-246 -414l246 -413h-274l-256 409v8l256 410h274z" />
    <glyph glyph-name="logicalnot" unicode="&#xac;" horiz-adv-x="1261" 
d="M1188 930v-631h-211v422h-903v209h1114z" />
    <glyph glyph-name="registered" unicode="&#xae;" horiz-adv-x="1413" 
d="M707 1614q181 0 327.5 -86t229 -237t82.5 -337q0 -140 -48.5 -262t-133 -209t-203 -136.5t-254.5 -49.5q-184 0 -330 85t-227.5 235t-81.5 337t81.5 337.5t227.5 236.5t330 86zM707 451q206 0 340.5 143t134.5 360q0 142 -60.5 258t-169.5 183t-245 67q-137 0 -246.5 -67
t-170.5 -183t-61 -258q0 -218 135 -360.5t343 -142.5zM975 1077q0 -70 -32.5 -123t-88.5 -82l154 -260h-191l-135 230h-74v-230h-166v695h283q104 0 177 -62.5t73 -167.5zM608 1157v-168h101q46 0 73 21.5t27 64.5q0 41 -27 61.5t-73 20.5h-101z" />
    <glyph glyph-name="macron" unicode="&#xaf;" horiz-adv-x="632" 
d="M598 1415v-203h-563v203h563z" />
    <glyph glyph-name="degree" unicode="&#xb0;" horiz-adv-x="745" 
d="M375 1530q136 0 225.5 -90.5t89.5 -225.5t-89 -223t-226 -88q-138 0 -229 88t-91 223t91 225.5t229 90.5zM375 1343q-54 0 -87.5 -36t-33.5 -93q0 -55 34 -91t87 -36q51 0 85 36.5t34 90.5q0 57 -34 93t-85 36z" />
    <glyph glyph-name="plusminus" unicode="&#xb1;" horiz-adv-x="1050" 
d="M662 1409v-311h315v-277h-315v-313h-277v313h-311v277h311v311h277zM977 389v-274h-903v274h903z" />
    <glyph glyph-name="two.sups" unicode="&#xb2;" horiz-adv-x="704" 
d="M350 1681q141 0 226.5 -79.5t85.5 -204.5q0 -60 -24 -113.5t-71 -116.5l-131 -168h230v-192h-594v6l309 463q35 46 47 71t12 56q0 39 -24.5 62.5t-65.5 23.5q-89 0 -104 -115l-197 45q49 262 301 262z" />
    <glyph glyph-name="three.sups" unicode="&#xb3;" horiz-adv-x="690" 
d="M354 1681q135 0 218 -78.5t83 -195.5q0 -107 -92 -168q107 -58 107 -174q0 -120 -85.5 -197t-226.5 -77q-260 0 -309 249l197 45q15 -100 112 -100q42 0 67.5 24.5t25.5 65.5q0 38 -27 64t-68 26h-94v164h94q37 2 60.5 23t23.5 57t-25.5 58t-64.5 22q-35 0 -60 -21.5
t-32 -64.5l-190 80q29 97 102.5 147.5t183.5 50.5z" />
    <glyph glyph-name="acute" unicode="&#xb4;" horiz-adv-x="684" 
d="M645 1470l-354 -296h-260l274 296h340z" />
    <glyph glyph-name="mu" unicode="&#xb5;" horiz-adv-x="1236" 
d="M1098 1038v-1038h-271l-14 113q-98 -133 -272 -133q-63 0 -101 20v-471h-303v1509h303v-592q0 -83 42 -132.5t116 -49.5q116 0 197 121v653h303z" />
    <glyph glyph-name="paragraph" unicode="&#xb6;" horiz-adv-x="1550" 
d="M1491 1505v-233h-172v-1497h-252v1497h-203v-1497h-252v848h-6q-117 0 -216 26.5t-176.5 78t-121 135.5t-43.5 192q0 147 73.5 249.5t198 151.5t289.5 49h881z" />
    <glyph glyph-name="periodcentered" unicode="&#xb7;" horiz-adv-x="520" 
d="M260 709q79 0 131.5 -52.5t52.5 -130.5q0 -80 -52 -132t-132 -52t-132 52t-52 132q0 78 52.5 130.5t131.5 52.5z" />
    <glyph glyph-name="cedilla" unicode="&#xb8;" horiz-adv-x="507" 
d="M180 53l133 -12l-34 -121q86 -5 145 -50t59 -134q0 -94 -70 -150.5t-169 -56.5q-123 0 -207 78l84 108q55 -51 110 -51q36 0 57 18.5t21 51.5q0 68 -94 71q-51 3 -100 -12l-6 8z" />
    <glyph glyph-name="one.sups" unicode="&#xb9;" horiz-adv-x="550" 
d="M463 1681v-874h-219v539l-113 -60l-88 203l416 192h4z" />
    <glyph glyph-name="ordmasculine" unicode="&#xba;" horiz-adv-x="870" 
d="M434 1538q167 0 279 -108t112 -271q0 -164 -111.5 -271.5t-279.5 -107.5q-167 0 -277 107.5t-110 271.5q0 163 110 271t277 108zM434 1329q-62 0 -102.5 -48.5t-40.5 -121.5q0 -74 40 -122t103 -48t104.5 48.5t41.5 121.5q0 72 -41.5 121t-104.5 49z" />
    <glyph glyph-name="guillemotright" unicode="&#xbb;" horiz-adv-x="1171" 
d="M338 938l254 -410v-8l-254 -409h-275l246 413l-246 414h275zM852 938l256 -410v-8l-256 -409h-274l245 413l-245 414h274z" />
    <glyph glyph-name="onequarter" unicode="&#xbc;" horiz-adv-x="1591" 
d="M1319 1505l-744 -1505h-243l745 1505h242zM463 1477v-875h-219v539l-113 -60l-88 203l416 193h4zM1475 877v-625h88v-156h-88v-96h-218v96h-430v2l643 779h5zM1282 434l-162 -192h162v192z" />
    <glyph glyph-name="onehalf" unicode="&#xbd;" horiz-adv-x="1710" 
d="M1284 1505l-745 -1505h-242l745 1505h242zM463 1477v-875h-219v539l-113 -60l-88 203l416 193h4zM1348 874q141 0 226 -79.5t85 -204.5q0 -104 -94 -230l-131 -167h229v-193h-594v6l309 463q36 47 48 71.5t12 55.5q0 39 -24.5 62.5t-65.5 23.5q-90 0 -105 -115l-196 45
q49 262 301 262z" />
    <glyph glyph-name="threequarters" unicode="&#xbe;" horiz-adv-x="1728" 
d="M1454 1505l-745 -1505h-242l745 1505h242zM354 1477q135 0 218 -79t83 -196q0 -107 -92 -168q107 -58 107 -174q0 -120 -85.5 -197t-226.5 -77q-260 0 -309 250l197 45q15 -101 112 -101q42 0 67.5 24.5t25.5 65.5q0 39 -27 65t-68 26h-94v163h94q37 2 60.5 23t23.5 57
t-25.5 58t-64.5 22q-35 0 -60 -21.5t-32 -64.5l-190 80q29 98 102.5 148.5t183.5 50.5zM1614 877v-625h88v-156h-88v-96h-217v96h-430v2l643 779h4zM1419 434l-159 -192h159v192z" />
    <glyph glyph-name="questiondown" unicode="&#xbf;" horiz-adv-x="1077" 
d="M555 682q-79 0 -131.5 52t-52.5 132t52.5 132.5t131.5 52.5t131.5 -52.5t52.5 -132.5t-52.5 -132t-131.5 -52zM553 -502q-215 0 -351 123.5t-136 306.5q0 73 19 132t48.5 97t66 70t73 60t66 57.5t48.5 71.5t19 94v45h303v-86q0 -68 -18 -123t-47 -92t-64 -68t-70 -57.5
t-64 -53.5t-47 -63t-18 -80q0 -75 49.5 -118t124.5 -43q78 0 126.5 46.5t59.5 123.5l299 -50q-40 -189 -163.5 -291t-323.5 -102z" />
    <glyph glyph-name="Agrave" unicode="&#xc0;" horiz-adv-x="1484" 
d="M627 1847l256 -245h-291l-324 245h359zM745 1532l730 -1532h-349l-96 231h-575l-99 -231h-346l727 1532h8zM741 926l-188 -449h379z" />
    <glyph glyph-name="Aacute" unicode="&#xc1;" horiz-adv-x="1484" 
d="M1184 1847l-322 -245h-293l258 245h357zM745 1532l730 -1532h-349l-96 231h-575l-99 -231h-346l727 1532h8zM741 926l-188 -449h379z" />
    <glyph glyph-name="Acircumflex" unicode="&#xc2;" horiz-adv-x="1484" 
d="M741 1919l357 -317h-238l-119 100l-118 -100h-240zM745 1532l730 -1532h-349l-96 231h-575l-99 -231h-346l727 1532h8zM741 926l-188 -449h379z" />
    <glyph glyph-name="Atilde" unicode="&#xc3;" horiz-adv-x="1484" 
d="M623 1915q42 0 76.5 -14.5t57 -35t42 -40.5t39.5 -34.5t41 -14.5q63 0 63 127h162q0 -149 -69.5 -229.5t-174.5 -80.5q-43 0 -76.5 14.5t-53.5 35.5t-37 42t-37 35.5t-44 14.5q-38 0 -52.5 -31.5t-14.5 -97.5h-164q0 154 68.5 231.5t173.5 77.5zM745 1532l730 -1532h-349
l-96 231h-575l-99 -231h-346l727 1532h8zM741 926l-188 -449h379z" />
    <glyph glyph-name="Adieresis" unicode="&#xc4;" horiz-adv-x="1484" 
d="M543 1878q64 0 104.5 -40.5t40.5 -102.5q0 -63 -40.5 -104.5t-104.5 -41.5q-63 0 -103.5 41.5t-40.5 104.5q0 62 40.5 102.5t103.5 40.5zM936 1878q63 0 104 -40.5t41 -102.5q0 -63 -41 -104.5t-104 -41.5t-103 41.5t-40 104.5q0 62 40 102.5t103 40.5zM745 1532
l730 -1532h-349l-96 231h-575l-99 -231h-346l727 1532h8zM741 926l-188 -449h379z" />
    <glyph glyph-name="Aring" unicode="&#xc5;" horiz-adv-x="1484" 
d="M743 2089q106 0 178 -70.5t72 -177.5t-71.5 -176.5t-178.5 -69.5q-109 0 -180 69.5t-71 176.5t71 177.5t180 70.5zM743 1931q-37 0 -61.5 -26t-24.5 -64t24.5 -63t61.5 -25q36 0 60 25t24 63t-24.5 64t-59.5 26zM745 1532l730 -1532h-349l-96 231h-575l-99 -231h-346
l727 1532h8zM741 926l-188 -449h379z" />
    <glyph glyph-name="AE" unicode="&#xc6;" horiz-adv-x="1830" 
d="M1735 1505v-286h-770l131 -324h551v-264h-441l142 -344h403v-287h-629l-94 236h-571l-97 -236h-350l668 1505h1057zM741 950l-190 -477h383z" />
    <glyph glyph-name="Ccedilla" unicode="&#xc7;" horiz-adv-x="1423" 
d="M838 -27h-9l-14 -53q86 -5 145.5 -50t59.5 -134q0 -94 -70.5 -150.5t-169.5 -56.5q-123 0 -207 78l84 108q55 -51 111 -51q36 0 57 18.5t21 51.5q0 68 -94 71q-52 3 -101 -12l-6 8l51 185q-279 46 -452.5 258.5t-173.5 509.5q0 164 57.5 308.5t158.5 247.5t244 162.5
t308 59.5q178 0 308 -55t240 -170l-196 -230q-143 168 -352 168q-201 0 -326 -137.5t-125 -353.5q0 -217 125 -355.5t326 -138.5q213 0 356 172l197 -229q-110 -121 -245 -175.5t-308 -54.5z" />
    <glyph glyph-name="Egrave" unicode="&#xc8;" 
d="M547 1847l256 -245h-291l-324 245h359zM1122 1505v-286h-659v-322h573v-268h-573v-342h676v-287h-989v1505h972z" />
    <glyph glyph-name="Eacute" unicode="&#xc9;" 
d="M1102 1847l-322 -245h-293l258 245h357zM1122 1505v-286h-659v-322h573v-268h-573v-342h676v-287h-989v1505h972z" />
    <glyph glyph-name="Ecircumflex" unicode="&#xca;" 
d="M659 1919l357 -317h-238l-119 100l-118 -100h-240zM1122 1505v-286h-659v-322h573v-268h-573v-342h676v-287h-989v1505h972z" />
    <glyph glyph-name="Edieresis" unicode="&#xcb;" 
d="M463 1878q64 0 104.5 -40.5t40.5 -102.5q0 -63 -40.5 -104.5t-104.5 -41.5q-63 0 -103.5 41.5t-40.5 104.5q0 62 40.5 102.5t103.5 40.5zM856 1878q63 0 104 -40.5t41 -102.5q0 -63 -41 -104.5t-104 -41.5t-103 41.5t-40 104.5q0 62 40 102.5t103 40.5zM1122 1505v-286
h-659v-322h573v-268h-573v-342h676v-287h-989v1505h972z" />
    <glyph glyph-name="Igrave" unicode="&#xcc;" horiz-adv-x="614" 
d="M193 1847l256 -245h-291l-324 245h359zM463 1505v-1505h-313v1505h313z" />
    <glyph glyph-name="Iacute" unicode="&#xcd;" horiz-adv-x="614" 
d="M750 1847l-322 -245h-293l258 245h357zM463 1505v-1505h-313v1505h313z" />
    <glyph glyph-name="Icircumflex" unicode="&#xce;" horiz-adv-x="614" 
d="M307 1919l357 -317h-238l-119 100l-119 -100h-239zM463 1505v-1505h-313v1505h313z" />
    <glyph glyph-name="Idieresis" unicode="&#xcf;" horiz-adv-x="614" 
d="M111 1878q64 0 104.5 -40.5t40.5 -102.5q0 -63 -40.5 -104.5t-104.5 -41.5q-63 0 -103.5 41.5t-40.5 104.5q0 62 40.5 102.5t103.5 40.5zM504 1878q63 0 104 -40.5t41 -102.5q0 -63 -41 -104.5t-104 -41.5t-103.5 41.5t-40.5 104.5q0 62 40.5 102.5t103.5 40.5zM463 1505
v-1505h-313v1505h313z" />
    <glyph glyph-name="Eth" unicode="&#xd0;" horiz-adv-x="1556" 
d="M664 1505q387 0 605 -198t218 -553q0 -356 -217 -555t-606 -199h-480v676h-170v201h170v628h480zM653 287q252 0 384 121.5t132 343.5q0 223 -132 344t-384 121h-155v-340h209v-201h-209v-389h155z" />
    <glyph glyph-name="Ntilde" unicode="&#xd1;" horiz-adv-x="1509" 
d="M623 1915q42 0 76.5 -14.5t57 -35t42 -40.5t39.5 -34.5t41 -14.5q63 0 63 127h162q0 -149 -69.5 -229.5t-174.5 -80.5q-43 0 -76.5 14.5t-53.5 35.5t-37 42t-37 35.5t-44 14.5q-38 0 -52.5 -31.5t-14.5 -97.5h-164q0 154 68.5 231.5t173.5 77.5zM158 1532l889 -862v835
h313v-1532h-8l-889 865v-838h-313v1532h8z" />
    <glyph glyph-name="Ograve" unicode="&#xd2;" horiz-adv-x="1687" 
d="M729 1868l256 -246h-291l-323 246h358zM844 1532q218 0 395 -100.5t278 -279.5t101 -402q0 -221 -101 -399t-278 -278t-395 -100q-219 0 -396 100t-277.5 278t-100.5 399q0 223 100.5 402t277.5 279.5t396 100.5zM844 1245q-201 0 -329 -138.5t-128 -356.5
q0 -214 128 -352t329 -138q199 0 326.5 138t127.5 352q0 218 -127 356.5t-327 138.5z" />
    <glyph glyph-name="Oacute" unicode="&#xd3;" horiz-adv-x="1687" 
d="M1286 1868l-321 -246h-293l258 246h356zM844 1532q218 0 395 -100.5t278 -279.5t101 -402q0 -221 -101 -399t-278 -278t-395 -100q-219 0 -396 100t-277.5 278t-100.5 399q0 223 100.5 402t277.5 279.5t396 100.5zM844 1245q-201 0 -329 -138.5t-128 -356.5
q0 -214 128 -352t329 -138q199 0 326.5 138t127.5 352q0 218 -127 356.5t-327 138.5z" />
    <glyph glyph-name="Ocircumflex" unicode="&#xd4;" horiz-adv-x="1687" 
d="M844 1939l356 -317h-237l-119 100l-119 -100h-240zM844 1532q218 0 395 -100.5t278 -279.5t101 -402q0 -221 -101 -399t-278 -278t-395 -100q-219 0 -396 100t-277.5 278t-100.5 399q0 223 100.5 402t277.5 279.5t396 100.5zM844 1245q-201 0 -329 -138.5t-128 -356.5
q0 -214 128 -352t329 -138q199 0 326.5 138t127.5 352q0 218 -127 356.5t-327 138.5z" />
    <glyph glyph-name="Otilde" unicode="&#xd5;" horiz-adv-x="1687" 
d="M725 1935q42 0 76.5 -14.5t57 -35t42 -40.5t39.5 -34.5t41 -14.5q63 0 63 127h162q0 -149 -69 -229t-174 -80q-43 0 -76.5 14.5t-53.5 35t-37 41.5t-37 35.5t-44 14.5q-38 0 -53 -32t-15 -97h-164q0 154 68.5 231.5t173.5 77.5zM844 1532q218 0 395 -100.5t278 -279.5
t101 -402q0 -221 -101 -399t-278 -278t-395 -100q-219 0 -396 100t-277.5 278t-100.5 399q0 223 100.5 402t277.5 279.5t396 100.5zM844 1245q-201 0 -329 -138.5t-128 -356.5q0 -214 128 -352t329 -138q199 0 326.5 138t127.5 352q0 218 -127 356.5t-327 138.5z" />
    <glyph glyph-name="Odieresis" unicode="&#xd6;" horiz-adv-x="1687" 
d="M645 1898q64 0 105 -40.5t41 -102.5q0 -63 -41 -104t-105 -41q-63 0 -103 41t-40 104q0 62 40 102.5t103 40.5zM1038 1898q63 0 104.5 -40.5t41.5 -102.5q0 -63 -41.5 -104t-104.5 -41t-103 41t-40 104q0 62 40 102.5t103 40.5zM844 1532q218 0 395 -100.5t278 -279.5
t101 -402q0 -221 -101 -399t-278 -278t-395 -100q-219 0 -396 100t-277.5 278t-100.5 399q0 223 100.5 402t277.5 279.5t396 100.5zM844 1245q-201 0 -329 -138.5t-128 -356.5q0 -214 128 -352t329 -138q199 0 326.5 138t127.5 352q0 218 -127 356.5t-327 138.5z" />
    <glyph glyph-name="multiply" unicode="&#xd7;" horiz-adv-x="1007" 
d="M737 1145l197 -195l-236 -235l236 -234l-197 -196l-233 235l-234 -233l-196 194l235 234l-235 233l196 197l234 -234z" />
    <glyph glyph-name="Oslash" unicode="&#xd8;" horiz-adv-x="1675" 
d="M1323 1374q139 -106 217 -267.5t78 -356.5q0 -221 -101 -399t-278 -278t-395 -100q-146 0 -271 43l-100 -180h-268l160 291q-139 106 -217 268t-78 355q0 223 100.5 402t277.5 279.5t396 100.5q142 0 272 -45l101 182h268zM387 750q0 -213 127 -353l459 832
q-66 16 -129 16q-201 0 -329 -138.5t-128 -356.5zM844 260q199 0 326.5 138t127.5 352q0 218 -124 354l-457 -828q62 -16 127 -16z" />
    <glyph glyph-name="Ugrave" unicode="&#xd9;" horiz-adv-x="1466" 
d="M621 1847l256 -245h-291l-324 245h359zM1335 1505v-964q0 -261 -157 -414.5t-445 -153.5t-445 153.5t-157 414.5v964h313v-944q0 -138 75.5 -219.5t213.5 -81.5q137 0 213 81.5t76 219.5v944h313z" />
    <glyph glyph-name="Uacute" unicode="&#xda;" horiz-adv-x="1466" 
d="M1178 1847l-322 -245h-293l258 245h357zM1335 1505v-964q0 -261 -157 -414.5t-445 -153.5t-445 153.5t-157 414.5v964h313v-944q0 -138 75.5 -219.5t213.5 -81.5q137 0 213 81.5t76 219.5v944h313z" />
    <glyph glyph-name="Ucircumflex" unicode="&#xdb;" horiz-adv-x="1466" 
d="M733 1919l357 -317h-238l-119 100l-119 -100h-239zM1335 1505v-964q0 -261 -157 -414.5t-445 -153.5t-445 153.5t-157 414.5v964h313v-944q0 -138 75.5 -219.5t213.5 -81.5q137 0 213 81.5t76 219.5v944h313z" />
    <glyph glyph-name="Udieresis" unicode="&#xdc;" horiz-adv-x="1466" 
d="M537 1878q64 0 104.5 -40.5t40.5 -102.5q0 -63 -40.5 -104.5t-104.5 -41.5q-63 0 -103.5 41.5t-40.5 104.5q0 62 40.5 102.5t103.5 40.5zM930 1878q63 0 104 -40.5t41 -102.5q0 -63 -41 -104.5t-104 -41.5t-103.5 41.5t-40.5 104.5q0 62 40.5 102.5t103.5 40.5z
M1335 1505v-964q0 -261 -157 -414.5t-445 -153.5t-445 153.5t-157 414.5v964h313v-944q0 -138 75.5 -219.5t213.5 -81.5q137 0 213 81.5t76 219.5v944h313z" />
    <glyph glyph-name="Yacute" unicode="&#xdd;" horiz-adv-x="1427" 
d="M1157 1847l-321 -245h-293l258 245h356zM1419 1505l-547 -889v-616h-313v610l-551 895h365l342 -579l338 579h366z" />
    <glyph glyph-name="Thorn" unicode="&#xde;" horiz-adv-x="1239" 
d="M463 1505v-252h229q98 0 187 -30.5t158 -86t110 -142.5t41 -193q0 -105 -41 -192t-110 -143.5t-158 -87t-187 -30.5h-229v-348h-313v1505h313zM662 983h-199v-365h199q91 0 149.5 48.5t58.5 134.5q0 85 -58.5 133.5t-149.5 48.5z" />
    <glyph glyph-name="germandbls" unicode="&#xdf;" horiz-adv-x="1296" 
d="M645 1532q223 0 358.5 -123.5t135.5 -316.5q0 -94 -39.5 -162.5t-104.5 -108.5q64 -22 116.5 -66.5t90 -125.5t37.5 -185q0 -214 -137.5 -342.5t-374.5 -128.5q-118 0 -201 39l52 269q72 -37 143 -37q89 0 149 55.5t60 146.5q0 71 -43.5 122t-122.5 73q-60 18 -152 18
v230q63 0 127 33q95 54 95 151q0 87 -57.5 139t-141.5 52q-91 0 -148 -56t-57 -164v-1044h-303v1026q0 149 70.5 265.5t188 178.5t259.5 62z" />
    <glyph glyph-name="agrave" unicode="&#xe0;" horiz-adv-x="1226" 
d="M475 1470l273 -296h-261l-354 296h342zM518 1059q201 0 297 -137l14 116h273v-1038h-273l-14 115q-43 -60 -118 -97.5t-179 -37.5q-203 0 -330 151.5t-127 386.5t127.5 388t329.5 153zM592 795q-100 0 -161.5 -75t-61.5 -202q0 -126 61 -200t162 -74q129 0 207 129v293
q-78 129 -207 129z" />
    <glyph glyph-name="aacute" unicode="&#xe1;" horiz-adv-x="1226" 
d="M1069 1470l-354 -296h-260l274 296h340zM518 1059q201 0 297 -137l14 116h273v-1038h-273l-14 115q-43 -60 -118 -97.5t-179 -37.5q-203 0 -330 151.5t-127 386.5t127.5 388t329.5 153zM592 795q-100 0 -161.5 -75t-61.5 -202q0 -126 61 -200t162 -74q129 0 207 129v293
q-78 129 -207 129z" />
    <glyph glyph-name="acircumflex" unicode="&#xe2;" horiz-adv-x="1226" 
d="M606 1571l342 -395h-231l-111 116l-110 -116h-232zM518 1059q201 0 297 -137l14 116h273v-1038h-273l-14 115q-43 -60 -118 -97.5t-179 -37.5q-203 0 -330 151.5t-127 386.5t127.5 388t329.5 153zM592 795q-100 0 -161.5 -75t-61.5 -202q0 -126 61 -200t162 -74
q129 0 207 129v293q-78 129 -207 129z" />
    <glyph glyph-name="atilde" unicode="&#xe3;" horiz-adv-x="1226" 
d="M489 1503q42 0 76.5 -14.5t57 -35.5t42 -41.5t39.5 -35t41 -14.5q64 0 64 129h162q0 -155 -69.5 -238.5t-174.5 -83.5q-43 0 -76.5 14.5t-53.5 35.5t-37 42t-37 35.5t-44 14.5q-38 0 -52.5 -31.5t-14.5 -97.5h-164q0 160 68.5 240.5t172.5 80.5zM518 1059q201 0 297 -137
l14 116h273v-1038h-273l-14 115q-43 -60 -118 -97.5t-179 -37.5q-203 0 -330 151.5t-127 386.5t127.5 388t329.5 153zM592 795q-100 0 -161.5 -75t-61.5 -202q0 -126 61 -200t162 -74q129 0 207 129v293q-78 129 -207 129z" />
    <glyph glyph-name="adieresis" unicode="&#xe4;" horiz-adv-x="1226" 
d="M412 1473q64 0 104.5 -40.5t40.5 -103.5t-40.5 -103t-104.5 -40q-63 0 -103.5 40t-40.5 103t40.5 103.5t103.5 40.5zM805 1473q63 0 104 -40.5t41 -103.5t-41 -103t-104 -40t-103 40t-40 103t40 103.5t103 40.5zM518 1059q201 0 297 -137l14 116h273v-1038h-273l-14 115
q-43 -60 -118 -97.5t-179 -37.5q-203 0 -330 151.5t-127 386.5t127.5 388t329.5 153zM592 795q-100 0 -161.5 -75t-61.5 -202q0 -126 61 -200t162 -74q129 0 207 129v293q-78 129 -207 129z" />
    <glyph glyph-name="aring" unicode="&#xe5;" horiz-adv-x="1226" 
d="M610 1659q106 0 178 -72t72 -178q0 -107 -71.5 -176.5t-178.5 -69.5q-109 0 -180.5 69.5t-71.5 176.5q0 106 72 178t180 72zM610 1499q-37 0 -61.5 -26t-24.5 -64t24.5 -62t61.5 -24q36 0 60 24t24 62t-24.5 64t-59.5 26zM518 1059q201 0 297 -137l14 116h273v-1038h-273
l-14 115q-43 -60 -118 -97.5t-179 -37.5q-203 0 -330 151.5t-127 386.5t127.5 388t329.5 153zM592 795q-100 0 -161.5 -75t-61.5 -202q0 -126 61 -200t162 -74q129 0 207 129v293q-78 129 -207 129z" />
    <glyph glyph-name="ae" unicode="&#xe6;" horiz-adv-x="1933" 
d="M1395 1059q153 0 262 -72t161 -190t52 -269v-90h-725q16 -99 83.5 -154t186.5 -55q75 0 137 29.5t97 77.5l200 -156q-161 -200 -432 -200q-109 0 -194.5 37t-126.5 96l-15 -113h-252l-14 115q-43 -60 -118 -97.5t-179 -37.5q-203 0 -330 151.5t-127 386.5t127.5 388
t329.5 153q201 0 297 -137l14 116h256l15 -114q46 61 121 98t174 37zM1360 831q-87 0 -145.5 -53t-71.5 -151h428q-3 89 -60 146.5t-151 57.5zM592 795q-100 0 -161.5 -75t-61.5 -202q0 -126 61 -200t162 -74q129 0 207 129v293q-78 129 -207 129z" />
    <glyph glyph-name="ccedilla" unicode="&#xe7;" horiz-adv-x="1056" 
d="M1028 225q-66 -114 -173 -178t-247 -67l-16 -60q86 -5 145.5 -50t59.5 -134q0 -94 -70.5 -150.5t-169.5 -56.5q-123 0 -207 78l84 108q55 -51 111 -51q36 0 57 18.5t21 51.5q0 68 -95 71q-51 3 -100 -12l-6 8l53 191q-186 38 -300 182t-114 344q0 234 152 387.5
t387 153.5q279 0 426 -240l-211 -155q-73 133 -213 133q-110 0 -171.5 -78.5t-61.5 -200.5q0 -120 62.5 -198t174.5 -78q137 0 217 133z" />
    <glyph glyph-name="egrave" unicode="&#xe8;" horiz-adv-x="1134" 
d="M451 1470l272 -296h-260l-354 296h342zM586 1059q119 0 212.5 -42t152 -115t88.5 -167t30 -203v-96h-700q4 -98 69 -152.5t176 -54.5q76 0 137 29t97 76l201 -154q-156 -200 -443 -200q-244 0 -394.5 150.5t-150.5 385.5t147.5 389t377.5 154zM575 831q-90 0 -146.5 -57
t-59.5 -147h401q-3 91 -54 147.5t-141 56.5z" />
    <glyph glyph-name="eacute" unicode="&#xe9;" horiz-adv-x="1134" 
d="M1047 1470l-355 -296h-260l275 296h340zM586 1059q119 0 212.5 -42t152 -115t88.5 -167t30 -203v-96h-700q4 -98 69 -152.5t176 -54.5q76 0 137 29t97 76l201 -154q-156 -200 -443 -200q-244 0 -394.5 150.5t-150.5 385.5t147.5 389t377.5 154zM575 831q-90 0 -146.5 -57
t-59.5 -147h401q-3 91 -54 147.5t-141 56.5z" />
    <glyph glyph-name="ecircumflex" unicode="&#xea;" horiz-adv-x="1134" 
d="M584 1571l342 -395h-232l-110 116l-111 -116h-231zM586 1059q119 0 212.5 -42t152 -115t88.5 -167t30 -203v-96h-700q4 -98 69 -152.5t176 -54.5q76 0 137 29t97 76l201 -154q-156 -200 -443 -200q-244 0 -394.5 150.5t-150.5 385.5t147.5 389t377.5 154zM575 831
q-90 0 -146.5 -57t-59.5 -147h401q-3 91 -54 147.5t-141 56.5z" />
    <glyph glyph-name="edieresis" unicode="&#xeb;" horiz-adv-x="1134" 
d="M387 1473q64 0 104.5 -40.5t40.5 -103.5t-40.5 -103t-104.5 -40q-63 0 -103 40t-40 103t40 103.5t103 40.5zM780 1473q63 0 104.5 -40.5t41.5 -103.5t-41.5 -103t-104.5 -40t-103 40t-40 103t40 103.5t103 40.5zM586 1059q119 0 212.5 -42t152 -115t88.5 -167t30 -203
v-96h-700q4 -98 69 -152.5t176 -54.5q76 0 137 29t97 76l201 -154q-156 -200 -443 -200q-244 0 -394.5 150.5t-150.5 385.5t147.5 389t377.5 154zM575 831q-90 0 -146.5 -57t-59.5 -147h401q-3 91 -54 147.5t-141 56.5z" />
    <glyph glyph-name="igrave" unicode="&#xec;" horiz-adv-x="579" 
d="M156 1470l274 -296h-262l-354 296h342zM428 1038v-1038h-303v1038h303z" />
    <glyph glyph-name="iacute" unicode="&#xed;" horiz-adv-x="579" 
d="M750 1470l-353 -296h-262l275 296h340zM428 1038v-1038h-303v1038h303z" />
    <glyph glyph-name="icircumflex" unicode="&#xee;" horiz-adv-x="552" 
d="M276 1571l342 -395h-231l-111 116l-110 -116h-232zM428 1038v-1038h-303v1038h303z" />
    <glyph glyph-name="idieresis" unicode="&#xef;" horiz-adv-x="579" 
d="M94 1473q63 0 103.5 -40.5t40.5 -103.5t-40.5 -103t-103.5 -40t-104 40t-41 103t41 103.5t104 40.5zM487 1473q62 0 103 -40.5t41 -103.5t-41 -103t-103 -40q-63 0 -104 40t-41 103t41 103.5t104 40.5zM428 1038v-1038h-303v1038h303z" />
    <glyph glyph-name="eth" unicode="&#xf0;" horiz-adv-x="1191" 
d="M1063 750q72 -120 72 -263q0 -219 -152 -363t-383 -144q-232 0 -383 143.5t-151 363.5q0 207 135.5 349t347.5 159l-80 131h-360v220h227l-127 210h362l129 -210h363v-220h-229zM600 227q100 0 167 74t67 186t-67 187.5t-167 75.5t-165.5 -75t-65.5 -188
q0 -112 65.5 -186t165.5 -74z" />
    <glyph glyph-name="ntilde" unicode="&#xf1;" horiz-adv-x="1208" 
d="M492 1503q42 0 76.5 -14.5t57 -35.5t42 -41.5t39.5 -35t41 -14.5q63 0 63 129h162q0 -155 -69.5 -238.5t-174.5 -83.5q-43 0 -76.5 14.5t-53.5 35.5t-37 42t-37 35.5t-44 14.5q-38 0 -52.5 -31.5t-14.5 -97.5h-164q0 160 68.5 240.5t173.5 80.5zM705 1059
q188 0 289.5 -123.5t101.5 -337.5v-598h-303v582q0 87 -45.5 139.5t-124.5 52.5q-118 0 -195 -121v-653h-303v1038h272l15 -114q41 60 116.5 97.5t176.5 37.5z" />
    <glyph glyph-name="ograve" unicode="&#xf2;" 
d="M475 1470l273 -296h-261l-354 296h342zM608 1059q236 0 392.5 -155t156.5 -388q0 -153 -71 -276t-196.5 -191.5t-281.5 -68.5q-237 0 -392 151.5t-155 384.5q0 154 70.5 278t196 194.5t280.5 70.5zM608 795q-106 0 -172.5 -78t-66.5 -201q0 -120 66.5 -196t172.5 -76
q107 0 175.5 76t68.5 196q0 123 -68.5 201t-175.5 78z" />
    <glyph glyph-name="oacute" unicode="&#xf3;" 
d="M1069 1470l-354 -296h-260l274 296h340zM608 1059q236 0 392.5 -155t156.5 -388q0 -153 -71 -276t-196.5 -191.5t-281.5 -68.5q-237 0 -392 151.5t-155 384.5q0 154 70.5 278t196 194.5t280.5 70.5zM608 795q-106 0 -172.5 -78t-66.5 -201q0 -120 66.5 -196t172.5 -76
q107 0 175.5 76t68.5 196q0 123 -68.5 201t-175.5 78z" />
    <glyph glyph-name="ocircumflex" unicode="&#xf4;" 
d="M608 1571l342 -395h-231l-111 116l-110 -116h-232zM608 1059q236 0 392.5 -155t156.5 -388q0 -153 -71 -276t-196.5 -191.5t-281.5 -68.5q-237 0 -392 151.5t-155 384.5q0 154 70.5 278t196 194.5t280.5 70.5zM608 795q-106 0 -172.5 -78t-66.5 -201q0 -120 66.5 -196
t172.5 -76q107 0 175.5 76t68.5 196q0 123 -68.5 201t-175.5 78z" />
    <glyph glyph-name="otilde" unicode="&#xf5;" 
d="M489 1503q42 0 76.5 -14.5t57 -35.5t42 -41.5t39.5 -35t41 -14.5q64 0 64 129h162q0 -155 -69.5 -238.5t-174.5 -83.5q-43 0 -76.5 14.5t-53.5 35.5t-37 42t-37 35.5t-44 14.5q-38 0 -52.5 -31.5t-14.5 -97.5h-164q0 160 68.5 240.5t172.5 80.5zM608 1059
q236 0 392.5 -155t156.5 -388q0 -153 -71 -276t-196.5 -191.5t-281.5 -68.5q-237 0 -392 151.5t-155 384.5q0 154 70.5 278t196 194.5t280.5 70.5zM608 795q-106 0 -172.5 -78t-66.5 -201q0 -120 66.5 -196t172.5 -76q107 0 175.5 76t68.5 196q0 123 -68.5 201t-175.5 78z
" />
    <glyph glyph-name="odieresis" unicode="&#xf6;" 
d="M412 1473q64 0 104.5 -40.5t40.5 -103.5t-40.5 -103t-104.5 -40q-63 0 -103.5 40t-40.5 103t40.5 103.5t103.5 40.5zM805 1473q63 0 104 -40.5t41 -103.5t-41 -103t-104 -40t-103 40t-40 103t40 103.5t103 40.5zM608 1059q236 0 392.5 -155t156.5 -388q0 -153 -71 -276
t-196.5 -191.5t-281.5 -68.5q-237 0 -392 151.5t-155 384.5q0 154 70.5 278t196 194.5t280.5 70.5zM608 795q-106 0 -172.5 -78t-66.5 -201q0 -120 66.5 -196t172.5 -76q107 0 175.5 76t68.5 196q0 123 -68.5 201t-175.5 78z" />
    <glyph glyph-name="divide" unicode="&#xf7;" horiz-adv-x="1050" 
d="M522 1323q76 0 126 -50.5t50 -125.5t-50 -124.5t-126 -49.5q-74 0 -123 49.5t-49 124.5t49.5 125.5t122.5 50.5zM977 854v-276h-903v276h903zM522 457q76 0 126 -49.5t50 -126.5q0 -74 -50 -124.5t-126 -50.5q-73 0 -122.5 50.5t-49.5 124.5q0 76 49 126t123 50z" />
    <glyph glyph-name="oslash" unicode="&#xf8;" 
d="M942 954q101 -73 158 -186.5t57 -251.5q0 -153 -71 -276t-196.5 -191.5t-281.5 -68.5q-91 0 -180 26l-82 -149h-190l120 223q-101 73 -158 186.5t-57 249.5q0 154 70.5 278t196 194.5t280.5 70.5q93 0 185 -29l81 152h191zM352 516q0 -112 60 -190l258 477q-27 8 -62 8
q-112 0 -184 -84t-72 -211zM608 227q112 0 185 82t73 207q0 114 -57 193l-258 -476q27 -6 57 -6z" />
    <glyph glyph-name="ugrave" unicode="&#xf9;" horiz-adv-x="1202" 
d="M467 1470l272 -296h-260l-354 296h342zM1075 1038v-1038h-270l-14 113q-96 -133 -302 -133q-181 0 -277.5 121.5t-96.5 334.5v602h303v-585q0 -87 41 -138t116 -51q116 0 197 121v653h303z" />
    <glyph glyph-name="uacute" unicode="&#xfa;" horiz-adv-x="1202" 
d="M1061 1470l-354 -296h-261l275 296h340zM1075 1038v-1038h-270l-14 113q-96 -133 -302 -133q-181 0 -277.5 121.5t-96.5 334.5v602h303v-585q0 -87 41 -138t116 -51q116 0 197 121v653h303z" />
    <glyph glyph-name="ucircumflex" unicode="&#xfb;" horiz-adv-x="1202" 
d="M600 1571l342 -395h-231l-111 116l-111 -116h-231zM1075 1038v-1038h-270l-14 113q-96 -133 -302 -133q-181 0 -277.5 121.5t-96.5 334.5v602h303v-585q0 -87 41 -138t116 -51q116 0 197 121v653h303z" />
    <glyph glyph-name="udieresis" unicode="&#xfc;" horiz-adv-x="1202" 
d="M403 1473q64 0 105 -40.5t41 -103.5t-41 -103t-105 -40q-63 0 -103 40t-40 103t40 103.5t103 40.5zM797 1473q63 0 104 -40.5t41 -103.5t-41 -103t-104 -40t-103.5 40t-40.5 103t40.5 103.5t103.5 40.5zM1075 1038v-1038h-270l-14 113q-96 -133 -302 -133
q-181 0 -277.5 121.5t-96.5 334.5v602h303v-585q0 -87 41 -138t116 -51q116 0 197 121v653h303z" />
    <glyph glyph-name="yacute" unicode="&#xfd;" horiz-adv-x="1161" 
d="M1014 1470l-355 -296h-260l275 296h340zM1155 1038l-807 -1509h-346l416 733l-412 776h332l240 -520l245 520h332z" />
    <glyph glyph-name="thorn" unicode="&#xfe;" horiz-adv-x="1243" 
d="M432 1556v-612q45 51 118 83t169 32q204 0 333.5 -153t129.5 -388t-129.5 -386.5t-333.5 -151.5q-189 0 -287 114v-565h-303v2027h303zM645 795q-138 0 -213 -129v-293q75 -129 213 -129q104 0 168 74t64 200t-64 201.5t-168 75.5z" />
    <glyph glyph-name="ydieresis" unicode="&#xff;" horiz-adv-x="1161" 
d="M356 1473q64 0 105 -40.5t41 -103.5t-41 -103t-105 -40q-63 0 -103 40t-40 103t40 103.5t103 40.5zM750 1473q63 0 104 -40.5t41 -103.5t-41 -103t-104 -40t-103.5 40t-40.5 103t40.5 103.5t103.5 40.5zM1155 1038l-807 -1509h-346l416 733l-412 776h332l240 -520
l245 520h332z" />
    <glyph glyph-name="Amacron" unicode="&#x100;" horiz-adv-x="1484" 
d="M1022 1829v-201h-563v201h563zM745 1532l730 -1532h-349l-96 231h-575l-99 -231h-346l727 1532h8zM741 926l-188 -449h379z" />
    <glyph glyph-name="amacron" unicode="&#x101;" horiz-adv-x="1226" 
d="M891 1415v-203h-563v203h563zM518 1059q201 0 297 -137l14 116h273v-1038h-273l-14 115q-43 -60 -118 -97.5t-179 -37.5q-203 0 -330 151.5t-127 386.5t127.5 388t329.5 153zM592 795q-100 0 -161.5 -75t-61.5 -202q0 -126 61 -200t162 -74q129 0 207 129v293
q-78 129 -207 129z" />
    <glyph glyph-name="Abreve" unicode="&#x102;" horiz-adv-x="1484" 
d="M1079 1927q0 -142 -96.5 -236t-241.5 -94q-146 0 -243 94t-97 236h205q0 -69 37.5 -114.5t97.5 -45.5t96.5 45.5t36.5 114.5h205zM745 1532l730 -1532h-349l-96 231h-575l-99 -231h-346l727 1532h8zM741 926l-188 -449h379z" />
    <glyph glyph-name="abreve" unicode="&#x103;" horiz-adv-x="1226" 
d="M946 1509q0 -149 -96.5 -246.5t-241.5 -97.5q-147 0 -243.5 97.5t-96.5 246.5h207q0 -65 37.5 -107t95.5 -42t95.5 42t37.5 107h205zM518 1059q201 0 297 -137l14 116h273v-1038h-273l-14 115q-43 -60 -118 -97.5t-179 -37.5q-203 0 -330 151.5t-127 386.5t127.5 388
t329.5 153zM592 795q-100 0 -161.5 -75t-61.5 -202q0 -126 61 -200t162 -74q129 0 207 129v293q-78 129 -207 129z" />
    <glyph glyph-name="Aogonek" unicode="&#x104;" horiz-adv-x="1484" 
d="M1434 -287l55 -157q-62 -27 -139 -27q-128 0 -213.5 71.5t-85.5 206.5q0 117 71 205l-92 219h-575l-99 -231h-346l727 1532h8l730 -1532h-101q-133 -72 -133 -190q0 -53 32.5 -82t82.5 -29q36 0 78 14zM553 477h379l-191 449z" />
    <glyph glyph-name="aogonek" unicode="&#x105;" horiz-adv-x="1226" 
d="M1130 -287l56 -157q-62 -27 -139 -27q-128 0 -213.5 71.5t-85.5 206.5q0 124 79 216l-12 92q-43 -60 -118 -97.5t-179 -37.5q-203 0 -330 151.5t-127 386.5t127.5 388t329.5 153q201 0 297 -137l14 116h273v-1038h-31q-133 -72 -133 -190q0 -53 32.5 -82t82.5 -29
q35 0 77 14zM799 373v293q-78 129 -207 129q-100 0 -161.5 -75t-61.5 -202q0 -126 61 -200t162 -74q129 0 207 129z" />
    <glyph glyph-name="Cacute" unicode="&#x106;" horiz-adv-x="1423" 
d="M1276 1868l-322 -246h-292l258 246h356zM838 1532q178 0 308 -55t240 -170l-196 -230q-143 168 -352 168q-201 0 -326 -137.5t-125 -353.5q0 -217 125 -355.5t326 -138.5q213 0 356 172l197 -229q-110 -121 -245 -175.5t-308 -54.5q-132 0 -251 38t-212.5 108.5
t-162.5 166.5t-105.5 216t-36.5 252q0 164 57.5 308.5t158.5 247.5t244 162.5t308 59.5z" />
    <glyph glyph-name="cacute" unicode="&#x107;" horiz-adv-x="1056" 
d="M1055 1470l-355 -296h-260l275 296h340zM600 1059q279 0 426 -240l-211 -155q-73 133 -213 133q-110 0 -171.5 -78.5t-61.5 -200.5q0 -120 62.5 -198t174.5 -78q137 0 217 133l205 -150q-68 -117 -176.5 -181t-251.5 -64q-236 0 -387.5 152t-151.5 386t152 387.5
t387 153.5z" />
    <glyph glyph-name="Ccircumflex" unicode="&#x108;" horiz-adv-x="1423" 
d="M831 1939l357 -317h-238l-119 100l-118 -100h-240zM838 1532q178 0 308 -55t240 -170l-196 -230q-143 168 -352 168q-201 0 -326 -137.5t-125 -353.5q0 -217 125 -355.5t326 -138.5q213 0 356 172l197 -229q-110 -121 -245 -175.5t-308 -54.5q-132 0 -251 38
t-212.5 108.5t-162.5 166.5t-105.5 216t-36.5 252q0 164 57.5 308.5t158.5 247.5t244 162.5t308 59.5z" />
    <glyph glyph-name="ccircumflex" unicode="&#x109;" horiz-adv-x="1056" 
d="M592 1571l342 -395h-232l-110 116l-111 -116h-231zM600 1059q279 0 426 -240l-211 -155q-73 133 -213 133q-110 0 -171.5 -78.5t-61.5 -200.5q0 -120 62.5 -198t174.5 -78q137 0 217 133l205 -150q-68 -117 -176.5 -181t-251.5 -64q-236 0 -387.5 152t-151.5 386
t152 387.5t387 153.5z" />
    <glyph glyph-name="Cdotaccent" unicode="&#x10a;" horiz-adv-x="1423" 
d="M831 1952q72 0 118 -46.5t46 -117.5q0 -72 -46 -118t-118 -46t-117.5 46t-45.5 118q0 71 45.5 117.5t117.5 46.5zM838 1532q178 0 308 -55t240 -170l-196 -230q-143 168 -352 168q-201 0 -326 -137.5t-125 -353.5q0 -217 125 -355.5t326 -138.5q213 0 356 172l197 -229
q-110 -121 -245 -175.5t-308 -54.5q-132 0 -251 38t-212.5 108.5t-162.5 166.5t-105.5 216t-36.5 252q0 164 57.5 308.5t158.5 247.5t244 162.5t308 59.5z" />
    <glyph glyph-name="cdotaccent" unicode="&#x10b;" horiz-adv-x="1056" 
d="M594 1522q70 0 117 -47t47 -117q0 -72 -46.5 -118t-117.5 -46q-72 0 -118 46t-46 118q0 71 46 117.5t118 46.5zM600 1059q279 0 426 -240l-211 -155q-73 133 -213 133q-110 0 -171.5 -78.5t-61.5 -200.5q0 -120 62.5 -198t174.5 -78q137 0 217 133l205 -150
q-68 -117 -176.5 -181t-251.5 -64q-236 0 -387.5 152t-151.5 386t152 387.5t387 153.5z" />
    <glyph glyph-name="Ccaron" unicode="&#x10c;" horiz-adv-x="1423" 
d="M1192 1915l-356 -318l-359 318h240l119 -98l118 98h238zM838 1532q178 0 308 -55t240 -170l-196 -230q-143 168 -352 168q-201 0 -326 -137.5t-125 -353.5q0 -217 125 -355.5t326 -138.5q213 0 356 172l197 -229q-110 -121 -245 -175.5t-308 -54.5q-132 0 -251 38
t-212.5 108.5t-162.5 166.5t-105.5 216t-36.5 252q0 164 57.5 308.5t158.5 247.5t244 162.5t308 59.5z" />
    <glyph glyph-name="ccaron" unicode="&#x10d;" horiz-adv-x="1056" 
d="M934 1550l-342 -395l-342 395h231l111 -116l110 116h232zM600 1059q279 0 426 -240l-211 -155q-73 133 -213 133q-110 0 -171.5 -78.5t-61.5 -200.5q0 -120 62.5 -198t174.5 -78q137 0 217 133l205 -150q-68 -117 -176.5 -181t-251.5 -64q-236 0 -387.5 152t-151.5 386
t152 387.5t387 153.5z" />
    <glyph glyph-name="Dcaron" unicode="&#x10e;" horiz-adv-x="1521" 
d="M1047 1894l-357 -317l-358 317h239l119 -98l119 98h238zM629 1505q387 0 605 -198t218 -553q0 -356 -217 -555t-606 -199h-479v1505h479zM618 1217h-155v-930h155q252 0 384.5 121.5t132.5 343.5q0 223 -132.5 344t-384.5 121z" />
    <glyph glyph-name="dcaron" unicode="&#x10f;" horiz-adv-x="1243" 
d="M1331 1561q71 0 114.5 -41t43.5 -103q0 -44 -17.5 -74t-56.5 -63l-155 -152h-9v420q37 13 80 13zM1116 1556v-1556h-272l-15 115q-43 -60 -121 -97.5t-182 -37.5q-206 0 -335.5 151.5t-129.5 386.5t130 388t335 153q188 0 287 -115v612h303zM600 795q-104 0 -167.5 -75.5
t-63.5 -201.5t63.5 -200t167.5 -74q135 0 213 129v291q-78 131 -213 131z" />
    <glyph glyph-name="Dcroat" unicode="&#x110;" horiz-adv-x="1556" 
d="M664 1505q387 0 605 -198t218 -553q0 -356 -217 -555t-606 -199h-480v676h-170v201h170v628h480zM653 287q252 0 384 121.5t132 343.5q0 223 -132 344t-384 121h-155v-340h209v-201h-209v-389h155z" />
    <glyph glyph-name="dcroat" unicode="&#x111;" horiz-adv-x="1243" 
d="M1253 1386v-202h-137v-1184h-272l-15 115q-43 -60 -121 -97.5t-182 -37.5q-206 0 -335.5 151.5t-129.5 386.5t130 388t335 153q188 0 287 -115v240h-254v202h254v170h303v-170h137zM813 373v291q-78 131 -213 131q-104 0 -167.5 -75.5t-63.5 -201.5t63.5 -200t167.5 -74
q135 0 213 129z" />
    <glyph glyph-name="Emacron" unicode="&#x112;" 
d="M942 1829v-201h-563v201h563zM1122 1505v-286h-659v-322h573v-268h-573v-342h676v-287h-989v1505h972z" />
    <glyph glyph-name="emacron" unicode="&#x113;" horiz-adv-x="1134" 
d="M866 1415v-203h-563v203h563zM586 1059q119 0 212.5 -42t152 -115t88.5 -167t30 -203v-96h-700q4 -98 69 -152.5t176 -54.5q76 0 137 29t97 76l201 -154q-156 -200 -443 -200q-244 0 -394.5 150.5t-150.5 385.5t147.5 389t377.5 154zM575 831q-90 0 -146.5 -57
t-59.5 -147h401q-3 91 -54 147.5t-141 56.5z" />
    <glyph glyph-name="Ebreve" unicode="&#x114;" 
d="M997 1927q0 -142 -96.5 -236t-241.5 -94q-146 0 -243 94t-97 236h205q0 -69 37.5 -114.5t97.5 -45.5t97 45.5t37 114.5h204zM1122 1505v-286h-659v-322h573v-268h-573v-342h676v-287h-989v1505h972z" />
    <glyph glyph-name="ebreve" unicode="&#x115;" horiz-adv-x="1134" 
d="M924 1509q0 -149 -96.5 -246.5t-241.5 -97.5q-147 0 -243.5 97.5t-96.5 246.5h207q0 -65 37.5 -107t95.5 -42t95.5 42t37.5 107h205zM586 1059q119 0 212.5 -42t152 -115t88.5 -167t30 -203v-96h-700q4 -98 69 -152.5t176 -54.5q76 0 137 29t97 76l201 -154
q-156 -200 -443 -200q-244 0 -394.5 150.5t-150.5 385.5t147.5 389t377.5 154zM575 831q-90 0 -146.5 -57t-59.5 -147h401q-3 91 -54 147.5t-141 56.5z" />
    <glyph glyph-name="Edotaccent" unicode="&#x116;" 
d="M659 1931q72 0 118 -46.5t46 -117.5q0 -72 -46 -117.5t-118 -45.5t-117.5 45.5t-45.5 117.5q0 71 45.5 117.5t117.5 46.5zM1122 1505v-286h-659v-322h573v-268h-573v-342h676v-287h-989v1505h972z" />
    <glyph glyph-name="edotaccent" unicode="&#x117;" horiz-adv-x="1134" 
d="M586 1522q70 0 117 -47t47 -117q0 -72 -46.5 -118t-117.5 -46q-72 0 -118 46t-46 118q0 71 46 117.5t118 46.5zM586 1059q119 0 212.5 -42t152 -115t88.5 -167t30 -203v-96h-700q4 -98 69 -152.5t176 -54.5q76 0 137 29t97 76l201 -154q-156 -200 -443 -200
q-244 0 -394.5 150.5t-150.5 385.5t147.5 389t377.5 154zM575 831q-90 0 -146.5 -57t-59.5 -147h401q-3 91 -54 147.5t-141 56.5z" />
    <glyph glyph-name="Eogonek" unicode="&#x118;" 
d="M1094 -287l55 -157q-62 -27 -139 -27q-128 0 -213.5 71.5t-85.5 206.5q0 109 61 193h-622v1505h972v-286h-659v-322h573v-268h-573v-342h676v-287h-105q-133 -72 -133 -190q0 -53 32.5 -82t82.5 -29q36 0 78 14z" />
    <glyph glyph-name="eogonek" unicode="&#x119;" horiz-adv-x="1134" 
d="M1069 532v-96h-700q4 -98 69 -152.5t176 -54.5q76 0 137 29t97 76l201 -154q-71 -92 -181 -145q-125 -71 -125 -187q0 -53 32.5 -81.5t82.5 -28.5q36 0 78 14l55 -158q-60 -26 -139 -26q-128 0 -213.5 71.5t-85.5 206.5q0 71 29 134q-233 9 -377 158t-144 378
q0 235 147.5 389t377.5 154q119 0 212.5 -42t152 -115t88.5 -167t30 -203zM369 627h401q-3 91 -54 147.5t-141 56.5t-146.5 -57t-59.5 -147z" />
    <glyph glyph-name="Ecaron" unicode="&#x11a;" 
d="M1020 1894l-356 -317l-359 317h240l119 -98l118 98h238zM1122 1505v-286h-659v-322h573v-268h-573v-342h676v-287h-989v1505h972z" />
    <glyph glyph-name="ecaron" unicode="&#x11b;" horiz-adv-x="1134" 
d="M926 1550l-342 -395l-342 395h231l111 -116l110 116h232zM586 1059q119 0 212.5 -42t152 -115t88.5 -167t30 -203v-96h-700q4 -98 69 -152.5t176 -54.5q76 0 137 29t97 76l201 -154q-156 -200 -443 -200q-244 0 -394.5 150.5t-150.5 385.5t147.5 389t377.5 154zM575 831
q-90 0 -146.5 -57t-59.5 -147h401q-3 91 -54 147.5t-141 56.5z" />
    <glyph glyph-name="Gcircumflex" unicode="&#x11c;" horiz-adv-x="1542" 
d="M831 1939l357 -317h-238l-119 100l-118 -100h-240zM836 1532q179 0 309.5 -55t240.5 -170l-196 -230q-143 168 -354 168q-201 0 -325 -137t-124 -354t131 -355.5t346 -138.5q129 0 246 74v244h-324v270h637v-668q-216 -207 -559 -207q-171 0 -319.5 59.5t-252.5 163.5
t-163 248.5t-59 309.5q0 164 57.5 308.5t158 247.5t243 162.5t307.5 59.5z" />
    <glyph glyph-name="gcircumflex" unicode="&#x11d;" horiz-adv-x="1239" 
d="M598 1571l342 -395h-231l-111 116l-111 -116h-231zM524 1059q106 0 183 -37.5t120 -99.5l17 116h270v-995q0 -248 -150 -391.5t-403 -143.5q-169 0 -291 58t-219 164l199 200q65 -75 137 -116t170 -41q118 0 185 73t69 191v80q-97 -113 -287 -113q-206 0 -334.5 148
t-128.5 378q0 231 129 380t334 149zM598 795q-104 0 -167.5 -71.5t-63.5 -193.5t63.5 -193t167.5 -71q133 0 213 131v269q-78 129 -213 129z" />
    <glyph glyph-name="Gbreve" unicode="&#x11e;" horiz-adv-x="1542" 
d="M1169 1948q0 -142 -96.5 -236t-241.5 -94q-146 0 -242.5 94t-96.5 236h204q0 -69 37.5 -114.5t97.5 -45.5t97 45.5t37 114.5h204zM836 1532q179 0 309.5 -55t240.5 -170l-196 -230q-143 168 -354 168q-201 0 -325 -137t-124 -354t131 -355.5t346 -138.5q129 0 246 74v244
h-324v270h637v-668q-216 -207 -559 -207q-171 0 -319.5 59.5t-252.5 163.5t-163 248.5t-59 309.5q0 164 57.5 308.5t158 247.5t243 162.5t307.5 59.5z" />
    <glyph glyph-name="gbreve" unicode="&#x11f;" horiz-adv-x="1239" 
d="M938 1509q0 -149 -96.5 -246.5t-241.5 -97.5q-147 0 -243.5 97.5t-96.5 246.5h207q0 -65 37.5 -107t95.5 -42t95.5 42t37.5 107h205zM524 1059q106 0 183 -37.5t120 -99.5l17 116h270v-995q0 -248 -150 -391.5t-403 -143.5q-169 0 -291 58t-219 164l199 200
q65 -75 137 -116t170 -41q118 0 185 73t69 191v80q-97 -113 -287 -113q-206 0 -334.5 148t-128.5 378q0 231 129 380t334 149zM598 795q-104 0 -167.5 -71.5t-63.5 -193.5t63.5 -193t167.5 -71q133 0 213 131v269q-78 129 -213 129z" />
    <glyph glyph-name="Gdotaccent" unicode="&#x120;" horiz-adv-x="1542" 
d="M831 1952q72 0 118 -46.5t46 -117.5q0 -72 -46 -118t-118 -46t-117.5 46t-45.5 118q0 71 45.5 117.5t117.5 46.5zM836 1532q179 0 309.5 -55t240.5 -170l-196 -230q-143 168 -354 168q-201 0 -325 -137t-124 -354t131 -355.5t346 -138.5q129 0 246 74v244h-324v270h637
v-668q-216 -207 -559 -207q-171 0 -319.5 59.5t-252.5 163.5t-163 248.5t-59 309.5q0 164 57.5 308.5t158 247.5t243 162.5t307.5 59.5z" />
    <glyph glyph-name="gdotaccent" unicode="&#x121;" horiz-adv-x="1239" 
d="M600 1522q70 0 117 -47t47 -117q0 -72 -46.5 -118t-117.5 -46q-72 0 -118 46t-46 118q0 71 46 117.5t118 46.5zM524 1059q106 0 183 -37.5t120 -99.5l17 116h270v-995q0 -248 -150 -391.5t-403 -143.5q-169 0 -291 58t-219 164l199 200q65 -75 137 -116t170 -41
q118 0 185 73t69 191v80q-97 -113 -287 -113q-206 0 -334.5 148t-128.5 378q0 231 129 380t334 149zM598 795q-104 0 -167.5 -71.5t-63.5 -193.5t63.5 -193t167.5 -71q133 0 213 131v269q-78 129 -213 129z" />
    <glyph glyph-name="Gcommaaccent" unicode="&#x122;" horiz-adv-x="1542" 
d="M836 1532q179 0 309.5 -55t240.5 -170l-196 -230q-143 168 -354 168q-201 0 -325 -137t-124 -354t131 -355.5t346 -138.5q129 0 246 74v244h-324v270h637v-668q-216 -207 -559 -207q-171 0 -319.5 59.5t-252.5 163.5t-163 248.5t-59 309.5q0 164 57.5 308.5t158 247.5
t243 162.5t307.5 59.5zM795 -92q68 0 112.5 -35.5t44.5 -89.5q0 -44 -19 -75t-61 -62l-149 -117h-8v367q34 12 80 12z" />
    <glyph glyph-name="gcommaaccent" unicode="&#x123;" horiz-adv-x="1239" 
d="M633 1149q-68 0 -113 35.5t-45 89.5q0 44 19 75t61 62l150 117h8v-367q-35 -12 -80 -12zM524 1059q106 0 183 -37.5t120 -99.5l17 116h270v-995q0 -248 -150 -391.5t-403 -143.5q-169 0 -291 58t-219 164l199 200q65 -75 137 -116t170 -41q118 0 185 73t69 191v80
q-97 -113 -287 -113q-206 0 -334.5 148t-128.5 378q0 231 129 380t334 149zM598 795q-104 0 -167.5 -71.5t-63.5 -193.5t63.5 -193t167.5 -71q133 0 213 131v269q-78 129 -213 129z" />
    <glyph glyph-name="Hcircumflex" unicode="&#x124;" horiz-adv-x="1536" 
d="M768 1919l356 -317h-237l-119 100l-119 -100h-239zM1386 1505v-1505h-313v627h-610v-627h-313v1505h313v-592h610v592h313z" />
    <glyph glyph-name="hcircumflex" unicode="&#x125;" horiz-adv-x="1216" 
d="M289 1929l358 -317h-239l-119 100l-119 -100h-240zM432 1556v-610q101 113 275 113q188 0 289.5 -123.5t101.5 -337.5v-598h-303v582q0 87 -45.5 139.5t-122.5 52.5q-122 0 -195 -121v-653h-303v1556h303z" />
    <glyph glyph-name="Hbar" unicode="&#x126;" horiz-adv-x="1591" 
d="M1567 1282v-201h-154v-1081h-313v612h-611v-612h-313v1081h-153v201h153v223h313v-223h611v223h313v-223h154zM1100 883v198h-611v-198h611z" />
    <glyph glyph-name="hbar" unicode="&#x127;" horiz-adv-x="1212" 
d="M707 1059q188 0 289.5 -123.5t101.5 -337.5v-598h-303v582q0 87 -45.5 139.5t-122.5 52.5q-122 0 -195 -121v-653h-303v1184h-139v202h139v170h303v-170h252v-202h-252v-238q101 113 275 113z" />
    <glyph glyph-name="Itilde" unicode="&#x128;" horiz-adv-x="614" 
d="M188 1915q42 0 76.5 -14.5t57 -35t42 -40.5t39.5 -34.5t41 -14.5q64 0 64 127h162q0 -149 -69.5 -229.5t-174.5 -80.5q-43 0 -76.5 14.5t-53.5 35.5t-37 42t-37 35.5t-44 14.5q-38 0 -52.5 -31.5t-14.5 -97.5h-164q0 154 68 231.5t173 77.5zM463 1505v-1505h-313v1505
h313z" />
    <glyph glyph-name="itilde" unicode="&#x129;" horiz-adv-x="579" 
d="M172 1503q41 0 75 -14.5t56.5 -35.5t42 -41.5t39.5 -35t41 -14.5q63 0 63 129h162q0 -156 -68.5 -239t-172.5 -83q-44 0 -77.5 14.5t-54 35.5t-37.5 42t-37 35.5t-44 14.5q-38 0 -53 -32t-15 -97h-164q0 160 69 240.5t175 80.5zM428 1038v-1038h-303v1038h303z" />
    <glyph glyph-name="Imacron" unicode="&#x12a;" horiz-adv-x="614" 
d="M590 1829v-201h-563v201h563zM463 1505v-1505h-313v1505h313z" />
    <glyph glyph-name="imacron" unicode="&#x12b;" horiz-adv-x="579" 
d="M571 1415v-203h-561v203h561zM428 1038v-1038h-303v1038h303z" />
    <glyph glyph-name="Ibreve" unicode="&#x12c;" horiz-adv-x="614" 
d="M645 1927q0 -142 -96.5 -236t-241.5 -94q-146 0 -243 94t-97 236h205q0 -69 37.5 -114.5t97.5 -45.5t96.5 45.5t36.5 114.5h205zM463 1505v-1505h-313v1505h313z" />
    <glyph glyph-name="ibreve" unicode="&#x12d;" horiz-adv-x="579" 
d="M629 1509q0 -149 -96.5 -246.5t-241.5 -97.5q-147 0 -243.5 97.5t-96.5 246.5h205q0 -65 37.5 -107t97.5 -42q57 0 94 42t37 107h207zM428 1038v-1038h-303v1038h303z" />
    <glyph glyph-name="Iogonek" unicode="&#x12e;" horiz-adv-x="614" 
d="M430 -287l55 -157q-62 -27 -139 -27q-128 0 -213.5 71.5t-85.5 206.5q0 137 103 240v1458h313v-1505h-92q-133 -72 -133 -190q0 -53 32 -82t82 -29q36 0 78 14z" />
    <glyph glyph-name="iogonek" unicode="&#x12f;" horiz-adv-x="552" 
d="M276 1188q-76 0 -126 50.5t-50 127.5t50 127.5t126 50.5q77 0 128 -51t51 -127t-51 -127t-128 -51zM430 -287l55 -157q-62 -27 -139 -27q-128 0 -213.5 71.5t-85.5 206.5q0 122 78 213v1018h303v-1038h-57q-133 -72 -133 -190q0 -53 32 -82t82 -29q36 0 78 14z" />
    <glyph glyph-name="Idotaccent" unicode="&#x130;" horiz-adv-x="614" 
d="M307 1931q72 0 118 -46.5t46 -117.5q0 -72 -46 -117.5t-118 -45.5t-118 45.5t-46 117.5q0 71 46 117.5t118 46.5zM463 1505v-1505h-313v1505h313z" />
    <glyph glyph-name="dotlessi" unicode="&#x131;" horiz-adv-x="552" 
d="M428 1038v-1038h-303v1038h303z" />
    <glyph glyph-name="IJ" unicode="&#x132;" horiz-adv-x="1728" 
d="M463 1505v-1505h-313v1505h313zM1602 1505v-1054q0 -211 -139 -344.5t-357 -133.5q-101 0 -191 34.5t-161 99.5t-112.5 168t-41.5 231h303q0 -119 49.5 -182.5t143.5 -63.5q90 0 141 56t51 151v1038h314z" />
    <glyph glyph-name="ij" unicode="&#x133;" horiz-adv-x="1103" 
d="M827 1544q75 0 126 -51t51 -127t-51 -127t-126 -51q-78 0 -128 50.5t-50 127.5t50 127.5t128 50.5zM276 1544q77 0 128 -51t51 -127t-51 -127t-128 -51q-76 0 -126 50.5t-50 127.5t50 127.5t126 50.5zM535 -492q-181 0 -297 99l159 219q64 -53 135 -53q64 0 104 41
t40 112v1112h303v-1095q0 -187 -125.5 -311t-318.5 -124zM428 1038v-1038h-303v1038h303z" />
    <glyph glyph-name="Jcircumflex" unicode="&#x134;" horiz-adv-x="1163" 
d="M874 1919l357 -317h-238l-119 100l-118 -100h-240zM1036 1505v-1054q0 -212 -138 -345t-355 -133q-101 0 -191.5 34.5t-162 99.5t-113 168t-41.5 231h305q0 -119 49 -182.5t141 -63.5q90 0 141.5 56t51.5 151v1038h313z" />
    <glyph glyph-name="jcircumflex" unicode="&#x135;" horiz-adv-x="565" 
d="M291 1571l342 -395h-232l-110 116l-111 -116h-231zM-4 -492q-178 0 -297 99l162 219q64 -53 133 -53q65 0 104 41t39 112v1112h303v-1095q0 -187 -125 -311t-319 -124z" />
    <glyph glyph-name="Kcommaaccent" unicode="&#x136;" horiz-adv-x="1437" 
d="M1356 1505l-465 -727l522 -778h-377l-323 496l-326 -496h-237v1505h313v-901l536 901h357zM686 -92q68 0 113 -35.5t45 -89.5q0 -44 -19 -75t-61 -62l-150 -117h-8v367q34 12 80 12z" />
    <glyph glyph-name="kcommaaccent" unicode="&#x137;" horiz-adv-x="1175" 
d="M432 1556v-1069l363 551h344l-316 -436l346 -602h-346l-200 350l-256 -350h-238v1556h303zM573 -92q68 0 113 -35.5t45 -89.5q0 -44 -19 -75t-61 -62l-149 -117h-8v367q34 12 79 12z" />
    <glyph glyph-name="Lacute" unicode="&#x139;" horiz-adv-x="1126" 
d="M758 1847l-322 -245h-293l258 245h357zM463 1505v-1229h641v-276h-954v1505h313z" />
    <glyph glyph-name="lacute" unicode="&#x13a;" horiz-adv-x="569" 
d="M735 1864l-321 -244h-293l256 244h358zM432 1556v-1556h-303v1556h303z" />
    <glyph glyph-name="Lcommaaccent" unicode="&#x13b;" horiz-adv-x="1126" 
d="M463 1505v-1229h641v-276h-954v1505h313zM594 -92q68 0 113 -35.5t45 -89.5q0 -44 -19 -75t-61 -62l-150 -117h-8v367q34 12 80 12z" />
    <glyph glyph-name="lcommaaccent" unicode="&#x13c;" horiz-adv-x="559" 
d="M432 1556v-1556h-303v1556h303zM238 -92q68 0 112.5 -35.5t44.5 -89.5q0 -44 -19 -75t-61 -62l-149 -117h-8v367q34 12 80 12z" />
    <glyph glyph-name="Lcaron" unicode="&#x13d;" horiz-adv-x="1126" 
d="M717 1520q71 0 114 -40.5t43 -103.5q0 -43 -17.5 -73.5t-55.5 -63.5l-156 -152h-8v420q37 13 80 13zM463 1505v-1229h641v-276h-954v1505h313z" />
    <glyph glyph-name="lcaron" unicode="&#x13e;" horiz-adv-x="559" 
d="M643 1561q71 0 114.5 -41t43.5 -103q0 -44 -17.5 -74t-56.5 -63l-156 -152h-8v420q37 13 80 13zM432 1556v-1556h-303v1556h303z" />
    <glyph glyph-name="Ldot" unicode="&#x13f;" horiz-adv-x="1126" 
d="M463 1505v-1229h641v-276h-954v1505h313zM827 924q79 0 132 -52.5t53 -130.5q0 -79 -52.5 -131.5t-132.5 -52.5q-79 0 -131.5 52.5t-52.5 131.5q0 78 52.5 130.5t131.5 52.5z" />
    <glyph glyph-name="ldot" unicode="&#x140;" horiz-adv-x="1015" 
d="M432 1556v-1556h-303v1556h303zM791 709q79 0 130.5 -52.5t51.5 -130.5q0 -80 -51.5 -132t-130.5 -52q-80 0 -132.5 52.5t-52.5 131.5q0 78 53 130.5t132 52.5z" />
    <glyph glyph-name="Lslash" unicode="&#x141;" horiz-adv-x="1189" 
d="M526 276h641v-276h-954v494l-145 -58l-78 221l223 88v760h313v-635l179 70l79 -219l-258 -103v-342z" />
    <glyph glyph-name="lslash" unicode="&#x142;" horiz-adv-x="641" 
d="M682 750l-213 -91v-659h-303v530l-133 -57l-74 186l207 89v808h303v-679l139 59z" />
    <glyph glyph-name="Nacute" unicode="&#x143;" horiz-adv-x="1509" 
d="M1184 1847l-322 -245h-293l258 245h357zM158 1532l889 -862v835h313v-1532h-8l-889 865v-838h-313v1532h8z" />
    <glyph glyph-name="nacute" unicode="&#x144;" horiz-adv-x="1208" 
d="M1071 1470l-354 -296h-260l274 296h340zM705 1059q188 0 289.5 -123.5t101.5 -337.5v-598h-303v582q0 87 -45.5 139.5t-124.5 52.5q-118 0 -195 -121v-653h-303v1038h272l15 -114q41 60 116.5 97.5t176.5 37.5z" />
    <glyph glyph-name="Ncommaaccent" unicode="&#x145;" horiz-adv-x="1509" 
d="M158 1532l889 -862v835h313v-1532h-8l-889 865v-838h-313v1532h8zM799 -92q68 0 112.5 -35.5t44.5 -89.5q0 -44 -19 -75.5t-60 -61.5l-150 -117h-8v367q35 12 80 12z" />
    <glyph glyph-name="ncommaaccent" unicode="&#x146;" horiz-adv-x="1208" 
d="M705 1059q188 0 289.5 -123.5t101.5 -337.5v-598h-303v582q0 87 -45.5 139.5t-124.5 52.5q-118 0 -195 -121v-653h-303v1038h272l15 -114q41 60 116.5 97.5t176.5 37.5zM596 -92q68 0 113 -35.5t45 -89.5q0 -44 -19 -75t-61 -62l-150 -117h-8v367q35 12 80 12z" />
    <glyph glyph-name="Ncaron" unicode="&#x147;" horiz-adv-x="1509" 
d="M1102 1894l-357 -317l-358 317h240l118 -98l119 98h238zM158 1532l889 -862v835h313v-1532h-8l-889 865v-838h-313v1532h8z" />
    <glyph glyph-name="ncaron" unicode="&#x148;" horiz-adv-x="1208" 
d="M952 1550l-342 -395l-342 395h232l110 -116l111 116h231zM705 1059q188 0 289.5 -123.5t101.5 -337.5v-598h-303v582q0 87 -45.5 139.5t-124.5 52.5q-118 0 -195 -121v-653h-303v1038h272l15 -114q41 60 116.5 97.5t176.5 37.5z" />
    <glyph glyph-name="Eng" unicode="&#x14a;" horiz-adv-x="1509" 
d="M1047 1505h313v-1519v-13q-5 -207 -145 -336t-361 -129v295q90 0 141.5 55.5t51.5 149.5v262l-584 568v-838h-313v1532h8l889 -862v835z" />
    <glyph glyph-name="eng" unicode="&#x14b;" horiz-adv-x="1208" 
d="M705 1059q188 0 289.5 -123.5t101.5 -337.5v-653q0 -188 -129 -312.5t-324 -124.5v267q68 0 109 39t41 106v662q0 87 -45.5 139.5t-124.5 52.5q-118 0 -195 -121v-653h-303v1038h272l15 -114q41 60 116.5 97.5t176.5 37.5z" />
    <glyph glyph-name="Omacron" unicode="&#x14c;" horiz-adv-x="1687" 
d="M1126 1849v-200h-563v200h563zM844 1532q218 0 395 -100.5t278 -279.5t101 -402q0 -221 -101 -399t-278 -278t-395 -100q-219 0 -396 100t-277.5 278t-100.5 399q0 223 100.5 402t277.5 279.5t396 100.5zM844 1245q-201 0 -329 -138.5t-128 -356.5q0 -214 128 -352
t329 -138q199 0 326.5 138t127.5 352q0 218 -127 356.5t-327 138.5z" />
    <glyph glyph-name="omacron" unicode="&#x14d;" 
d="M891 1415v-203h-563v203h563zM608 1059q236 0 392.5 -155t156.5 -388q0 -153 -71 -276t-196.5 -191.5t-281.5 -68.5q-237 0 -392 151.5t-155 384.5q0 154 70.5 278t196 194.5t280.5 70.5zM608 795q-106 0 -172.5 -78t-66.5 -201q0 -120 66.5 -196t172.5 -76
q107 0 175.5 76t68.5 196q0 123 -68.5 201t-175.5 78z" />
    <glyph glyph-name="Obreve" unicode="&#x14e;" horiz-adv-x="1687" 
d="M1182 1948q0 -142 -96.5 -236t-241.5 -94q-146 0 -243 94t-97 236h205q0 -69 37.5 -114.5t97.5 -45.5t96.5 45.5t36.5 114.5h205zM844 1532q218 0 395 -100.5t278 -279.5t101 -402q0 -221 -101 -399t-278 -278t-395 -100q-219 0 -396 100t-277.5 278t-100.5 399
q0 223 100.5 402t277.5 279.5t396 100.5zM844 1245q-201 0 -329 -138.5t-128 -356.5q0 -214 128 -352t329 -138q199 0 326.5 138t127.5 352q0 218 -127 356.5t-327 138.5z" />
    <glyph glyph-name="obreve" unicode="&#x14f;" 
d="M946 1509q0 -149 -96.5 -246.5t-241.5 -97.5q-147 0 -243.5 97.5t-96.5 246.5h207q0 -65 37.5 -107t95.5 -42t95.5 42t37.5 107h205zM608 1059q236 0 392.5 -155t156.5 -388q0 -153 -71 -276t-196.5 -191.5t-281.5 -68.5q-237 0 -392 151.5t-155 384.5q0 154 70.5 278
t196 194.5t280.5 70.5zM608 795q-106 0 -172.5 -78t-66.5 -201q0 -120 66.5 -196t172.5 -76q107 0 175.5 76t68.5 196q0 123 -68.5 201t-175.5 78z" />
    <glyph glyph-name="Ohungarumlaut" unicode="&#x150;" horiz-adv-x="1687" 
d="M952 1872l-202 -248h-213l168 248h247zM1337 1872l-202 -248h-213l165 248h250zM844 1532q218 0 395 -100.5t278 -279.5t101 -402q0 -221 -101 -399t-278 -278t-395 -100q-219 0 -396 100t-277.5 278t-100.5 399q0 223 100.5 402t277.5 279.5t396 100.5zM844 1245
q-201 0 -329 -138.5t-128 -356.5q0 -214 128 -352t329 -138q199 0 326.5 138t127.5 352q0 218 -127 356.5t-327 138.5z" />
    <glyph glyph-name="ohungarumlaut" unicode="&#x151;" 
d="M723 1477l-211 -308h-215l176 308h250zM1112 1477l-211 -308h-215l176 308h250zM608 1059q236 0 392.5 -155t156.5 -388q0 -153 -71 -276t-196.5 -191.5t-281.5 -68.5q-237 0 -392 151.5t-155 384.5q0 154 70.5 278t196 194.5t280.5 70.5zM608 795q-106 0 -172.5 -78
t-66.5 -201q0 -120 66.5 -196t172.5 -76q107 0 175.5 76t68.5 196q0 123 -68.5 201t-175.5 78z" />
    <glyph glyph-name="OE" unicode="&#x152;" horiz-adv-x="2371" 
d="M1616 287h676v-287h-989v145q-191 -172 -459 -172q-219 0 -396 100t-277.5 278t-100.5 399q0 223 100.5 402t277.5 279.5t396 100.5q266 0 459 -174v147h972v-286h-659v-322h571v-268h-571v-342zM844 258q199 0 326.5 139t127.5 353q0 218 -127 356.5t-327 138.5
q-201 0 -329 -138.5t-128 -356.5q0 -214 128.5 -353t328.5 -139z" />
    <glyph glyph-name="oe" unicode="&#x153;" horiz-adv-x="1921" 
d="M1858 532v-96h-701q4 -98 69.5 -152.5t176.5 -54.5q149 0 233 105l201 -154q-156 -200 -444 -200q-243 0 -394 151q-151 -151 -391 -151q-237 0 -392 151.5t-155 384.5q0 154 70.5 278t196 194.5t280.5 70.5q234 0 389 -152q149 152 377 152q119 0 212.5 -42t152 -115
t89 -167t30.5 -203zM1157 627h402q-3 91 -54 147.5t-141 56.5t-147 -57t-60 -147zM608 244q101 0 169 72.5t73 185.5v14v14q-5 116 -73 190.5t-169 74.5q-104 0 -171.5 -79.5t-67.5 -199.5q0 -117 67.5 -194.5t171.5 -77.5z" />
    <glyph glyph-name="Racute" unicode="&#x154;" horiz-adv-x="1361" 
d="M1102 1847l-322 -245h-293l258 245h357zM1350 0h-367l-315 530h-207v-530h-314v1505h594q108 0 204.5 -33t169.5 -93.5t116 -154t43 -206.5q0 -155 -73.5 -265.5t-201.5 -168.5zM461 1235v-434h250q113 0 179 56.5t66 160.5q0 103 -66.5 160t-178.5 57h-250z" />
    <glyph glyph-name="racute" unicode="&#x155;" horiz-adv-x="741" 
d="M924 1470l-355 -296h-260l275 296h340zM713 1059v-301h-27q-154 0 -258 -137v-621h-303v1038h270l19 -137q41 69 118.5 113.5t180.5 44.5z" />
    <glyph glyph-name="Rcommaaccent" unicode="&#x156;" horiz-adv-x="1361" 
d="M999 584l351 -584h-367l-315 530h-207v-530h-314v1505h594q108 0 204.5 -33t169.5 -93.5t116 -154t43 -206.5q0 -155 -73.5 -265.5t-201.5 -168.5zM461 1235v-434h250q113 0 179 56.5t66 160.5q0 103 -66.5 160t-178.5 57h-250zM674 -92q68 0 112.5 -35.5t44.5 -89.5
q0 -44 -19 -75.5t-60 -61.5l-150 -117h-8v367q34 12 80 12z" />
    <glyph glyph-name="rcommaaccent" unicode="&#x157;" horiz-adv-x="741" 
d="M713 1059v-301h-27q-154 0 -258 -137v-621h-303v1038h270l19 -137q41 69 118.5 113.5t180.5 44.5zM244 -92q68 0 112.5 -35.5t44.5 -89.5q0 -44 -19 -75.5t-60 -61.5l-150 -117h-8v367q34 12 80 12z" />
    <glyph glyph-name="Rcaron" unicode="&#x158;" horiz-adv-x="1361" 
d="M1020 1894l-356 -317l-359 317h240l119 -98l118 98h238zM1350 0h-367l-315 530h-207v-530h-314v1505h594q108 0 204.5 -33t169.5 -93.5t116 -154t43 -206.5q0 -155 -73.5 -265.5t-201.5 -168.5zM461 1235v-434h250q113 0 179 56.5t66 160.5q0 103 -66.5 160t-178.5 57
h-250z" />
    <glyph glyph-name="rcaron" unicode="&#x159;" horiz-adv-x="741" 
d="M803 1550l-342 -395l-342 395h231l111 -116l110 116h232zM713 1059v-301h-27q-154 0 -258 -137v-621h-303v1038h270l19 -137q41 69 118.5 113.5t180.5 44.5z" />
    <glyph glyph-name="Sacute" unicode="&#x15a;" horiz-adv-x="1249" 
d="M1065 1868l-322 -246h-292l258 246h356zM629 1532q156 0 296.5 -44t241.5 -118l-149 -264q-184 143 -391 143q-104 0 -169 -42.5t-65 -121.5q0 -70 58 -110t221 -74q193 -40 306.5 -100.5t159.5 -141.5t46 -200q0 -220 -153.5 -353t-416.5 -133q-173 0 -322.5 52
t-260.5 149l170 258q75 -80 191 -128t233 -48t181 44.5t64 127.5q0 70 -63 113.5t-227 76.5q-144 30 -242 73t-154 100.5t-80 123.5t-24 152q0 203 154 334t395 131z" />
    <glyph glyph-name="sacute" unicode="&#x15b;" horiz-adv-x="958" 
d="M958 1470l-354 -296h-260l274 296h340zM520 1059q106 0 205 -29.5t166 -79.5l-111 -213q-129 88 -262 88t-133 -82q0 -38 37.5 -60t146.5 -48q167 -40 247.5 -115t80.5 -192q0 -158 -122 -253t-331 -95q-119 0 -224.5 31.5t-174.5 86.5l115 217q127 -104 286 -104
q148 0 148 88q0 42 -36 66.5t-136 48.5q-178 44 -258 113.5t-80 189.5q0 158 116 250t320 92z" />
    <glyph glyph-name="Scircumflex" unicode="&#x15c;" horiz-adv-x="1249" 
d="M623 1939l356 -317h-238l-118 100l-119 -100h-240zM629 1532q156 0 296.5 -44t241.5 -118l-149 -264q-184 143 -391 143q-104 0 -169 -42.5t-65 -121.5q0 -70 58 -110t221 -74q193 -40 306.5 -100.5t159.5 -141.5t46 -200q0 -220 -153.5 -353t-416.5 -133
q-173 0 -322.5 52t-260.5 149l170 258q75 -80 191 -128t233 -48t181 44.5t64 127.5q0 70 -63 113.5t-227 76.5q-144 30 -242 73t-154 100.5t-80 123.5t-24 152q0 203 154 334t395 131z" />
    <glyph glyph-name="scircumflex" unicode="&#x15d;" horiz-adv-x="958" 
d="M498 1571l342 -395h-232l-110 116l-111 -116h-231zM520 1059q106 0 205 -29.5t166 -79.5l-111 -213q-129 88 -262 88t-133 -82q0 -38 37.5 -60t146.5 -48q167 -40 247.5 -115t80.5 -192q0 -158 -122 -253t-331 -95q-119 0 -224.5 31.5t-174.5 86.5l115 217
q127 -104 286 -104q148 0 148 88q0 42 -36 66.5t-136 48.5q-178 44 -258 113.5t-80 189.5q0 158 116 250t320 92z" />
    <glyph glyph-name="Scedilla" unicode="&#x15e;" horiz-adv-x="1249" 
d="M1184 459q0 -209 -139 -340.5t-381 -143.5l-17 -55q86 -5 145.5 -50t59.5 -134q0 -94 -70.5 -150.5t-169.5 -56.5q-122 0 -206 78l83 108q55 -51 111 -51q36 0 57 18.5t21 51.5q0 68 -94 71q-52 3 -101 -12l-6 8l49 176q-294 21 -495 197l170 258q75 -80 191 -128
t233 -48t181 44.5t64 127.5q0 70 -63 113.5t-227 76.5q-144 30 -242 73t-154 100.5t-80 123.5t-24 152q0 203 154 334t395 131q156 0 296.5 -44t241.5 -118l-149 -264q-184 143 -391 143q-104 0 -169 -42.5t-65 -121.5q0 -70 58 -110t221 -74q193 -40 306.5 -100.5
t159.5 -141.5t46 -200z" />
    <glyph glyph-name="scedilla" unicode="&#x15f;" horiz-adv-x="958" 
d="M897 328q0 -140 -98 -232t-269 -112l-18 -64q86 -5 145.5 -50t59.5 -134q0 -94 -70.5 -150.5t-169.5 -56.5q-123 0 -207 78l84 108q55 -51 111 -51q36 0 57 18.5t21 51.5q0 68 -94 71q-52 3 -101 -12l-6 8l51 181q-103 6 -195 36.5t-153 79.5l115 217q127 -104 286 -104
q148 0 148 88q0 42 -36 66.5t-136 48.5q-178 44 -258 113.5t-80 189.5q0 158 116 250t320 92q106 0 205 -29.5t166 -79.5l-111 -213q-129 88 -262 88t-133 -82q0 -38 37.5 -60t146.5 -48q167 -40 247.5 -115t80.5 -192z" />
    <glyph glyph-name="Scaron" unicode="&#x160;" horiz-adv-x="1249" 
d="M981 1915l-356 -318l-359 318h240l119 -98l118 98h238zM629 1532q156 0 296.5 -44t241.5 -118l-149 -264q-184 143 -391 143q-104 0 -169 -42.5t-65 -121.5q0 -70 58 -110t221 -74q193 -40 306.5 -100.5t159.5 -141.5t46 -200q0 -220 -153.5 -353t-416.5 -133
q-173 0 -322.5 52t-260.5 149l170 258q75 -80 191 -128t233 -48t181 44.5t64 127.5q0 70 -63 113.5t-227 76.5q-144 30 -242 73t-154 100.5t-80 123.5t-24 152q0 203 154 334t395 131z" />
    <glyph glyph-name="scaron" unicode="&#x161;" horiz-adv-x="958" 
d="M840 1550l-342 -395l-342 395h231l111 -116l110 116h232zM520 1059q106 0 205 -29.5t166 -79.5l-111 -213q-129 88 -262 88t-133 -82q0 -38 37.5 -60t146.5 -48q167 -40 247.5 -115t80.5 -192q0 -158 -122 -253t-331 -95q-119 0 -224.5 31.5t-174.5 86.5l115 217
q127 -104 286 -104q148 0 148 88q0 42 -36 66.5t-136 48.5q-178 44 -258 113.5t-80 189.5q0 158 116 250t320 92z" />
    <glyph glyph-name="Tcedilla" unicode="&#x162;" horiz-adv-x="1341" 
d="M827 0h-100l-22 -80q86 -5 145 -50t59 -134q0 -94 -70 -150.5t-169 -56.5q-123 0 -207 78l84 108q55 -51 110 -51q36 0 57 18.5t21 51.5q0 68 -94 71q-51 3 -100 -12l-6 8l57 199h-78v1229h-487v276h1288v-276h-488v-1229z" />
    <glyph glyph-name="tcedilla" unicode="&#x163;" horiz-adv-x="868" 
d="M532 -80q86 -5 145.5 -50t59.5 -134q0 -94 -70 -150.5t-169 -56.5q-123 0 -207 78l84 108q55 -51 110 -51q36 0 57 18.5t21 51.5q0 68 -94 71q-51 3 -100 -12l-7 8l62 215q-104 45 -160.5 140t-56.5 231v395h-187v256h187v344h303v-344h297v-256h-297v-391
q0 -65 38.5 -103t100.5 -38q67 0 135 33l78 -240q-99 -63 -237 -63q-28 0 -74 4z" />
    <glyph glyph-name="Tcaron" unicode="&#x164;" horiz-adv-x="1341" 
d="M1030 1894l-356 -317l-359 317h240l119 -98l119 98h237zM1315 1505v-276h-488v-1229h-313v1229h-487v276h1288z" />
    <glyph glyph-name="tcaron" unicode="&#x165;" horiz-adv-x="868" 
d="M723 1561q71 0 114.5 -41t43.5 -103q0 -43 -17.5 -73t-56.5 -64l-158 -152h-8v420q41 13 82 13zM510 1382v-344h297v-256h-297v-391q0 -65 38.5 -103t100.5 -38q67 0 135 33l78 -240q-99 -63 -237 -63q-194 0 -306 106.5t-112 300.5v395h-187v256h187v344h303z" />
    <glyph glyph-name="Tbar" unicode="&#x166;" horiz-adv-x="1341" 
d="M1315 1229h-488v-420h287v-203h-287v-606h-313v606h-287v203h287v420h-487v276h1288v-276z" />
    <glyph glyph-name="tbar" unicode="&#x167;" horiz-adv-x="868" 
d="M784 283l78 -240q-99 -63 -237 -63q-194 0 -306 106.5t-112 300.5v90h-187v201h187v158h-187v202h187v344h303v-344h297v-202h-297v-158h297v-201h-297v-86q0 -65 38.5 -103t100.5 -38q67 0 135 33z" />
    <glyph glyph-name="Utilde" unicode="&#x168;" horiz-adv-x="1466" 
d="M614 1915q42 0 76.5 -14.5t57 -35t42 -40.5t39.5 -34.5t41 -14.5q64 0 64 127h162q0 -149 -69.5 -229.5t-174.5 -80.5q-43 0 -76.5 14.5t-53.5 35.5t-37 42t-37 35.5t-44 14.5q-38 0 -52.5 -31.5t-14.5 -97.5h-164q0 154 68 231.5t173 77.5zM1335 1505v-964
q0 -261 -157 -414.5t-445 -153.5t-445 153.5t-157 414.5v964h313v-944q0 -138 75.5 -219.5t213.5 -81.5q137 0 213 81.5t76 219.5v944h313z" />
    <glyph glyph-name="utilde" unicode="&#x169;" horiz-adv-x="1202" 
d="M481 1503q42 0 76.5 -14.5t57 -35.5t42 -41.5t39.5 -35t41 -14.5q64 0 64 129h162q0 -155 -69.5 -238.5t-174.5 -83.5q-43 0 -76.5 14.5t-53.5 35.5t-37 42t-37 35.5t-44 14.5q-38 0 -53 -32t-15 -97h-163q0 160 68.5 240.5t172.5 80.5zM1075 1038v-1038h-270l-14 113
q-96 -133 -302 -133q-181 0 -277.5 121.5t-96.5 334.5v602h303v-585q0 -87 41 -138t116 -51q116 0 197 121v653h303z" />
    <glyph glyph-name="Umacron" unicode="&#x16a;" horiz-adv-x="1466" 
d="M1016 1829v-201h-563v201h563zM1335 1505v-964q0 -261 -157 -414.5t-445 -153.5t-445 153.5t-157 414.5v964h313v-944q0 -138 75.5 -219.5t213.5 -81.5q137 0 213 81.5t76 219.5v944h313z" />
    <glyph glyph-name="umacron" unicode="&#x16b;" horiz-adv-x="1202" 
d="M883 1415v-203h-564v203h564zM1075 1038v-1038h-270l-14 113q-96 -133 -302 -133q-181 0 -277.5 121.5t-96.5 334.5v602h303v-585q0 -87 41 -138t116 -51q116 0 197 121v653h303z" />
    <glyph glyph-name="Ubreve" unicode="&#x16c;" horiz-adv-x="1466" 
d="M1071 1927q0 -142 -96.5 -236t-241.5 -94q-146 0 -243 94t-97 236h205q0 -69 37.5 -114.5t97.5 -45.5t96.5 45.5t36.5 114.5h205zM1335 1505v-964q0 -261 -157 -414.5t-445 -153.5t-445 153.5t-157 414.5v964h313v-944q0 -138 75.5 -219.5t213.5 -81.5q137 0 213 81.5
t76 219.5v944h313z" />
    <glyph glyph-name="ubreve" unicode="&#x16d;" horiz-adv-x="1202" 
d="M938 1509q0 -149 -96.5 -246.5t-241.5 -97.5q-147 0 -243.5 97.5t-96.5 246.5h207q0 -65 37.5 -107t95.5 -42t95.5 42t37.5 107h205zM1075 1038v-1038h-270l-14 113q-96 -133 -302 -133q-181 0 -277.5 121.5t-96.5 334.5v602h303v-585q0 -87 41 -138t116 -51
q116 0 197 121v653h303z" />
    <glyph glyph-name="Uring" unicode="&#x16e;" horiz-adv-x="1466" 
d="M735 2089q106 0 178 -70.5t72 -177.5t-71.5 -176.5t-178.5 -69.5q-109 0 -180.5 69.5t-71.5 176.5t71.5 177.5t180.5 70.5zM735 1931q-37 0 -61.5 -26t-24.5 -64t24.5 -63t61.5 -25q36 0 60 25t24 63t-24.5 64t-59.5 26zM1335 1505v-964q0 -261 -157 -414.5t-445 -153.5
t-445 153.5t-157 414.5v964h313v-944q0 -138 75.5 -219.5t213.5 -81.5q137 0 213 81.5t76 219.5v944h313z" />
    <glyph glyph-name="uring" unicode="&#x16f;" horiz-adv-x="1202" 
d="M602 1659q106 0 178 -72t72 -178q0 -107 -71.5 -176.5t-178.5 -69.5q-109 0 -180.5 69.5t-71.5 176.5q0 106 72 178t180 72zM602 1499q-37 0 -61.5 -26t-24.5 -64t24.5 -62t61.5 -24q36 0 60 24t24 62t-24.5 64t-59.5 26zM1075 1038v-1038h-270l-14 113
q-96 -133 -302 -133q-181 0 -277.5 121.5t-96.5 334.5v602h303v-585q0 -87 41 -138t116 -51q116 0 197 121v653h303z" />
    <glyph glyph-name="Uhungarumlaut" unicode="&#x170;" horiz-adv-x="1466" 
d="M844 1851l-203 -247h-213l168 247h248zM1229 1851l-203 -247h-213l166 247h250zM1335 1505v-964q0 -261 -157 -414.5t-445 -153.5t-445 153.5t-157 414.5v964h313v-944q0 -138 75.5 -219.5t213.5 -81.5q137 0 213 81.5t76 219.5v944h313z" />
    <glyph glyph-name="uhungarumlaut" unicode="&#x171;" horiz-adv-x="1202" 
d="M715 1477l-211 -308h-215l176 308h250zM1104 1477l-211 -308h-215l176 308h250zM1075 1038v-1038h-270l-14 113q-96 -133 -302 -133q-181 0 -277.5 121.5t-96.5 334.5v602h303v-585q0 -87 41 -138t116 -51q116 0 197 121v653h303z" />
    <glyph glyph-name="Uogonek" unicode="&#x172;" horiz-adv-x="1466" 
d="M1022 1505h313v-964q0 -209 -103 -351.5t-296 -193.5q-92 -62 -92 -164q0 -53 32 -82t82 -29q33 0 78 15l56 -158q-62 -27 -140 -27q-128 0 -213.5 71.5t-85.5 207.5q0 74 33 145q-266 12 -410.5 164t-144.5 402v964h313v-944q0 -138 75.5 -219.5t213.5 -81.5
q137 0 213 81.5t76 219.5v944z" />
    <glyph glyph-name="uogonek" unicode="&#x173;" horiz-adv-x="1202" 
d="M1092 -287l55 -157q-62 -27 -139 -27q-128 0 -213.5 71.5t-85.5 206.5q0 133 92 228l-10 78q-96 -133 -302 -133q-181 0 -277.5 121.5t-96.5 334.5v602h303v-585q0 -87 41 -138t116 -51q116 0 197 121v653h303v-1038h-43q-133 -72 -133 -190q0 -53 32.5 -82t82.5 -29
q36 0 78 14z" />
    <glyph glyph-name="Wcircumflex" unicode="&#x174;" horiz-adv-x="1972" 
d="M987 1919l356 -317h-237l-119 100l-119 -100h-239zM1950 1505l-611 -1528h-8l-344 824l-346 -824h-8l-608 1528h346l286 -805l326 805h8l324 -805l287 805h348z" />
    <glyph glyph-name="wcircumflex" unicode="&#x175;" horiz-adv-x="1568" 
d="M784 1571l342 -395h-231l-111 116l-110 -116h-232zM1563 1038l-500 -1058h-8l-271 509l-272 -509h-8l-498 1058h332l197 -501l245 501h8l244 -501l199 501h332z" />
    <glyph glyph-name="Ycircumflex" unicode="&#x176;" horiz-adv-x="1427" 
d="M715 1919l356 -317h-237l-119 100l-119 -100h-240zM1419 1505l-547 -889v-616h-313v610l-551 895h365l342 -579l338 579h366z" />
    <glyph glyph-name="ycircumflex" unicode="&#x177;" horiz-adv-x="1161" 
d="M553 1571l342 -395h-231l-111 116l-111 -116h-231zM1155 1038l-807 -1509h-346l416 733l-412 776h332l240 -520l245 520h332z" />
    <glyph glyph-name="Ydieresis" unicode="&#x178;" horiz-adv-x="1427" 
d="M516 1878q64 0 105 -40.5t41 -102.5q0 -63 -41 -104.5t-105 -41.5q-63 0 -103 41.5t-40 104.5q0 62 40 102.5t103 40.5zM909 1878q63 0 104.5 -40.5t41.5 -102.5q0 -63 -41.5 -104.5t-104.5 -41.5t-103 41.5t-40 104.5q0 62 40 102.5t103 40.5zM1419 1505l-547 -889v-616
h-313v610l-551 895h365l342 -579l338 579h366z" />
    <glyph glyph-name="Zacute" unicode="&#x179;" horiz-adv-x="1216" 
d="M1047 1847l-322 -245h-293l258 245h357zM1145 1505v-8l-629 -1223h651v-274h-1128v8l631 1223h-602v274h1077z" />
    <glyph glyph-name="zacute" unicode="&#x17a;" horiz-adv-x="980" 
d="M950 1470l-354 -296h-260l274 296h340zM934 1038v-8l-445 -774h441v-256h-885v8l442 774h-415v256h862z" />
    <glyph glyph-name="Zdotaccent" unicode="&#x17b;" horiz-adv-x="1216" 
d="M602 1931q72 0 118 -46.5t46 -117.5q0 -72 -46 -117.5t-118 -45.5t-118 45.5t-46 117.5q0 71 46 117.5t118 46.5zM1145 1505v-8l-629 -1223h651v-274h-1128v8l631 1223h-602v274h1077z" />
    <glyph glyph-name="zdotaccent" unicode="&#x17c;" horiz-adv-x="980" 
d="M489 1522q71 0 117.5 -47t46.5 -117q0 -72 -46.5 -118t-117.5 -46q-72 0 -117.5 46t-45.5 118q0 71 45.5 117.5t117.5 46.5zM934 1038v-8l-445 -774h441v-256h-885v8l442 774h-415v256h862z" />
    <glyph glyph-name="Zcaron" unicode="&#x17d;" horiz-adv-x="1216" 
d="M963 1894l-357 -317l-358 317h239l119 -98l119 98h238zM1145 1505v-8l-629 -1223h651v-274h-1128v8l631 1223h-602v274h1077z" />
    <glyph glyph-name="zcaron" unicode="&#x17e;" horiz-adv-x="980" 
d="M829 1550l-342 -395l-342 395h232l110 -116l111 116h231zM934 1038v-8l-445 -774h441v-256h-885v8l442 774h-415v256h862z" />
    <glyph glyph-name="florin" unicode="&#x192;" horiz-adv-x="927" 
d="M717 1550q149 0 241 -63l-108 -244q-45 45 -117 45q-115 0 -131 -151l-10 -99h229l-28 -256h-230l-100 -905q-19 -167 -129.5 -268t-284.5 -101q-150 0 -242 66l107 242q46 -43 119 -43q116 0 129 149l96 860h-152l27 256h154l16 144q19 167 129.5 267.5t284.5 100.5z
" />
    <glyph glyph-name="Aringacute" unicode="&#x1fa;" horiz-adv-x="1484" 
d="M1239 2226l-354 -297h-262l274 297h342zM817 1384l658 -1384h-349l-96 231h-575l-99 -231h-346l658 1384q-79 22 -126.5 85t-47.5 149q0 107 71 178.5t178 71.5t178.5 -71.5t71.5 -178.5q0 -86 -48.5 -149t-127.5 -85zM743 1710q-36 0 -61 -26.5t-25 -65.5q0 -36 25 -61
t61 -25q37 0 61.5 24.5t24.5 61.5q0 40 -24.5 66t-61.5 26zM553 477h379l-191 449z" />
    <glyph glyph-name="aringacute" unicode="&#x1fb;" horiz-adv-x="1226" 
d="M1079 1898l-321 -245h-293l258 245h356zM612 1608q107 0 178.5 -71.5t71.5 -178.5q0 -105 -71 -174.5t-179 -69.5t-180 69.5t-72 174.5q0 107 72.5 178.5t179.5 71.5zM612 1450q-37 0 -61.5 -26t-24.5 -66q0 -38 24.5 -62t61.5 -24q36 0 61 24t25 62q0 39 -25 65.5
t-61 26.5zM518 1059q201 0 297 -137l14 116h273v-1038h-273l-14 115q-43 -60 -118 -97.5t-179 -37.5q-203 0 -330 151.5t-127 386.5t127.5 388t329.5 153zM592 795q-100 0 -161.5 -75t-61.5 -202q0 -126 61 -200t162 -74q129 0 207 129v293q-78 129 -207 129z" />
    <glyph glyph-name="AEacute" unicode="&#x1fc;" horiz-adv-x="1830" 
d="M1483 1847l-322 -245h-293l258 245h357zM1735 1505v-286h-770l131 -324h551v-264h-441l142 -344h403v-287h-629l-94 236h-571l-97 -236h-350l668 1505h1057zM741 950l-190 -477h383z" />
    <glyph glyph-name="aeacute" unicode="&#x1fd;" horiz-adv-x="1933" 
d="M1419 1470l-354 -296h-260l274 296h340zM1395 1059q153 0 262 -72t161 -190t52 -269v-90h-725q16 -99 83.5 -154t186.5 -55q75 0 137 29.5t97 77.5l200 -156q-161 -200 -432 -200q-109 0 -194.5 37t-126.5 96l-15 -113h-252l-14 115q-43 -60 -118 -97.5t-179 -37.5
q-203 0 -330 151.5t-127 386.5t127.5 388t329.5 153q201 0 297 -137l14 116h256l15 -114q46 61 121 98t174 37zM1360 831q-87 0 -145.5 -53t-71.5 -151h428q-3 89 -60 146.5t-151 57.5zM592 795q-100 0 -161.5 -75t-61.5 -202q0 -126 61 -200t162 -74q129 0 207 129v293
q-78 129 -207 129z" />
    <glyph glyph-name="Oslashacute" unicode="&#x1fe;" horiz-adv-x="1687" 
d="M1286 1868l-321 -246h-293l258 246h356zM1323 1374q139 -106 217 -267.5t78 -356.5q0 -221 -101 -399t-278 -278t-395 -100q-146 0 -271 43l-100 -180h-268l160 291q-139 106 -217 268t-78 355q0 223 100.5 402t277.5 279.5t396 100.5q142 0 272 -45l101 182h268z
M387 750q0 -213 127 -353l459 832q-66 16 -129 16q-201 0 -329 -138.5t-128 -356.5zM844 260q199 0 326.5 138t127.5 352q0 218 -124 354l-457 -828q62 -16 127 -16z" />
    <glyph glyph-name="oslashacute" unicode="&#x1ff;" 
d="M1067 1470l-354 -296h-260l274 296h340zM942 954q101 -73 158 -186.5t57 -251.5q0 -153 -71 -276t-196.5 -191.5t-281.5 -68.5q-91 0 -180 26l-82 -149h-190l120 223q-101 73 -158 186.5t-57 249.5q0 154 70.5 278t196 194.5t280.5 70.5q93 0 185 -29l81 152h191z
M352 516q0 -112 60 -190l258 477q-27 8 -62 8q-112 0 -184 -84t-72 -211zM608 227q112 0 185 82t73 207q0 114 -57 193l-258 -476q27 -6 57 -6z" />
    <glyph glyph-name="Scommaaccent" unicode="&#x218;" horiz-adv-x="1249" 
d="M629 1532q156 0 296.5 -44t241.5 -118l-149 -264q-184 143 -391 143q-104 0 -169 -42.5t-65 -121.5q0 -70 58 -110t221 -74q193 -40 306.5 -100.5t159.5 -141.5t46 -200q0 -220 -153.5 -353t-416.5 -133q-173 0 -322.5 52t-260.5 149l170 258q75 -80 191 -128t233 -48
t181 44.5t64 127.5q0 70 -63 113.5t-227 76.5q-144 30 -242 73t-154 100.5t-80 123.5t-24 152q0 203 154 334t395 131zM616 -92q68 0 113 -35.5t45 -89.5q0 -44 -19 -75t-61 -62l-149 -117h-8v367q34 12 79 12z" />
    <glyph glyph-name="scommaaccent" unicode="&#x219;" horiz-adv-x="958" 
d="M520 1059q106 0 205 -29.5t166 -79.5l-111 -213q-129 88 -262 88t-133 -82q0 -38 37.5 -60t146.5 -48q167 -40 247.5 -115t80.5 -192q0 -158 -122 -253t-331 -95q-119 0 -224.5 31.5t-174.5 86.5l115 217q127 -104 286 -104q148 0 148 88q0 42 -36 66.5t-136 48.5
q-178 44 -258 113.5t-80 189.5q0 158 116 250t320 92zM440 -92q68 0 113 -35.5t45 -89.5q0 -44 -19 -75t-61 -62l-149 -117h-9v367q34 12 80 12z" />
    <glyph glyph-name="Tcommaaccent" unicode="&#x21a;" horiz-adv-x="1341" 
d="M1315 1505v-276h-488v-1229h-313v1229h-487v276h1288zM639 -92q68 0 113 -35.5t45 -89.5q0 -44 -19 -75t-61 -62l-150 -117h-8v367q35 12 80 12z" />
    <glyph glyph-name="tcommaaccent" unicode="&#x21b;" horiz-adv-x="868" 
d="M510 1382v-344h297v-256h-297v-391q0 -65 38.5 -103t100.5 -38q67 0 135 33l78 -240q-99 -63 -237 -63q-194 0 -306 106.5t-112 300.5v395h-187v256h187v344h303zM455 -92q68 0 112.5 -35.5t44.5 -89.5q0 -44 -19 -75t-61 -62l-149 -117h-8v367q35 12 80 12z" />
    <glyph glyph-name="circumflex" unicode="&#x2c6;" horiz-adv-x="755" 
d="M377 1571l342 -395h-232l-110 116l-111 -116h-231z" />
    <glyph glyph-name="caron" unicode="&#x2c7;" horiz-adv-x="755" 
d="M719 1550l-342 -395l-342 395h231l111 -116l110 116h232z" />
    <glyph glyph-name="breve" unicode="&#x2d8;" horiz-adv-x="747" 
d="M713 1509q0 -149 -96.5 -246.5t-241.5 -97.5q-147 0 -243.5 97.5t-96.5 246.5h207q0 -65 37.5 -107t95.5 -42t95.5 42t37.5 107h205z" />
    <glyph glyph-name="dotaccent" unicode="&#x2d9;" horiz-adv-x="423" 
d="M213 1522q71 0 117.5 -47t46.5 -117q0 -72 -46.5 -118t-117.5 -46q-72 0 -118 46t-46 118q0 71 46 117.5t118 46.5z" />
    <glyph glyph-name="ring" unicode="&#x2da;" horiz-adv-x="571" 
d="M287 1659q106 0 178 -72t72 -178q0 -107 -71.5 -176.5t-178.5 -69.5q-109 0 -180.5 69.5t-71.5 176.5q0 106 72 178t180 72zM287 1499q-37 0 -61.5 -26t-24.5 -64t24.5 -62t61.5 -24q36 0 60 24t24 62t-24.5 64t-59.5 26z" />
    <glyph glyph-name="ogonek" unicode="&#x2db;" horiz-adv-x="509" 
d="M229 135l86 -135q-133 -72 -133 -190q0 -53 32.5 -82t82.5 -29q36 0 78 14l55 -157q-62 -27 -139 -27q-128 0 -213.5 71.5t-85.5 206.5q0 117 67.5 200t169.5 128z" />
    <glyph glyph-name="tilde" unicode="&#x2dc;" horiz-adv-x="792" 
d="M276 1503q42 0 76.5 -14.5t57 -35.5t42 -41.5t39.5 -35t41 -14.5q64 0 64 129h162q0 -155 -69.5 -238.5t-174.5 -83.5q-43 0 -76.5 14.5t-53.5 35.5t-37 42t-37 35.5t-44 14.5q-38 0 -52.5 -31.5t-14.5 -97.5h-164q0 160 68.5 240.5t172.5 80.5z" />
    <glyph glyph-name="hungarumlaut" unicode="&#x2dd;" horiz-adv-x="874" 
d="M520 1477l-211 -308h-215l176 308h250zM909 1477l-211 -308h-215l176 308h250z" />
    <glyph glyph-name="uni03A9" unicode="&#x3a9;" horiz-adv-x="1757" 
d="M883 1536q208 0 367 -91.5t243 -250.5t84 -360q0 -90 -17 -170t-48.5 -143t-59 -104t-63.5 -85h297v-332h-709v315q122 108 190 228t68 276q0 176 -95 280.5t-257 104.5q-163 0 -258 -104.5t-95 -280.5q0 -157 67.5 -277t188.5 -227v-315h-706v332h297q-37 45 -64 85
t-59.5 103.5t-50 143.5t-17.5 170q0 201 85 360t244.5 250.5t367.5 91.5z" />
    <glyph glyph-name="pi" unicode="&#x3c0;" horiz-adv-x="1542" 
d="M1290 1180l238 -140q-19 -62 -46.5 -111t-70 -91t-106.5 -65t-146 -23h-14l-47 -375q-8 -53 5 -77t48 -24q52 0 100 41l105 -217q-73 -57 -151 -85.5t-181 -28.5q-61 0 -105 17t-66.5 46t-35.5 68t-12 84t4 94l59 457h-163l-60 -445q-19 -164 -88 -305h-305
q56 116 84 192t39 162l53 396h-33q-131 0 -219 -119l-141 211q48 49 84.5 78.5t87.5 56t114.5 38t147.5 11.5h535q91 0 147.5 19t84 49t54.5 86z" />
    <glyph glyph-name="Wgrave" unicode="&#x1e80;" horiz-adv-x="1972" 
d="M872 1847l256 -245h-290l-324 245h358zM1950 1505l-611 -1528h-8l-344 824l-346 -824h-8l-608 1528h346l286 -805l326 805h8l324 -805l287 805h348z" />
    <glyph glyph-name="wgrave" unicode="&#x1e81;" horiz-adv-x="1568" 
d="M651 1470l273 -296h-260l-355 296h342zM1563 1038l-500 -1058h-8l-271 509l-272 -509h-8l-498 1058h332l197 -501l245 501h8l244 -501l199 501h332z" />
    <glyph glyph-name="Wacute" unicode="&#x1e82;" horiz-adv-x="1972" 
d="M1430 1847l-322 -245h-293l258 245h357zM1950 1505l-611 -1528h-8l-344 824l-346 -824h-8l-608 1528h346l286 -805l326 805h8l324 -805l287 805h348z" />
    <glyph glyph-name="wacute" unicode="&#x1e83;" horiz-adv-x="1568" 
d="M1245 1470l-354 -296h-260l274 296h340zM1563 1038l-500 -1058h-8l-271 509l-272 -509h-8l-498 1058h332l197 -501l245 501h8l244 -501l199 501h332z" />
    <glyph glyph-name="Wdieresis" unicode="&#x1e84;" horiz-adv-x="1972" 
d="M791 1878q64 0 104.5 -40.5t40.5 -102.5q0 -63 -40.5 -104.5t-104.5 -41.5q-63 0 -103.5 41.5t-40.5 104.5q0 62 40.5 102.5t103.5 40.5zM1184 1878q63 0 104 -40.5t41 -102.5q0 -63 -41 -104.5t-104 -41.5t-103.5 41.5t-40.5 104.5q0 62 40.5 102.5t103.5 40.5z
M1950 1505l-611 -1528h-8l-344 824l-346 -824h-8l-608 1528h346l286 -805l326 805h8l324 -805l287 805h348z" />
    <glyph glyph-name="wdieresis" unicode="&#x1e85;" horiz-adv-x="1568" 
d="M588 1473q64 0 104.5 -40.5t40.5 -103.5t-40.5 -103t-104.5 -40q-63 0 -103.5 40t-40.5 103t40.5 103.5t103.5 40.5zM981 1473q63 0 104 -40.5t41 -103.5t-41 -103t-104 -40t-103 40t-40 103t40 103.5t103 40.5zM1563 1038l-500 -1058h-8l-271 509l-272 -509h-8
l-498 1058h332l197 -501l245 501h8l244 -501l199 501h332z" />
    <glyph glyph-name="Ygrave" unicode="&#x1ef2;" horiz-adv-x="1427" 
d="M600 1847l256 -245h-291l-323 245h358zM1419 1505l-547 -889v-616h-313v610l-551 895h365l342 -579l338 579h366z" />
    <glyph glyph-name="ygrave" unicode="&#x1ef3;" horiz-adv-x="1161" 
d="M420 1470l272 -296h-260l-354 296h342zM1155 1038l-807 -1509h-346l416 733l-412 776h332l240 -520l245 520h332z" />
    <glyph glyph-name="endash" unicode="&#x2013;" horiz-adv-x="1126" 
d="M1049 686v-276h-973v276h973z" />
    <glyph glyph-name="emdash" unicode="&#x2014;" horiz-adv-x="1626" 
d="M1550 686v-276h-1474v276h1474z" />
    <glyph glyph-name="quoteleft" unicode="&#x2018;" horiz-adv-x="462" 
d="M352 1518v-658q-44 -14 -80 -14q-86 0 -141 53t-55 135q0 51 39 115l229 369h8z" />
    <glyph glyph-name="quoteright" unicode="&#x2019;" horiz-adv-x="462" 
d="M190 1518q86 0 141.5 -53.5t55.5 -133.5q0 -54 -39 -114l-229 -371h-8v659q37 13 79 13z" />
    <glyph glyph-name="quotesinglbase" unicode="&#x201a;" horiz-adv-x="462" 
d="M190 324q86 0 141.5 -53.5t55.5 -133.5q0 -57 -39 -117l-229 -370h-8v659q34 15 79 15z" />
    <glyph glyph-name="quotedblleft" unicode="&#x201c;" horiz-adv-x="884" 
d="M352 1518v-658q-44 -14 -80 -14q-86 0 -141 53t-55 135q0 51 39 115l229 369h8zM774 1518v-658q-40 -14 -80 -14q-86 0 -140 53t-54 135q0 47 37 115l229 369h8z" />
    <glyph glyph-name="quotedblright" unicode="&#x201d;" horiz-adv-x="884" 
d="M190 1518q86 0 141.5 -53.5t55.5 -133.5q0 -54 -39 -114l-229 -371h-8v659q37 13 79 13zM614 1518q85 0 140 -53.5t55 -133.5q0 -50 -37 -114l-231 -371h-9v659q41 13 82 13z" />
    <glyph glyph-name="quotedblbase" unicode="&#x201e;" horiz-adv-x="884" 
d="M614 324q85 0 140 -53.5t55 -133.5q0 -53 -37 -117l-231 -370h-9v659q38 15 82 15zM190 324q86 0 141.5 -53.5t55.5 -133.5q0 -57 -39 -117l-229 -370h-8v659q34 15 79 15z" />
    <glyph glyph-name="dagger" unicode="&#x2020;" horiz-adv-x="1013" 
d="M655 1505v-340h310v-270h-310v-895h-299v895h-307v270h307v340h299z" />
    <glyph glyph-name="daggerdbl" unicode="&#x2021;" horiz-adv-x="1017" 
d="M657 1505v-340h312v-270h-312v-285h308v-270h-308v-340h-297v340h-311v270h311v285h-307v270h307v340h297z" />
    <glyph glyph-name="bullet" unicode="&#x2022;" horiz-adv-x="604" 
d="M301 770q104 0 173 -69t69 -173q0 -103 -69 -171t-173 -68q-103 0 -171.5 68t-68.5 171q0 104 68.5 173t171.5 69z" />
    <glyph glyph-name="ellipsis" unicode="&#x2026;" horiz-adv-x="1748" 
d="M291 352q82 0 134 -52t52 -134t-52 -134t-134 -52q-80 0 -133.5 52.5t-53.5 133.5t53.5 133.5t133.5 52.5zM874 352q82 0 134.5 -52t52.5 -134t-52.5 -134t-134.5 -52t-134 52t-52 134t52 134t134 52zM1456 352q82 0 134 -52t52 -134t-52 -134t-134 -52q-80 0 -133 52.5
t-53 133.5t53 133.5t133 52.5z" />
    <glyph glyph-name="perthousand" unicode="&#x2030;" horiz-adv-x="2666" 
d="M436 1530q163 0 271 -109.5t108 -275.5q0 -165 -108 -273t-271 -108q-166 0 -274.5 107.5t-108.5 273.5t108.5 275.5t274.5 109.5zM1524 1505l-969 -1505h-256l967 1505h258zM436 1317q-69 0 -112 -48.5t-43 -123.5q0 -72 43 -119t112 -47q65 0 108.5 47t43.5 119
q0 75 -43.5 123.5t-108.5 48.5zM1384 739q164 0 272.5 -109.5t108.5 -275.5q0 -165 -108 -273t-273 -108q-166 0 -273 107.5t-107 273.5t107.5 275.5t272.5 109.5zM2228 739q163 0 271 -109.5t108 -275.5q0 -165 -108 -273t-271 -108q-167 0 -275 107.5t-108 273.5
t108 275.5t275 109.5zM1384 526q-67 0 -110 -48.5t-43 -123.5q0 -71 43 -118.5t110 -47.5q66 0 111 48t45 118q0 74 -45 123t-111 49zM2228 526q-69 0 -112 -48.5t-43 -123.5q0 -71 43.5 -118.5t111.5 -47.5q65 0 108.5 48t43.5 118q0 75 -43.5 123.5t-108.5 48.5z" />
    <glyph glyph-name="guilsinglleft" unicode="&#x2039;" horiz-adv-x="655" 
d="M592 938l-244 -414l244 -413h-273l-256 409v8l256 410h273z" />
    <glyph glyph-name="guilsinglright" unicode="&#x203a;" horiz-adv-x="655" 
d="M338 938l254 -410v-8l-254 -409h-275l244 413l-244 414h275z" />
    <glyph glyph-name="fraction" unicode="&#x2044;" horiz-adv-x="477" 
d="M733 1505l-745 -1505h-244l745 1505h244z" />
    <glyph glyph-name="zero.sups" unicode="&#x2070;" horiz-adv-x="782" 
d="M408 1679q153 0 242 -119.5t89 -322.5q0 -205 -89 -325.5t-242 -120.5q-155 0 -244.5 120.5t-89.5 325.5q0 203 89.5 322.5t244.5 119.5zM408 1489q-113 0 -113 -252q0 -254 113 -254q110 0 110 254q0 252 -110 252z" />
    <glyph glyph-name="four.sups" unicode="&#x2074;" horiz-adv-x="774" 
d="M666 1683v-624h88v-156h-88v-96h-217v96h-431v2l644 778h4zM471 1241l-160 -192h160v192z" />
    <glyph glyph-name="five.sups" unicode="&#x2075;" horiz-adv-x="724" 
d="M639 1665v-192h-307v-123q30 10 53 10q136 0 222.5 -71t86.5 -218q0 -127 -84.5 -203.5t-228.5 -76.5q-247 0 -311 200l180 86q28 -92 117 -92q47 0 77.5 26.5t30.5 71.5q0 42 -32 70.5t-81 28.5q-56 0 -98 -37l-151 65v455h526z" />
    <glyph glyph-name="six.sups" unicode="&#x2076;" horiz-adv-x="747" 
d="M449 1372q113 -19 186.5 -98t73.5 -191q0 -127 -94 -209.5t-228 -82.5q-133 0 -225 82.5t-92 209.5q0 93 53 168l268 414h246zM387 973q48 0 78.5 29.5t30.5 80.5q0 53 -30.5 84t-78.5 31q-45 0 -74.5 -31t-29.5 -84q0 -51 29 -80.5t75 -29.5z" />
    <glyph glyph-name="seven.sups" unicode="&#x2077;" horiz-adv-x="727" 
d="M725 1665v-8l-422 -850h-237l337 661h-337v197h659z" />
    <glyph glyph-name="eight.sups" unicode="&#x2078;" horiz-adv-x="749" 
d="M387 1681q122 0 207.5 -73t85.5 -185q0 -94 -86 -163q115 -80 115 -193q0 -121 -93.5 -198.5t-228.5 -77.5q-133 0 -225 77.5t-92 198.5q0 57 29.5 106.5t82.5 83.5q-84 68 -84 166q0 112 84 185t205 73zM387 1507q-41 0 -68.5 -27t-27.5 -67q0 -39 27 -64.5t69 -25.5
q43 0 70.5 25t27.5 65t-28 67t-70 27zM387 1163q-45 0 -74.5 -28t-29.5 -72q0 -42 29.5 -69t74.5 -27q48 0 78.5 27t30.5 69q0 44 -31 72t-78 28z" />
    <glyph glyph-name="nine.sups" unicode="&#x2079;" horiz-adv-x="747" 
d="M391 1681q133 0 225.5 -82.5t92.5 -209.5q0 -89 -52 -168l-268 -414h-248l189 293q-113 19 -186.5 98t-73.5 191q0 127 93.5 209.5t227.5 82.5zM391 1274q45 0 75 31t30 84q0 51 -29.5 80.5t-75.5 29.5q-48 0 -77 -29t-29 -81q0 -53 29 -84t77 -31z" />
    <glyph glyph-name="n.sups" unicode="&#x207f;" horiz-adv-x="882" 
d="M524 1538q133 0 204 -87.5t71 -240.5v-415h-244v403q0 52 -25.5 83.5t-70.5 31.5q-78 0 -117 -72v-446h-242v729h215l13 -72q26 38 77.5 62t118.5 24z" />
    <glyph glyph-name="Euro" unicode="&#x20ac;" horiz-adv-x="1361" 
d="M1139 395l186 -217q-180 -205 -469 -205q-231 0 -397.5 134t-229.5 372h-168v193h138q-4 54 -4 82t4 90h-138v192h170q63 234 228 365t395 131q287 0 467 -205l-184 -217q-110 152 -283 152q-101 0 -177 -59t-118 -167h326v-192h-367q-4 -29 -4 -90q0 -55 2 -82h369v-193
h-328q41 -114 118 -174.5t181 -60.5q173 0 283 151z" />
    <glyph glyph-name="afii61289" unicode="&#x2113;" horiz-adv-x="1196" 
d="M709 1536q155 0 255.5 -89.5t100.5 -250.5q0 -82 -27.5 -166.5t-68.5 -154t-103.5 -144t-117.5 -128.5t-125 -116v-139q0 -63 22 -89t78 -26q34 0 62.5 11.5t56.5 39.5t46 50.5t50 68.5q8 11 12 17l174 -141q-184 -306 -450 -306q-78 0 -141.5 24t-101.5 63.5t-58.5 86.5
t-20.5 95v34q-59 -59 -145 -129l-146 213q209 179 279 246v545q0 198 91.5 291.5t277.5 93.5zM707 1307q-49 0 -78 -33t-29 -96v-394q85 83 150 192.5t65 209.5q0 57 -28.5 89t-79.5 32z" />
    <glyph glyph-name="trademark" unicode="&#x2122;" horiz-adv-x="1816" 
d="M1743 1520v-785h-217v254l-209 -264h-8l-209 264v-254h-217v785h4l426 -498l426 498h4zM762 1505v-209h-248v-561h-217v561h-248v209h713z" />
    <glyph glyph-name="Omega" unicode="&#x2126;" horiz-adv-x="1757" 
d="M883 1536q208 0 367 -91.5t243 -250.5t84 -360q0 -90 -17 -170t-48.5 -143t-59 -104t-63.5 -85h297v-332h-709v315q122 108 190 228t68 276q0 176 -95 280.5t-257 104.5q-163 0 -258 -104.5t-95 -280.5q0 -157 67.5 -277t188.5 -227v-315h-706v332h297q-37 45 -64 85
t-59.5 103.5t-50 143.5t-17.5 170q0 201 85 360t244.5 250.5t367.5 91.5z" />
    <glyph glyph-name="estimated" unicode="&#x212e;" horiz-adv-x="1210" 
d="M631 1094q108 0 200 -34.5t161 -100t108 -167.5t39 -229h-785v-350q0 -44 14.5 -75t57.5 -52q75 -47 205 -47q138 0 251.5 66.5t192.5 189.5l55 -35q-87 -136 -214.5 -211.5t-284.5 -75.5q-158 0 -285 68.5t-200.5 196.5t-73.5 294q0 167 73.5 295.5t200.5 197.5t285 69z
M631 1028q-131 0 -207 -51q-70 -32 -70 -123v-225h525v225q0 57 -13 86t-53 47q-71 41 -182 41z" />
    <glyph glyph-name="partialdiff" unicode="&#x2202;" horiz-adv-x="1122" 
d="M526 1532q99 0 179.5 -30t135.5 -79t97 -120t66 -144t38.5 -161t19.5 -161.5t5 -154.5q0 -258 -72 -418q-63 -141 -175 -211.5t-257 -70.5q-219 0 -361.5 135.5t-142.5 353.5q0 219 137 355.5t347 136.5q76 0 132.5 -27.5t86.5 -61.5q-2 177 -68.5 275t-189.5 98
q-152 0 -234 -139l-202 190q166 234 458 234zM567 690q-88 0 -145 -61.5t-57 -157.5q0 -98 56 -157.5t146 -59.5q89 0 145 60t56 157q0 96 -56.5 157.5t-144.5 61.5z" />
    <glyph glyph-name="uni2206" unicode="&#x2206;" horiz-adv-x="1476" 
d="M739 1323l666 -1323h-1333zM739 774l-270 -536h539z" />
    <glyph glyph-name="product" unicode="&#x220f;" horiz-adv-x="1445" 
d="M1374 1516v-285h-209v-1438h-282v1438h-318v-1438h-286v1438h-207v285h1302z" />
    <glyph glyph-name="summation" unicode="&#x2211;" horiz-adv-x="1249" 
d="M1153 1516v-306h-651l305 -424l-322 -481h693v-305h-1106v205l383 575l-377 531v205h1075z" />
    <glyph glyph-name="minus" unicode="&#x2212;" horiz-adv-x="1050" 
d="M977 854v-276h-903v276h903z" />
    <glyph glyph-name="radical" unicode="&#x221a;" horiz-adv-x="1427" 
d="M1128 1427l256 -108l-626 -1473l-348 656l-224 -135l-139 225l516 307l187 -389z" />
    <glyph glyph-name="infinity" unicode="&#x221e;" horiz-adv-x="1572" 
d="M1116 1012q171 0 279 -117.5t108 -288.5t-108 -288t-279 -117q-70 0 -137.5 27t-108 57.5t-90.5 76.5l-26 29l-27 -26q-143 -136 -295 -136q-162 0 -259 107t-97 268q0 162 97.5 270.5t258.5 108.5q86 0 153.5 -36.5t139.5 -104.5l27 -27l18 21q82 86 161 131t185 45z
M1120 756q-52 0 -92 -29.5t-94 -91.5l-25 -31l27 -31q29 -30 43 -43.5t40 -34.5t50.5 -29.5t50.5 -8.5q60 0 95.5 42.5t35.5 106.5t-35.5 107t-95.5 43zM426 735q-51 0 -81 -37.5t-30 -93.5q0 -55 30 -92t81 -37q85 0 158 98l22 29l-24 27q-86 106 -156 106z" />
    <glyph glyph-name="integral" unicode="&#x222b;" horiz-adv-x="888" 
d="M575 1536q153 0 265 -47l-54 -238q-77 31 -139 31q-80 0 -80 -104v-1209q0 -194 -69 -277t-217 -83q-151 0 -267 47l56 238q69 -29 141 -29q38 0 60 26t22 78v1209q0 194 68 276t214 82z" />
    <glyph glyph-name="approxequal" unicode="&#x2248;" horiz-adv-x="1337" 
d="M479 1186q58 0 110 -17t89 -41.5t70.5 -49t70.5 -41.5t74 -17q71 0 120.5 40t76.5 105l174 -141q-56 -132 -154 -207.5t-219 -75.5q-61 0 -111.5 17t-84 41.5t-65 49t-69.5 41.5t-82 17q-138 0 -198 -145l-175 141q54 133 152.5 208t220.5 75zM444 672q72 0 135.5 -26
t102 -57t86.5 -57t92 -26q71 0 120.5 39.5t76.5 103.5l172 -139q-54 -133 -152 -209t-219 -76q-61 0 -111.5 17.5t-84.5 42t-65 49t-70 42t-83 17.5q-138 0 -198 -145l-172 141q55 132 152 207.5t218 75.5z" />
    <glyph glyph-name="notequal" unicode="&#x2260;" horiz-adv-x="1050" 
d="M977 846h-277l-94 -266h371v-277h-471l-70 -192h-254l68 192h-176v277h276l94 266h-370v276h471l92 258h256l-92 -258h176v-276z" />
    <glyph glyph-name="lessequal" unicode="&#x2264;" horiz-adv-x="868" 
d="M795 1274l-349 -338l349 -336h-383l-338 332v8l338 334h383zM795 496v-277h-721v277h721z" />
    <glyph glyph-name="greaterequal" unicode="&#x2265;" horiz-adv-x="868" 
d="M455 1274l340 -334v-8l-340 -332h-381l346 336l-346 338h381zM795 496v-277h-721v277h721z" />
    <glyph glyph-name="lozenge" unicode="&#x25ca;" horiz-adv-x="1165" 
d="M682 1511l432 -823l-432 -821h-186l-435 821l435 823h186zM590 1069l-213 -381l213 -383l211 383z" />
    <glyph glyph-name="commaaccent" unicode="&#xf6c3;" horiz-adv-x="0" 
d="M-240 -92q68 0 113 -35.5t45 -89.5q0 -44 -19 -75t-61 -62l-149 -117h-8v367q35 12 79 12z" />
    <glyph glyph-name="CR" horiz-adv-x="512" 
 />
    <glyph glyph-name="germandbls.cap" horiz-adv-x="1409" 
d="M705 1532q196 0 332 -70t243 -198l-227 -379q46 -17 85.5 -38.5t79.5 -57.5t68.5 -79.5t46 -106.5t17.5 -136q0 -218 -149 -356t-390 -138q-167 0 -262 50l69 278q38 -22 73.5 -31.5t92.5 -9.5q94 0 161 65t67 164q0 238 -377 238l-4 10l254 437q-73 69 -197 69
q-111 0 -177.5 -70t-66.5 -192v-981h-305v983q0 159 73 285t202 195t291 69z" />
    <glyph glyph-name="endash_guilsinglright" horiz-adv-x="1368" 
d="M678 1120l620 -557l-620 -559l-139 170l301 264h-770v246h774l-305 266z" />
    <glyph glyph-name="emdash_guilsinglright" horiz-adv-x="2023" 
d="M1333 1120l623 -557l-623 -559l-139 170l301 264h-1425v246h1429l-305 266z" />
    <glyph glyph-name="guilsinglleft_endash" horiz-adv-x="1368" 
d="M690 1120l139 -170l-305 -266h774v-246h-770l301 -264l-139 -170l-620 559z" />
    <glyph glyph-name="guilsinglleft_emdash" horiz-adv-x="2023" 
d="M690 1120l139 -170l-305 -266h1432v-246h-1428l301 -264l-139 -170l-620 559z" />
    <glyph glyph-name="at.cap" horiz-adv-x="1798" 
d="M897 1587q187 0 344.5 -60t268 -166.5t172 -258.5t61.5 -330q0 -209 -100.5 -338t-274.5 -129q-94 0 -160.5 36.5t-93.5 90.5l-4 8q-45 -58 -119 -96.5t-162 -38.5q-169 0 -276 126t-107 321t107 321.5t276 126.5q173 0 254 -110l13 94h227v-604q0 -88 78 -88
q69 0 107 75t38 205q0 282 -176 456.5t-473 174.5q-189 0 -336.5 -83.5t-228 -231t-80.5 -334.5q0 -188 79 -335.5t222.5 -230t327.5 -82.5q140 0 264 50l51 -174q-150 -58 -315 -58q-178 0 -331.5 62t-262 171.5t-170.5 263.5t-62 333q0 177 63 331.5t173 265t267 173.5
t339 63zM893 981q-86 0 -138.5 -62t-52.5 -167t52.5 -166.5t138.5 -61.5q108 0 178 103v252q-71 102 -178 102z" />
    <glyph glyph-name="grave.cap" horiz-adv-x="684" 
d="M397 1847l256 -245h-291l-323 245h358z" />
    <glyph glyph-name="acute.cap" horiz-adv-x="684" 
d="M645 1847l-321 -245h-293l258 245h356z" />
    <glyph glyph-name="circumflex.cap" horiz-adv-x="786" 
d="M393 1919l357 -317h-238l-119 100l-119 -100h-239z" />
    <glyph glyph-name="caron.cap" horiz-adv-x="786" 
d="M750 1894l-357 -317l-358 317h239l119 -98l119 98h238z" />
    <glyph glyph-name="tilde.cap" horiz-adv-x="792" 
d="M276 1915q42 0 76.5 -14.5t57 -35t42 -40.5t39.5 -34.5t41 -14.5q64 0 64 127h162q0 -149 -69.5 -229.5t-174.5 -80.5q-43 0 -76.5 14.5t-53.5 35.5t-37 42t-37 35.5t-44 14.5q-38 0 -52.5 -31.5t-14.5 -97.5h-164q0 154 68 231.5t173 77.5z" />
    <glyph glyph-name="dieresis.cap" horiz-adv-x="751" 
d="M178 1878q64 0 105 -40.5t41 -102.5q0 -63 -41 -104.5t-105 -41.5q-63 0 -103 41.5t-40 104.5q0 62 40 102.5t103 40.5zM571 1878q63 0 104.5 -40.5t41.5 -102.5q0 -63 -41.5 -104.5t-104.5 -41.5t-103 41.5t-40 104.5q0 62 40 102.5t103 40.5z" />
    <glyph glyph-name="macron.cap" horiz-adv-x="632" 
d="M598 1829v-201h-563v201h563z" />
    <glyph glyph-name="breve.cap" horiz-adv-x="747" 
d="M713 1927q0 -142 -96.5 -236t-241.5 -94q-146 0 -243 94t-97 236h205q0 -69 37.5 -114.5t97.5 -45.5t96.5 45.5t36.5 114.5h205z" />
    <glyph glyph-name="ring.cap" horiz-adv-x="571" 
d="M287 2089q106 0 178 -70.5t72 -177.5t-71.5 -176.5t-178.5 -69.5q-109 0 -180.5 69.5t-71.5 176.5t71.5 177.5t180.5 70.5zM287 1931q-37 0 -61.5 -26t-24.5 -64t24.5 -63t61.5 -25q36 0 60 25t24 63t-24.5 64t-59.5 26z" />
    <glyph glyph-name="hungarumlaut.cap" horiz-adv-x="874" 
d="M522 1851l-203 -247h-213l168 247h248zM907 1851l-202 -247h-213l165 247h250z" />
    <glyph glyph-name="dotaccent.cap" horiz-adv-x="395" 
d="M197 1931q72 0 117.5 -46.5t45.5 -117.5q0 -72 -45.5 -117.5t-117.5 -45.5t-118 45.5t-46 117.5q0 71 46 117.5t118 46.5z" />
    <glyph glyph-name="parenleft.cap" horiz-adv-x="694" 
d="M395 1655l232 -162q-57 -72 -97.5 -139t-79.5 -157.5t-59 -202.5t-20 -242t20 -242.5t59 -203t80 -157.5t97 -139l-232 -162q-62 81 -111.5 163.5t-97 195t-74 252t-26.5 293.5t26.5 293t74.5 251t96.5 194t111.5 165z" />
    <glyph glyph-name="parenright.cap" horiz-adv-x="694" 
d="M299 1655q63 -83 111.5 -165t96.5 -194t74.5 -251t26.5 -293t-26.5 -293.5t-74 -252t-97 -195t-111.5 -163.5l-231 162q56 72 97 139t80 157.5t59 203t20 242.5t-20 242t-59 202.5t-79.5 157.5t-97.5 139z" />
    <glyph glyph-name="bracketleft.cap" horiz-adv-x="704" 
d="M633 1632v-239h-234v-1282h234v-240h-520v1761h520z" />
    <glyph glyph-name="bracketright.cap" horiz-adv-x="708" 
d="M596 1632v-1761h-524v240h237v1282h-237v239h524z" />
    <glyph glyph-name="braceleft.cap" horiz-adv-x="718" 
d="M647 1632v-239q-101 0 -147 -60t-29 -174l18 -121q18 -116 -12.5 -189.5t-97.5 -96.5q67 -23 97.5 -97t12.5 -190l-18 -121q-17 -114 29 -173.5t147 -59.5v-240q-275 0 -386.5 136.5t-67.5 393.5l16 115q16 93 -32 152.5t-136 79.5v8q88 20 136 79t32 152l-16 117
q-44 256 68 392t386 136z" />
    <glyph glyph-name="braceright.cap" horiz-adv-x="718" 
d="M72 1632q275 0 387.5 -136t68.5 -392l-18 -117q-16 -92 32.5 -151.5t137.5 -79.5v-8q-89 -20 -137.5 -80t-32.5 -152l18 -115q44 -257 -68.5 -393.5t-387.5 -136.5v240q102 0 147.5 59t28.5 174l-17 121q-20 116 11 190t98 97q-67 23 -98 96.5t-11 189.5l17 121
q17 115 -28.5 174.5t-147.5 59.5v239z" />
    <glyph glyph-name="guilsinglleft.cap" horiz-adv-x="688" 
d="M625 1180l-277 -455l277 -455h-275l-287 451v8l287 451h275z" />
    <glyph glyph-name="guilsinglright.cap" horiz-adv-x="688" 
d="M338 1180l287 -451v-8l-287 -451h-275l277 455l-277 455h275z" />
    <glyph glyph-name="guillemotleft.cap" horiz-adv-x="1202" 
d="M625 1180l-277 -455l277 -455h-275l-287 451v8l287 451h275zM1139 1180l-277 -455l277 -455h-275l-286 451v8l286 451h275z" />
    <glyph glyph-name="guillemotright.cap" horiz-adv-x="1202" 
d="M338 1180l287 -451v-8l-287 -451h-275l277 455l-277 455h275zM852 1180l287 -451v-8l-287 -451h-274l276 455l-276 455h274z" />
    <glyph glyph-name="exclamdown.cap" horiz-adv-x="602" 
d="M303 1157q-80 0 -132 51.5t-52 132.5q0 80 52.5 132.5t131.5 52.5t131.5 -52.5t52.5 -132.5q0 -79 -52.5 -131.5t-131.5 -52.5zM152 0v1030h303v-1030h-303z" />
    <glyph glyph-name="questiondown.cap" horiz-adv-x="1077" 
d="M555 1157q-80 0 -132 51.5t-52 132.5q0 80 52.5 132.5t131.5 52.5t131.5 -52.5t52.5 -132.5q0 -79 -52.5 -131.5t-131.5 -52.5zM553 -27q-215 0 -351 123.5t-136 306.5q0 73 19 131.5t48.5 96.5t66 70t73 60.5t66 58t48.5 71.5t19 94v45h303v-86q0 -68 -18 -123
t-47 -91.5t-64 -67.5t-70 -57.5t-64 -53.5t-47 -63t-18 -80q0 -76 49.5 -120t124.5 -44q78 0 126.5 47t59.5 125l299 -49q-40 -189 -164 -291.5t-323 -102.5z" />
    <glyph glyph-name="endash.cap" horiz-adv-x="1126" 
d="M1049 868v-276h-973v276h973z" />
    <glyph glyph-name="periodcentered.cap" horiz-adv-x="520" 
d="M260 909q79 0 131.5 -52t52.5 -130q0 -79 -52 -131.5t-132 -52.5t-132 52.5t-52 131.5q0 78 52.5 130t131.5 52z" />
    <glyph glyph-name="emdash.cap" horiz-adv-x="1626" 
d="M1550 868v-276h-1474v276h1474z" />
    <glyph glyph-name="hyphen.cap" horiz-adv-x="790" 
d="M715 868v-276h-639v276h639z" />
    <glyph glyph-name="zero.dnom" horiz-adv-x="815" 
d="M408 872q153 0 242 -119.5t89 -322.5q0 -205 -89 -325.5t-242 -120.5q-155 0 -244.5 120.5t-89.5 325.5q0 203 89.5 322.5t244.5 119.5zM408 682q-113 0 -113 -252q0 -254 113 -254q110 0 110 254q0 252 -110 252z" />
    <glyph glyph-name="one.dnom" horiz-adv-x="583" 
d="M463 874v-874h-219v539l-113 -60l-88 203l416 192h4z" />
    <glyph glyph-name="two.dnom" horiz-adv-x="735" 
d="M350 874q141 0 226.5 -79.5t85.5 -204.5q0 -60 -24 -113.5t-71 -116.5l-131 -167h230v-193h-594v6l309 463q35 46 47 71t12 56q0 39 -24.5 62.5t-65.5 23.5q-89 0 -104 -115l-197 45q49 262 301 262z" />
    <glyph glyph-name="three.dnom" horiz-adv-x="722" 
d="M354 874q135 0 218 -78.5t83 -195.5q0 -107 -92 -168q107 -58 107 -174q0 -120 -85.5 -197t-226.5 -77q-260 0 -309 249l197 46q15 -101 112 -101q42 0 67.5 24.5t25.5 65.5q0 38 -27 64t-68 26h-94v164h94q37 2 60.5 23t23.5 57t-25.5 58t-64.5 22q-35 0 -60 -21.5
t-32 -64.5l-190 80q29 97 102.5 147.5t183.5 50.5z" />
    <glyph glyph-name="four.dnom" horiz-adv-x="804" 
d="M666 877v-625h88v-156h-88v-96h-217v96h-431v2l644 779h4zM471 434l-160 -192h160v192z" />
    <glyph glyph-name="five.dnom" horiz-adv-x="755" 
d="M639 858v-192h-307v-123q30 10 53 10q136 0 222.5 -71t86.5 -218q0 -127 -84.5 -203.5t-228.5 -76.5q-247 0 -311 200l180 86q28 -92 117 -92q47 0 77.5 26.5t30.5 71.5q0 42 -32 70.5t-81 28.5q-56 0 -98 -37l-151 65v455h526z" />
    <glyph glyph-name="six.dnom" horiz-adv-x="778" 
d="M449 565q113 -19 186.5 -98t73.5 -191q0 -127 -94 -209.5t-228 -82.5q-133 0 -225 82.5t-92 209.5q0 93 53 168l268 414h246zM387 166q48 0 78.5 29.5t30.5 80.5q0 53 -30.5 84t-78.5 31q-45 0 -74.5 -31t-29.5 -84q0 -51 29 -80.5t75 -29.5z" />
    <glyph glyph-name="seven.dnom" horiz-adv-x="759" 
d="M725 858v-8l-422 -850h-237l337 662h-337v196h659z" />
    <glyph glyph-name="eight.dnom" horiz-adv-x="780" 
d="M387 874q122 0 207.5 -73t85.5 -185q0 -94 -86 -163q115 -81 115 -193q0 -121 -93.5 -198.5t-228.5 -77.5q-133 0 -225 77.5t-92 198.5q0 57 29.5 107t82.5 84q-84 68 -84 165q0 112 84 185t205 73zM387 700q-41 0 -68.5 -27t-27.5 -67q0 -39 27 -64.5t69 -25.5
q43 0 70.5 25t27.5 65t-28 67t-70 27zM387 356q-45 0 -74.5 -28t-29.5 -72q0 -42 29.5 -69t74.5 -27q48 0 78.5 27t30.5 69q0 44 -31 72t-78 28z" />
    <glyph glyph-name="nine.dnom" horiz-adv-x="778" 
d="M391 874q133 0 225.5 -82.5t92.5 -209.5q0 -89 -52 -168l-268 -414h-248l189 293q-113 19 -186.5 98t-73.5 191q0 127 93.5 209.5t227.5 82.5zM391 467q45 0 75 31t30 84q0 51 -29.5 80.5t-75.5 29.5q-48 0 -77 -29t-29 -81q0 -53 29 -84t77 -31z" />
    <glyph glyph-name="zero.numr" horiz-adv-x="782" 
d="M408 1516q153 0 242 -120t89 -323q0 -205 -89 -325.5t-242 -120.5q-155 0 -244.5 120.5t-89.5 325.5q0 203 89.5 323t244.5 120zM408 1325q-113 0 -113 -252q0 -254 113 -254q110 0 110 254q0 252 -110 252z" />
    <glyph glyph-name="one.numr" horiz-adv-x="550" 
d="M463 1518v-875h-219v539l-113 -60l-88 203l416 193h4z" />
    <glyph glyph-name="two.numr" horiz-adv-x="704" 
d="M350 1518q141 0 226.5 -80t85.5 -205q0 -60 -24 -113t-71 -116l-131 -168h230v-193h-594v6l309 463q35 46 47 71t12 56q0 39 -24.5 62.5t-65.5 23.5q-89 0 -104 -115l-197 45q49 263 301 263z" />
    <glyph glyph-name="three.numr" horiz-adv-x="690" 
d="M354 1518q135 0 218 -79t83 -196q0 -107 -92 -168q107 -58 107 -174q0 -120 -85.5 -197t-226.5 -77q-260 0 -309 250l197 45q15 -101 112 -101q42 0 67.5 24.5t25.5 65.5q0 38 -27 64t-68 26h-94v164h94q37 2 60.5 23t23.5 57t-25.5 58t-64.5 22q-35 0 -60 -21.5
t-32 -64.5l-190 80q29 98 102.5 148.5t183.5 50.5z" />
    <glyph glyph-name="four.numr" horiz-adv-x="774" 
d="M666 1520v-625h88v-156h-88v-96h-217v96h-431v2l644 779h4zM471 1077l-160 -192h160v192z" />
    <glyph glyph-name="five.numr" horiz-adv-x="724" 
d="M639 1501v-192h-307v-123q30 10 53 10q136 0 222.5 -71t86.5 -218q0 -127 -84.5 -203.5t-228.5 -76.5q-247 0 -311 200l180 86q28 -92 117 -92q47 0 77.5 27t30.5 72q0 42 -32 70t-81 28q-56 0 -98 -37l-151 66v454h526z" />
    <glyph glyph-name="six.numr" horiz-adv-x="747" 
d="M449 1208q113 -19 186.5 -97.5t73.5 -190.5q0 -127 -94 -210t-228 -83q-133 0 -225 83t-92 210q0 92 53 167l268 414h246zM387 809q48 0 78.5 30t30.5 81q0 53 -30.5 83.5t-78.5 30.5q-45 0 -74.5 -30.5t-29.5 -83.5q0 -51 29.5 -81t74.5 -30z" />
    <glyph glyph-name="seven.numr" horiz-adv-x="727" 
d="M725 1501v-8l-422 -850h-237l337 662h-337v196h659z" />
    <glyph glyph-name="eight.numr" horiz-adv-x="749" 
d="M387 1518q122 0 207.5 -73t85.5 -185q0 -95 -86 -164q115 -80 115 -193q0 -121 -93.5 -198.5t-228.5 -77.5q-133 0 -225 77.5t-92 198.5q0 57 29.5 107t82.5 84q-84 68 -84 166q0 112 84 185t205 73zM387 1343q-41 0 -68.5 -27t-27.5 -67q0 -39 27 -64.5t69 -25.5
q43 0 70.5 25t27.5 65t-28 67t-70 27zM387 999q-45 0 -74.5 -28t-29.5 -72q0 -42 29.5 -69t74.5 -27q48 0 78.5 27t30.5 69q0 44 -31 72t-78 28z" />
    <glyph glyph-name="nine.numr" horiz-adv-x="747" 
d="M391 1518q133 0 225.5 -83t92.5 -210q0 -89 -52 -168l-268 -414h-248l189 293q-113 19 -186.5 98t-73.5 191q0 127 93.5 210t227.5 83zM391 1110q45 0 75 31t30 84q0 51 -29.5 80.5t-75.5 29.5q-48 0 -77 -29t-29 -81q0 -53 29 -84t77 -31z" />
    <glyph glyph-name="zero.subs" horiz-adv-x="782" 
d="M408 668q153 0 242 -120t89 -323q0 -205 -89 -325.5t-242 -120.5q-155 0 -244.5 120.5t-89.5 325.5q0 203 89.5 323t244.5 120zM408 477q-113 0 -113 -252q0 -254 113 -254q110 0 110 254q0 252 -110 252z" />
    <glyph glyph-name="one.subs" horiz-adv-x="550" 
d="M463 670v-875h-219v539l-113 -60l-88 203l416 193h4z" />
    <glyph glyph-name="two.subs" horiz-adv-x="704" 
d="M350 670q141 0 226.5 -80t85.5 -205q0 -60 -24 -113t-71 -116l-131 -168h230v-193h-594v6l309 463q35 46 47 71t12 56q0 39 -24.5 62.5t-65.5 23.5q-89 0 -104 -115l-197 46q49 262 301 262z" />
    <glyph glyph-name="three.subs" horiz-adv-x="690" 
d="M354 670q135 0 218 -79t83 -196q0 -107 -92 -168q107 -58 107 -174q0 -120 -85.5 -197t-226.5 -77q-260 0 -309 250l197 45q15 -101 112 -101q42 0 67.5 24.5t25.5 65.5q0 39 -27 65t-68 26h-94v163h94q37 2 60.5 23t23.5 57t-25.5 58t-64.5 22q-35 0 -60 -21.5
t-32 -64.5l-190 80q29 98 102.5 148.5t183.5 50.5z" />
    <glyph glyph-name="four.subs" horiz-adv-x="774" 
d="M666 672v-625h88v-156h-88v-96h-217v96h-431v3l644 778h4zM471 229l-160 -192h160v192z" />
    <glyph glyph-name="five.subs" horiz-adv-x="724" 
d="M639 653v-192h-307v-123q30 10 53 10q136 0 222.5 -71t86.5 -218q0 -127 -84.5 -203.5t-228.5 -76.5q-247 0 -311 201l180 86q28 -93 117 -93q47 0 77.5 27t30.5 72q0 42 -32 70t-81 28q-56 0 -98 -37l-151 66v454h526z" />
    <glyph glyph-name="six.subs" horiz-adv-x="747" 
d="M449 360q113 -19 186.5 -97.5t73.5 -190.5q0 -127 -94 -210t-228 -83q-133 0 -225 83t-92 210q0 93 53 168l268 413h246zM387 -39q48 0 78.5 30t30.5 81q0 53 -30.5 83.5t-78.5 30.5q-45 0 -74.5 -30.5t-29.5 -83.5q0 -51 29.5 -81t74.5 -30z" />
    <glyph glyph-name="seven.subs" horiz-adv-x="727" 
d="M725 653v-8l-422 -850h-237l337 662h-337v196h659z" />
    <glyph glyph-name="eight.subs" horiz-adv-x="749" 
d="M387 670q122 0 207.5 -73t85.5 -185q0 -95 -86 -164q115 -81 115 -193q0 -121 -93.5 -198.5t-228.5 -77.5q-133 0 -225 77.5t-92 198.5q0 57 29.5 107t82.5 84q-84 68 -84 166q0 112 84 185t205 73zM387 496q-41 0 -68.5 -27.5t-27.5 -67.5q0 -39 27 -64.5t69 -25.5
q43 0 70.5 25t27.5 65t-28 67.5t-70 27.5zM387 152q-45 0 -74.5 -28.5t-29.5 -72.5q0 -42 29.5 -69t74.5 -27q48 0 78.5 27t30.5 69q0 44 -31 72.5t-78 28.5z" />
    <glyph glyph-name="nine.subs" horiz-adv-x="747" 
d="M391 670q133 0 225.5 -83t92.5 -210q0 -89 -52 -168l-268 -414h-248l189 293q-113 19 -186.5 98t-73.5 191q0 127 93.5 210t227.5 83zM391 262q45 0 75 31t30 84q0 51 -29.5 80.5t-75.5 29.5q-48 0 -77 -29t-29 -81q0 -53 29 -84t77 -31z" />
    <glyph glyph-name="zero.lnum" horiz-adv-x="1228" 
d="M614 1532q254 0 399.5 -210t145.5 -568q0 -360 -145.5 -570.5t-399.5 -210.5t-399 210.5t-145 570.5q0 358 145 568t399 210zM614 1264q-119 0 -177 -135t-58 -375q0 -241 58 -376.5t177 -135.5q120 0 178 135t58 377q0 240 -58 375t-178 135z" />
    <glyph glyph-name="one.lnum" horiz-adv-x="1228" 
d="M817 1532v-1256h252v-276h-831v276h276v754l-295 -151l-127 276l717 377h8z" />
    <glyph glyph-name="two.lnum" horiz-adv-x="1228" 
d="M592 1532q224 0 361 -132t137 -341q0 -116 -43 -211.5t-134 -212.5l-278 -365h465v-270h-967v12l535 770q65 92 88.5 150t23.5 131q0 91 -52 145t-136 54q-89 0 -139.5 -56t-69.5 -168l-274 62q79 432 483 432z" />
    <glyph glyph-name="three.lnum" horiz-adv-x="1228" 
d="M608 1532q215 0 348.5 -129.5t133.5 -327.5q0 -205 -172 -305q94 -44 148 -128t54 -200q0 -208 -136.5 -338.5t-362.5 -130.5q-411 0 -506 422l276 66q23 -107 77.5 -162t149.5 -55q88 0 142.5 57t54.5 150q0 89 -57.5 145.5t-149.5 56.5h-159v236h161q75 2 125.5 50.5
t50.5 133.5t-51 137t-129 52q-75 0 -125.5 -48t-70.5 -139l-265 113q51 162 169 253t294 91z" />
    <glyph glyph-name="four.lnum" horiz-adv-x="1228" 
d="M1004 1526v-1075h170v-232h-170v-219h-304v219h-671v8l966 1299h9zM725 807l-268 -363h268v363z" />
    <glyph glyph-name="five.lnum" horiz-adv-x="1228" 
d="M1047 1505v-270h-541v-311q61 26 129 26q107 0 196.5 -30t158.5 -89t108 -155t39 -219q0 -214 -137.5 -349t-366.5 -135q-191 0 -320.5 85t-185.5 253l258 125q55 -192 231 -192q94 0 154.5 63.5t60.5 163.5q0 102 -62.5 164.5t-164.5 62.5q-119 0 -194 -75l-209 90v792
h846z" />
    <glyph glyph-name="six.lnum" horiz-adv-x="1228" 
d="M659 985q200 -18 335.5 -159t135.5 -347q0 -145 -70.5 -261.5t-189 -180.5t-260.5 -64q-141 0 -258.5 64t-187.5 180.5t-70 261.5q0 83 23 152t76 157l452 717h340zM610 242q92 0 152.5 65.5t60.5 171.5q0 107 -60.5 173.5t-152.5 66.5q-90 0 -148.5 -66t-58.5 -174
q0 -106 58.5 -171.5t148.5 -65.5z" />
    <glyph glyph-name="seven.lnum" horiz-adv-x="1228" 
d="M1186 1505v-12l-723 -1493h-328l604 1229h-620v276h1067z" />
    <glyph glyph-name="eight.lnum" horiz-adv-x="1228" 
d="M612 1532q126 0 232.5 -54.5t169.5 -153.5t63 -222q0 -96 -41.5 -174.5t-115.5 -132.5q98 -59 156.5 -151.5t58.5 -199.5q0 -136 -71.5 -244.5t-190.5 -167.5t-261 -59q-141 0 -258.5 59t-187.5 167.5t-70 244.5q0 109 56 201t153 148q-155 113 -155 309q0 186 134.5 308
t327.5 122zM612 1274q-77 0 -129.5 -52.5t-52.5 -131.5q0 -83 52.5 -137t129.5 -54t131 54.5t54 136.5q0 79 -54 131.5t-131 52.5zM612 651q-88 0 -147 -60t-59 -151q0 -89 59 -148t147 -59q91 0 152 59t61 148q0 91 -61 151t-152 60z" />
    <glyph glyph-name="nine.lnum" horiz-adv-x="1228" 
d="M616 1532q141 0 259 -64t188 -180.5t70 -261.5q0 -83 -23 -152t-76 -157l-452 -717h-340l325 520q-200 18 -335.5 159t-135.5 347q0 145 70.5 261.5t189 180.5t260.5 64zM616 786q90 0 148.5 66t58.5 174q0 107 -58 172.5t-149 65.5q-92 0 -152.5 -65.5t-60.5 -172.5
t60.5 -173.5t152.5 -66.5z" />
    <glyph glyph-name="zero.tnum" horiz-adv-x="1220" 
d="M610 1167q237 0 391 -168.5t154 -425.5q0 -258 -154.5 -425.5t-390.5 -167.5q-237 0 -390.5 167.5t-153.5 425.5q0 169 70 305t194.5 212.5t279.5 76.5zM610 903q-105 0 -172 -91.5t-67 -238.5q0 -148 67 -238.5t172 -90.5t172.5 90.5t67.5 238.5q0 147 -67 238.5
t-173 91.5z" />
    <glyph glyph-name="one.tnum" horiz-adv-x="815" 
d="M668 1167v-1167h-303v664l-222 -121l-123 280l639 344h9z" />
    <glyph glyph-name="two.tnum" horiz-adv-x="1093" 
d="M537 1167q136 0 243 -58t163 -151.5t56 -203.5q0 -57 -12.5 -107.5t-27 -83.5t-47 -74t-51 -59t-60.5 -59l-109 -101h336v-270h-924v12l402 420q104 109 132 148q52 74 52 153q0 76 -47 120t-123 44q-118 0 -168 -133l-252 123q116 280 437 280z" />
    <glyph glyph-name="three.tnum" horiz-adv-x="1073" 
d="M530 1167q215 0 348.5 -125t133.5 -317q0 -200 -172 -297q94 -43 148 -124.5t54 -194.5q0 -202 -136.5 -328.5t-364.5 -126.5q-405 0 -504 412l276 63q46 -211 228 -211q88 0 143 54.5t55 144.5q0 87 -58 141.5t-151 54.5h-157v230h159q76 2 126.5 48.5t50.5 129.5
q0 82 -51.5 132t-129.5 50q-75 0 -125.5 -46t-70.5 -134l-264 108q51 159 169 247.5t293 88.5z" />
    <glyph glyph-name="four.tnum" horiz-adv-x="1185" 
d="M971 1167v-1044h168v-223h-168v-213h-303v213h-672v8l967 1259h8zM690 471l-266 -354h266v354z" />
    <glyph glyph-name="five.tnum" horiz-adv-x="1120" 
d="M983 1147v-264h-541v-301q61 26 131 26q107 0 196.5 -29.5t158 -86.5t107 -150t38.5 -213q0 -207 -137 -338t-367 -131q-190 0 -318 82.5t-185 245.5l251 121q27 -90 86.5 -138.5t147.5 -48.5q96 0 156.5 61.5t60.5 159.5q0 97 -62 159.5t-163 62.5q-115 0 -197 -74
l-207 86v770h844z" />
    <glyph glyph-name="six.tnum" horiz-adv-x="1153" 
d="M625 954q199 -18 334 -155t135 -334q0 -141 -70.5 -254.5t-189.5 -175.5t-261 -62q-141 0 -258.5 62t-187.5 175.5t-70 254.5q0 144 82 268l469 727h346zM573 233q92 0 152.5 64t60.5 168q0 103 -60.5 167t-152.5 64q-90 0 -148 -64t-58 -167q0 -105 58 -168.5t148 -63.5
z" />
    <glyph glyph-name="seven.tnum" horiz-adv-x="1122" 
d="M1116 1147v-12l-723 -1448h-327l602 1192h-619v268h1067z" />
    <glyph glyph-name="eight.tnum" horiz-adv-x="1153" 
d="M571 1487q194 0 329.5 -119t135.5 -299q0 -92 -42 -169t-115 -130q98 -57 155.5 -146t57.5 -194q0 -131 -70.5 -236.5t-189.5 -163t-261 -57.5q-141 0 -258.5 57.5t-187.5 163t-70 236.5q0 106 56 195.5t153 142.5q-74 53 -116 130t-42 171q0 180 135.5 299t329.5 119z
M571 1235q-77 0 -129.5 -51.5t-52.5 -128.5q0 -79 52.5 -132t129.5 -53t130 53t53 132q0 77 -53 128.5t-130 51.5zM571 631q-88 0 -147 -58t-59 -147q0 -87 59 -144t147 -57q91 0 152 57t61 144q0 89 -61 147t-152 58z" />
    <glyph glyph-name="nine.tnum" horiz-adv-x="1153" 
d="M578 1167q141 0 258.5 -61.5t187.5 -175t70 -254.5q0 -143 -80 -268l-471 -727h-344l327 505q-199 17 -334 155t-135 335q0 106 41.5 198t112 156t166 100.5t201.5 36.5zM578 444q90 0 148 64.5t58 167.5q0 104 -58 167.5t-148 63.5q-92 0 -152.5 -63.5t-60.5 -167.5
q0 -103 60.5 -167.5t152.5 -64.5z" />
    <glyph glyph-name="a.sups" horiz-adv-x="901" 
d="M365 1538q143 0 208 -90l13 76h215v-729h-215l-13 75q-68 -90 -208 -90t-229 107t-89 272t89 272t229 107zM430 1329q-63 0 -101 -45.5t-38 -124.5t38 -124.5t101 -45.5q78 0 129 78v186q-50 76 -129 76z" />
    <glyph glyph-name="b.sups" horiz-adv-x="901" 
d="M342 1884v-420q66 74 195 74q140 0 228.5 -107t88.5 -272t-88.5 -272t-228.5 -107q-141 0 -209 90l-13 -75h-215v1089h242zM471 1329q-80 0 -129 -78v-184q51 -78 129 -78q63 0 101 45.5t38 124.5t-38 124.5t-101 45.5z" />
    <glyph glyph-name="c.sups" horiz-adv-x="763" 
d="M428 1538q208 0 317 -170l-176 -131q-55 94 -139 94q-66 0 -102.5 -49t-36.5 -123t37 -123t102 -49q88 0 139 94l179 -129q-110 -172 -318 -172q-167 0 -275 107t-108 272q0 164 108.5 271.5t272.5 107.5z" />
    <glyph glyph-name="d.sups" horiz-adv-x="901" 
d="M801 1884v-1089h-215l-13 75q-68 -90 -208 -90t-229 107t-89 272t89 272t229 107q128 0 194 -74v420h242zM430 1329q-63 0 -101 -45.5t-38 -124.5t38 -124.5t101 -45.5q78 0 129 78v184q-49 78 -129 78z" />
    <glyph glyph-name="e.sups" horiz-adv-x="821" 
d="M424 1538q112 0 191 -51.5t115 -133.5t36 -186v-65h-481q5 -59 43 -92t106 -33q44 0 83 20t63 52l165 -138q-119 -131 -315 -131q-172 0 -277.5 106.5t-105.5 272.5q0 164 105 271.5t272 107.5zM412 1364q-54 0 -89 -34.5t-38 -88.5h250q-3 54 -34.5 88.5t-88.5 34.5z
" />
    <glyph glyph-name="f.sups" horiz-adv-x="593" 
d="M465 1884q106 0 174 -43l-84 -194q-32 28 -76 28q-38 0 -59 -24.5t-21 -67.5v-59h154v-203h-154v-526h-241v526h-125v203h125v45q0 140 83 227.5t224 87.5z" />
    <glyph glyph-name="g.sups" horiz-adv-x="903" 
d="M367 1538q144 0 206 -90l15 76h215v-695q0 -176 -111 -277t-297 -101q-224 0 -366 159l155 158q94 -109 209 -109q75 0 119.5 47t46.5 117v56q-64 -72 -192 -72q-141 0 -230.5 103t-89.5 261q0 161 89 264t231 103zM430 1331q-63 0 -101 -42.5t-38 -117.5
q0 -74 38 -115.5t101 -41.5q79 0 129 76v165q-50 76 -129 76z" />
    <glyph glyph-name="h.sups" horiz-adv-x="882" 
d="M342 1884v-420q67 74 182 74q133 0 204 -87.5t71 -240.5v-415h-244v403q0 52 -25.5 83.5t-70.5 31.5q-78 0 -117 -72v-446h-242v1089h242z" />
    <glyph glyph-name="i.sups" horiz-adv-x="442" 
d="M221 1890q60 0 98.5 -39t38.5 -100q0 -60 -38.5 -97.5t-98.5 -37.5t-98.5 37.5t-38.5 97.5q0 61 38.5 100t98.5 39zM342 1524v-729h-242v729h242z" />
    <glyph glyph-name="j.sups" horiz-adv-x="462" 
d="M242 1890q60 0 98.5 -39t38.5 -100q0 -60 -38.5 -97.5t-98.5 -37.5t-99 37.5t-39 97.5q0 61 39 100t99 39zM362 1524v-750q0 -147 -101 -235t-271 -88v208q62 0 96.5 26t34.5 69v770h241z" />
    <glyph glyph-name="k.sups" horiz-adv-x="872" 
d="M342 1884v-686l213 326h291l-223 -291l235 -438h-272l-123 227l-174 -227h-189v1089h242z" />
    <glyph glyph-name="l.sups" horiz-adv-x="442" 
d="M342 1884v-1089h-242v1089h242z" />
    <glyph glyph-name="m.sups" horiz-adv-x="1318" 
d="M973 1538q126 0 194 -87.5t68 -240.5v-415h-242v403q0 53 -23.5 84t-68.5 31q-68 0 -113 -72v-6v-440h-241v403q0 53 -23.5 84t-68.5 31q-68 0 -113 -72v-446h-242v729h215l13 -74q63 88 200 88q145 0 213 -117q85 117 232 117z" />
    <glyph glyph-name="o.sups" horiz-adv-x="870" 
d="M434 1538q167 0 279 -108t112 -271q0 -164 -111.5 -271.5t-279.5 -107.5q-167 0 -277 107.5t-110 271.5q0 163 110 271t277 108zM434 1329q-65 0 -104 -47t-39 -123q0 -77 38.5 -123.5t104.5 -46.5t106 46.5t40 123.5q0 75 -40 122.5t-106 47.5z" />
    <glyph glyph-name="p.sups" horiz-adv-x="901" 
d="M537 1538q140 0 228.5 -107t88.5 -272q0 -164 -88.5 -271.5t-228.5 -107.5q-129 0 -195 74v-389h-242v1059h215l13 -76q65 90 209 90zM471 1329q-79 0 -129 -76v-186q51 -78 129 -78q63 0 101 45.5t38 124.5q0 81 -37.5 125.5t-101.5 44.5z" />
    <glyph glyph-name="q.sups" horiz-adv-x="901" 
d="M365 1538q143 0 208 -90l13 76h215v-1059h-242v389q-66 -74 -194 -74q-140 0 -229 107.5t-89 271.5q0 165 89 272t229 107zM430 1329q-64 0 -101.5 -44.5t-37.5 -125.5q0 -79 38 -124.5t101 -45.5q78 0 129 78v186q-50 76 -129 76z" />
    <glyph glyph-name="r.sups" horiz-adv-x="567" 
d="M537 1538v-240h-21q-104 0 -174 -84v-419h-242v729h213l17 -94q30 48 83.5 78t123.5 30z" />
    <glyph glyph-name="s.sups" horiz-adv-x="704" 
d="M389 1538q154 0 264 -76l-84 -166q-87 64 -180 64q-78 0 -78 -53q0 -23 24.5 -36t100.5 -32q112 -28 164.5 -77t52.5 -130q0 -114 -88.5 -183t-240.5 -69q-81 0 -159 25t-124 65l92 162q81 -74 193 -74q86 0 86 56q0 24 -21.5 36.5t-89.5 30.5q-121 32 -176 79t-55 128
q0 114 84.5 182t234.5 68z" />
    <glyph glyph-name="t.sups" horiz-adv-x="641" 
d="M389 1763v-239h201v-203h-201v-240q0 -39 25 -62.5t65 -23.5q50 0 88 21l60 -189q-73 -47 -170 -47q-143 0 -225 78.5t-82 220.5v242h-127v203h127v239h239z" />
    <glyph glyph-name="u.sups" horiz-adv-x="878" 
d="M778 1524v-729h-215l-12 71q-65 -86 -201 -86q-130 0 -198 87t-68 239v418h242v-404q0 -52 24 -82t70 -30q74 0 117 69v447h241z" />
    <glyph glyph-name="v.sups" horiz-adv-x="862" 
d="M846 1524l-412 -744h-6l-410 744h269l145 -305l143 305h271z" />
    <glyph glyph-name="w.sups" horiz-adv-x="1134" 
d="M1116 1524l-360 -744h-6l-183 318l-184 -318h-6l-359 744h269l116 -301l162 301h4l158 -301l119 301h270z" />
    <glyph glyph-name="x.sups" horiz-adv-x="802" 
d="M780 1524l-217 -363l228 -366h-283l-111 194l-108 -194h-283l225 366l-215 363h281l100 -193l103 193h280z" />
    <glyph glyph-name="y.sups" horiz-adv-x="868" 
d="M848 1524l-582 -1059h-274l311 543l-285 516h273l141 -305l146 305h270z" />
    <glyph glyph-name="z.sups" horiz-adv-x="720" 
d="M678 1524v-6l-275 -521h273v-202h-637v6l274 520h-256v203h621z" />
    <glyph glyph-name="G.smcp_I.smcp" horiz-adv-x="1228" 
d="M707 1614q181 0 327.5 -86t229 -237t82.5 -337q0 -140 -48.5 -262t-133 -209t-203 -136.5t-254.5 -49.5q-184 0 -330 85t-227.5 235t-81.5 337t81.5 337.5t227.5 236.5t330 86zM707 1462q-137 0 -246.5 -67t-170.5 -183t-61 -258q0 -218 135 -360.5t343 -142.5
q206 0 340.5 143t134.5 360q0 142 -60.5 258t-169.5 183t-245 67z" />
    <glyph glyph-name="zero.slash" 
d="M610 1532q254 0 399.5 -210t145.5 -568q0 -360 -145.5 -570.5t-399.5 -210.5q-255 0 -399.5 210.5t-144.5 570.5q0 359 144.5 568.5t399.5 209.5zM610 1280q-120 0 -177.5 -139t-57.5 -387q0 -118 12 -217l367 665q-59 78 -144 78zM610 225q119 0 177.5 140t58.5 389
q0 116 -12 207l-365 -662q58 -74 141 -74z" />
    <glyph glyph-name="K.alt" horiz-adv-x="1447" 
d="M1354 1505l-486 -680l545 -825h-375l-376 575l-199 -262v-313h-313v1505h313v-772l534 772h357z" />
    <glyph glyph-name="Kcommaaccent.alt" horiz-adv-x="1447" 
d="M1354 1505l-486 -680l545 -825h-375l-376 575l-199 -262v-313h-313v1505h313v-772l534 772h357zM709 -92q68 0 112.5 -35.5t44.5 -89.5q0 -44 -19 -75t-61 -62l-149 -117h-8v367q34 12 80 12z" />
    <glyph glyph-name="M.alt" horiz-adv-x="1738" 
d="M1589 1532v-1532h-313v795l-397 -451h-17l-399 453v-797h-313v1532h8l712 -772l711 772h8z" />
    <glyph glyph-name="idotaccent" horiz-adv-x="552" 
d="M276 1544q77 0 128 -51t51 -127t-51 -127t-128 -51q-76 0 -126 50.5t-50 127.5t50 127.5t126 50.5zM428 1038v-1038h-303v1038h303z" />
    <glyph glyph-name="k.alt" horiz-adv-x="1175" 
d="M432 1556v-952l373 434h338l-340 -393l362 -645h-340l-233 410l-160 -172v-238h-303v1556h303z" />
    <glyph glyph-name="kcommaaccent.alt" horiz-adv-x="1175" 
d="M432 1556v-952l373 434h338l-340 -393l362 -645h-340l-233 410l-160 -172v-238h-303v1556h303zM586 -92q68 0 112.5 -35.5t44.5 -89.5q0 -44 -19 -75.5t-60 -61.5l-150 -117h-8v367q34 12 80 12z" />
    <glyph glyph-name="f_k.alt" horiz-adv-x="1972" 
d="M618 1556q119 0 189 -36l-68 -252q-34 24 -98 24q-59 0 -92 -39.5t-33 -107.5v-107h232v-256h-232v-782h-303v782h-180v256h180v97q0 186 109.5 303.5t295.5 117.5zM1227 1556v-952l375 434h337l-340 -393l363 -645h-340l-233 410l-162 -172v-238h-303v1556h303z" />
    </font>
</defs>
</svg>
