<?xml version="1.0" standalone="no"?>
<!DOCTYPE svg PUBLIC "-//W3C//DTD SVG 1.1//EN" "http://www.w3.org/Graphics/SVG/1.1/DTD/svg11.dtd" >
<svg xmlns="http://www.w3.org/2000/svg" xmlns:xlink="http://www.w3.org/1999/xlink" version="1.1">
<metadata>
Created by FontForge 20170731 at Tue May  9 08:32:44 2023
 By Aleksey,,,
Copyright (c) 2013 by Nico Inosanto. All rights reserved.
</metadata>
<defs>
<font id="Radikal-Light" horiz-adv-x="1144" >
  <font-face 
    font-family="Radikal Light"
    font-weight="300"
    font-stretch="normal"
    units-per-em="2048"
    panose-1="0 0 4 0 0 0 0 0 0 0"
    ascent="1638"
    descent="-410"
    x-height="1024"
    cap-height="1505"
    bbox="-272 -516 2492 2175"
    underline-thickness="102"
    underline-position="-307"
    unicode-range="U+0020-FB02"
  />
<missing-glyph horiz-adv-x="1216" 
d="M1081 1432v-1432h-948v1432h948zM958 1348h-706l354 -564zM997 1255l-346 -546l346 -549v1095zM217 1245v-1075l340 539zM606 631l-348 -545h690z" />
    <glyph glyph-name="fi" unicode="fi" horiz-adv-x="1167" 
d="M549 1556q108 0 176 -47l-47 -123q-47 35 -123 35q-83 0 -131.5 -58.5t-48.5 -152.5v-186h287v-131h-287v-893h-150v893h-186v131h186v182q0 153 88.5 251.5t235.5 98.5zM940 1464q46 0 77.5 -31t31.5 -77t-31.5 -76.5t-77.5 -30.5t-76 30.5t-30 76.5t30 77t76 31z
M1016 1024v-1024h-150v1024h150z" />
    <glyph glyph-name="fl" unicode="fl" horiz-adv-x="1165" 
d="M545 1556q100 0 170 -45l-39 -125q-44 35 -121 35q-83 0 -131.5 -58.5t-48.5 -152.5v-186h287v-131h-287v-893h-150v893h-186v131h186v182q0 153 88 251.5t232 98.5zM1008 1556v-1556h-150v1556h150z" />
    <glyph glyph-name="f_j" unicode="fj" horiz-adv-x="1167" 
d="M549 1556q108 0 176 -47l-47 -123q-47 35 -123 35q-83 0 -131.5 -58.5t-48.5 -152.5v-186h287v-131h-287v-893h-150v893h-186v131h186v182q0 153 88.5 251.5t235.5 98.5zM940 1464q46 0 77.5 -31t31.5 -77t-31.5 -76.5t-77.5 -30.5t-76 30.5t-30 76.5t30 77t76 31z
M670 -492q-144 0 -242 76l82 117q71 -57 164 -57q84 0 138 56.5t54 147.5v1176h150v-1174q0 -147 -98 -244.5t-248 -97.5z" />
    <glyph glyph-name="f_b" unicode="fb" horiz-adv-x="1898" 
d="M545 1556q100 0 170 -45l-39 -125q-44 35 -121 35q-83 0 -131.5 -58.5t-48.5 -152.5v-186h287v-131h-287v-893h-150v893h-186v131h186v182q0 153 88 251.5t232 98.5zM1008 1556v-659q122 147 342 147q138 0 247 -68.5t168.5 -190t59.5 -273.5q0 -233 -132.5 -382.5
t-342.5 -149.5q-229 0 -349 157l-6 -137h-137v1556h150zM1325 909q-108 0 -183.5 -48t-133.5 -136v-426q58 -88 133.5 -136t183.5 -48q153 0 250.5 110.5t97.5 286.5q0 174 -98 285.5t-250 111.5z" />
    <glyph glyph-name="f_h" unicode="fh" horiz-adv-x="1869" 
d="M545 1556q100 0 170 -45l-39 -125q-44 35 -121 35q-83 0 -131.5 -58.5t-48.5 -152.5v-186h287v-131h-287v-893h-150v893h-186v131h186v182q0 153 88 251.5t232 98.5zM1008 1556v-661q134 149 333 149q182 0 286 -118t104 -314v-612h-150v604q0 133 -74 215t-196 82
q-96 0 -166.5 -46t-136.5 -132v-723h-150v1556h150z" />
    <glyph glyph-name="f_k" unicode="fk" horiz-adv-x="1759" 
d="M545 1556q100 0 170 -45l-39 -125q-44 35 -121 35q-83 0 -131.5 -58.5t-48.5 -152.5v-186h287v-131h-287v-893h-150v893h-186v131h186v182q0 153 88 251.5t232 98.5zM1008 1556v-1284l501 752h170l-313 -461l375 -563h-176l-293 438l-291 -438h-123v1556h150z" />
    <glyph glyph-name=".notdef" horiz-adv-x="1216" 
d="M1081 1432v-1432h-948v1432h948zM958 1348h-706l354 -564zM997 1255l-346 -546l346 -549v1095zM217 1245v-1075l340 539zM606 631l-348 -545h690z" />
    <glyph glyph-name=".null" horiz-adv-x="0" 
 />
    <glyph glyph-name="nonmarkingreturn" horiz-adv-x="682" 
 />
    <glyph glyph-name="space" unicode=" " horiz-adv-x="493" 
 />
    <glyph glyph-name="exclam" unicode="!" horiz-adv-x="503" 
d="M326 1505v-1108h-148v1108h148zM252 203q47 0 78.5 -32t31.5 -79q0 -49 -31 -80.5t-79 -31.5q-49 0 -80 31t-31 81q0 48 31 79.5t80 31.5z" />
    <glyph glyph-name="quotedbl" unicode="&#x22;" horiz-adv-x="661" 
d="M483 997l-57 295q-1 8 -7 35.5t-9.5 50.5t-3.5 45q0 44 25.5 72.5t64.5 28.5q37 0 62.5 -28.5t25.5 -72.5q0 -22 -3.5 -45.5t-9.5 -49.5t-8 -36l-57 -295h-23zM156 997l-58 295q-1 8 -7 35.5t-9.5 50.5t-3.5 45q0 44 25.5 72.5t64.5 28.5q37 0 62.5 -28.5t25.5 -72.5
q0 -22 -3.5 -45t-9.5 -50.5t-7 -35.5l-58 -295h-22z" />
    <glyph glyph-name="numbersign" unicode="#" horiz-adv-x="1447" 
d="M1188 1505l-78 -432h301v-125h-321l-72 -405h297v-127h-318l-71 -416h-152l74 416h-395l-72 -416h-152l74 416h-301v127h324l71 405h-299v125h320l78 432h147l-78 -432h398l77 432h148zM942 948h-397l-72 -405h397z" />
    <glyph glyph-name="dollar" unicode="$" horiz-adv-x="1191" 
d="M1116 418q0 -185 -122 -304.5t-332 -138.5v-239h-130v239q-272 17 -469 187l91 129q82 -80 202.5 -127t245.5 -47q159 0 259 76t100 213q0 114 -89 179.5t-294 108.5q-264 58 -369 150.5t-105 263.5q0 182 117.5 295t310.5 127v250h130v-252q225 -22 405 -158l-78 -133
q-82 68 -188 110t-217 42q-143 0 -233.5 -69t-90.5 -204q0 -116 77.5 -173.5t283.5 -102.5q268 -59 381.5 -154.5t113.5 -267.5z" />
    <glyph glyph-name="percent" unicode="%" horiz-adv-x="1742" 
d="M422 1532q155 0 256.5 -107t101.5 -270t-101.5 -268t-256.5 -105q-157 0 -258 105t-101 268t101.5 270t257.5 107zM1434 1505l-988 -1505h-139l987 1505h140zM422 1417q-104 0 -172 -74t-68 -188q0 -113 68 -186.5t172 -73.5t170.5 73.5t66.5 186.5q0 114 -66.5 188
t-170.5 74zM1323 725q155 0 256.5 -107t101.5 -270t-101.5 -268t-256.5 -105q-157 0 -258.5 105t-101.5 268t102 270t258 107zM1323 610q-104 0 -172 -74t-68 -188q0 -112 68 -185t172 -73q103 0 171.5 73t68.5 185q0 114 -68.5 188t-171.5 74z" />
    <glyph glyph-name="ampersand" unicode="&#x26;" horiz-adv-x="1380" 
d="M1384 0h-196l-199 223q-51 -55 -98 -94.5t-106 -76t-128 -55t-145 -17.5q-123 0 -224 47.5t-163 142.5t-62 221q0 79 21 142.5t69 120t107.5 103t153.5 105.5q-82 97 -126 180t-44 175q0 142 91.5 228.5t244.5 86.5q149 0 241 -85.5t92 -223.5q0 -51 -15.5 -96.5
t-39 -80.5t-65.5 -71.5t-80 -63t-97 -63.5q26 -26 80 -84l291 -324l209 246h182l-295 -352zM582 1403q-90 0 -142.5 -50.5t-52.5 -140.5q0 -71 37.5 -135.5t107.5 -140.5q133 83 185.5 141.5t52.5 139.5q0 88 -51.5 137t-136.5 49zM520 115q109 0 196.5 58t176.5 159
l-301 336q-62 70 -94 102q-75 -49 -121 -85t-85.5 -80.5t-57 -94t-17.5 -111.5q0 -130 86.5 -207t216.5 -77z" />
    <glyph glyph-name="quotesingle" unicode="'" horiz-adv-x="333" 
d="M156 997l-58 295q-1 8 -7 35.5t-9.5 50.5t-3.5 45q0 44 25.5 72.5t64.5 28.5q37 0 62.5 -28.5t25.5 -72.5q0 -22 -3.5 -45t-9.5 -50.5t-7 -35.5l-58 -295h-22z" />
    <glyph glyph-name="parenleft" unicode="(" horiz-adv-x="589" 
d="M408 1556l110 -83q-56 -71 -99 -140t-86 -165.5t-66 -217t-23 -256.5t23 -256.5t66 -216.5t85.5 -165t99.5 -140l-110 -84q-306 378 -306 862q0 149 26.5 283.5t75 241.5t96 184t108.5 153z" />
    <glyph glyph-name="parenright" unicode=")" horiz-adv-x="589" 
d="M182 1556q61 -75 109.5 -153t96.5 -184.5t74.5 -241t26.5 -283.5q0 -488 -307 -862l-110 84q57 70 100 139.5t85.5 165.5t65.5 216.5t23 256.5q0 110 -16 211.5t-41.5 179.5t-63 153t-73.5 127.5t-80 107.5z" />
    <glyph glyph-name="asterisk" unicode="*" horiz-adv-x="823" 
d="M469 1503l-6 -284l268 94l37 -107l-272 -84l170 -225l-93 -66l-159 226l-162 -226l-92 66l172 225l-275 84l35 107l268 -94l-4 284h113z" />
    <glyph glyph-name="plus" unicode="+" horiz-adv-x="966" 
d="M551 1114v-328h330v-139h-330v-330h-137v330h-330v139h330v328h137z" />
    <glyph glyph-name="comma" unicode="," horiz-adv-x="419" 
d="M180 215q52 0 87.5 -33.5t35.5 -81.5q0 -35 -18 -71l-140 -334h-8v514q18 6 43 6z" />
    <glyph glyph-name="hyphen" unicode="-" horiz-adv-x="790" 
d="M705 612v-139h-619v139h619z" />
    <glyph glyph-name="period" unicode="." horiz-adv-x="456" 
d="M229 217q51 0 85 -33.5t34 -85.5t-34 -85t-85 -33q-53 0 -85.5 33t-32.5 85q0 51 33 85t85 34z" />
    <glyph glyph-name="slash" unicode="/" horiz-adv-x="919" 
d="M909 1503l-743 -1503h-156l748 1503h151z" />
    <glyph glyph-name="zero" unicode="0" horiz-adv-x="1200" 
d="M600 1532q247 0 382.5 -208.5t135.5 -569.5q0 -363 -135.5 -572t-382.5 -209t-382.5 209t-135.5 572q0 361 135.5 569.5t382.5 208.5zM600 1393q-179 0 -271.5 -170t-92.5 -469q0 -301 92.5 -471t271.5 -170q178 0 271.5 170.5t93.5 470.5q0 298 -93.5 468.5
t-271.5 170.5z" />
    <glyph glyph-name="one" unicode="1" horiz-adv-x="741" 
d="M569 1532v-1532h-151v1247l-297 -207l-70 134l510 358h8z" />
    <glyph glyph-name="two" unicode="2" horiz-adv-x="1046" 
d="M514 1532q194 0 316 -120.5t122 -313.5q0 -141 -46.5 -248.5t-151.5 -235.5l-396 -475h617v-139h-889v12l551 684q91 112 127.5 200.5t36.5 203.5q0 135 -81 214t-206 79t-198 -65.5t-101 -201.5l-139 31q39 184 148.5 279.5t289.5 95.5z" />
    <glyph glyph-name="three" unicode="3" horiz-adv-x="1073" 
d="M545 1532q187 0 305.5 -115t118.5 -299q0 -237 -219 -325q128 -43 201 -139.5t73 -229.5q0 -203 -126 -327t-333 -124q-189 0 -303 89.5t-176 259.5l137 38q46 -120 126 -183.5t216 -63.5q137 0 222 85.5t85 225.5q0 129 -93.5 214t-241.5 85h-166v135h170
q115 0 195.5 67.5t80.5 194.5q0 124 -76.5 198.5t-195.5 74.5q-217 0 -303 -232l-133 58q118 313 436 313z" />
    <glyph glyph-name="four" unicode="4" horiz-adv-x="1118" 
d="M856 1513v-1058h221v-140h-221v-315h-151v315h-674v9l815 1189h10zM707 1073l-416 -620h416v620z" />
    <glyph glyph-name="five" unicode="5" horiz-adv-x="1091" 
d="M932 1505v-139h-608v-506q107 58 235 58q210 0 338.5 -130.5t128.5 -343.5q0 -201 -125.5 -336t-331.5 -135q-333 0 -473 301l125 68q110 -229 340 -229q137 0 225 96t88 242q0 145 -90 236t-237 91q-86 0 -153.5 -27.5t-133.5 -76.5l-88 45v786h760z" />
    <glyph glyph-name="six" unicode="6" horiz-adv-x="1103" 
d="M549 952q202 0 342.5 -140t140.5 -351t-140.5 -349.5t-342.5 -138.5q-131 0 -240.5 62t-174 174.5t-64.5 251.5q0 162 90 293l504 751h174l-375 -561q36 8 86 8zM549 113q139 0 234.5 98.5t95.5 249.5q0 153 -96 253.5t-234 100.5q-137 0 -231.5 -100.5t-94.5 -253.5
q0 -152 94.5 -250t231.5 -98z" />
    <glyph glyph-name="seven" unicode="7" horiz-adv-x="1091" 
d="M1051 1505v-12l-775 -1493h-167l716 1364h-768v141h994z" />
    <glyph glyph-name="eight" unicode="8" horiz-adv-x="1103" 
d="M543 1532q172 0 291.5 -111.5t119.5 -281.5q0 -113 -54 -202t-144 -136q122 -51 196 -153.5t74 -231.5q0 -125 -65.5 -227.5t-176 -159t-241.5 -56.5q-98 0 -186.5 33.5t-153.5 91.5t-103.5 141t-38.5 177q0 130 74 233t195 150q-91 47 -145 136t-54 204q0 169 120.5 281
t291.5 112zM543 1395q-112 0 -190.5 -75t-78.5 -187q0 -118 78.5 -196.5t190.5 -78.5q114 0 191 78t77 197q0 113 -77.5 187.5t-190.5 74.5zM543 721q-136 0 -231 -88t-95 -219q0 -129 95 -216t231 -87q138 0 233.5 87t95.5 216q0 131 -95.5 219t-233.5 88z" />
    <glyph glyph-name="nine" unicode="9" horiz-adv-x="1103" 
d="M553 1532q131 0 240.5 -62t174 -174.5t64.5 -251.5q0 -161 -90 -292l-504 -752h-174l375 561q-36 -8 -86 -8q-202 0 -342.5 140t-140.5 351t140.5 349.5t342.5 138.5zM553 690q137 0 231.5 100.5t94.5 253.5q0 152 -94.5 250.5t-231.5 98.5q-139 0 -234.5 -98.5
t-95.5 -250.5q0 -153 96 -253.5t234 -100.5z" />
    <glyph glyph-name="colon" unicode=":" horiz-adv-x="448" 
d="M225 1044q50 0 82.5 -32.5t32.5 -81.5q0 -50 -33 -82.5t-82 -32.5t-81.5 32.5t-32.5 82.5t32.5 82t81.5 32zM225 209q50 0 82.5 -32t32.5 -83q0 -49 -32.5 -81.5t-82.5 -32.5q-49 0 -81.5 32t-32.5 82t32.5 82.5t81.5 32.5z" />
    <glyph glyph-name="semicolon" unicode=";" horiz-adv-x="448" 
d="M225 1044q50 0 82.5 -32.5t32.5 -81.5q0 -50 -33 -82.5t-82 -32.5t-81.5 32.5t-32.5 82.5t32.5 82t81.5 32zM186 209q52 0 87.5 -33.5t35.5 -85.5q0 -22 -18 -67l-141 -334h-9v514q21 6 45 6z" />
    <glyph glyph-name="less" unicode="&#x3c;" horiz-adv-x="774" 
d="M688 1102l-416 -393l416 -394h-192l-410 390v8l410 389h192z" />
    <glyph glyph-name="equal" unicode="=" horiz-adv-x="966" 
d="M881 1016v-139h-797v139h797zM881 555v-139h-797v139h797z" />
    <glyph glyph-name="greater" unicode="&#x3e;" horiz-adv-x="774" 
d="M279 1102l409 -389v-8l-409 -390h-193l414 394l-414 393h193z" />
    <glyph glyph-name="question" unicode="?" horiz-adv-x="968" 
d="M469 1532q186 0 303 -113t117 -289q0 -71 -19 -130.5t-48.5 -101t-66 -78t-73 -68.5t-66 -64.5t-48.5 -75t-19 -90.5v-125h-152v142q0 59 18.5 109.5t48 87t65 70l71 67t65 68.5t48 83t18.5 104q0 124 -74 194.5t-188 70.5q-225 0 -276 -236l-150 29q38 165 145.5 255.5
t280.5 90.5zM473 203q47 0 79 -32t32 -79q0 -49 -31.5 -80.5t-79.5 -31.5q-49 0 -80 31t-31 81q0 48 31 79.5t80 31.5z" />
    <glyph glyph-name="at" unicode="@" horiz-adv-x="1722" 
d="M860 1286q173 0 321 -58.5t252 -161t163 -248t59 -314.5q0 -208 -87 -332.5t-243 -124.5q-76 0 -123.5 34.5t-62.5 94.5l-2 10q-109 -139 -306 -139q-172 0 -282.5 126t-110.5 319q0 194 110 320t283 126q196 0 297 -129l2 111h119v-668q0 -90 88 -90q93 0 144 94t51 248
q0 142 -49.5 265t-137 210.5t-213 137.5t-272.5 50q-194 0 -347 -86.5t-238 -239.5t-85 -345t84.5 -345t236 -239t343.5 -86q143 0 268 49l39 -108q-144 -58 -307 -58q-170 0 -316.5 59t-249.5 162t-161.5 249.5t-58.5 316.5q0 226 100.5 406.5t281.5 282t410 101.5z
M858 823q-127 0 -209 -92t-82 -239t82 -238.5t209 -91.5q90 0 152.5 38.5t111.5 108.5v367q-107 147 -264 147z" />
    <glyph glyph-name="A" unicode="A" horiz-adv-x="1400" 
d="M705 1532l673 -1532h-166l-151 352h-721l-152 -352h-165l673 1532h9zM700 1184l-301 -692h602z" />
    <glyph glyph-name="B" unicode="B" horiz-adv-x="1343" 
d="M684 1505q228 0 346.5 -104t118.5 -287q0 -122 -58 -204.5t-137 -116.5q146 -34 234 -126.5t88 -252.5q0 -194 -134 -304t-358 -110h-606v1505h506zM668 1362h-338v-524h362q141 0 222 73t81 189q0 125 -82 193.5t-245 68.5zM741 698h-411v-555h440q165 0 257.5 71
t92.5 206q0 278 -379 278z" />
    <glyph glyph-name="C" unicode="C" horiz-adv-x="1415" 
d="M825 1532q319 0 531 -215l-101 -115q-172 184 -430 184q-171 0 -305.5 -81.5t-209 -226t-74.5 -326.5t74.5 -326t209 -225.5t305.5 -81.5q136 0 249 52t194 144l98 -118q-209 -224 -541 -224q-160 0 -299 59t-236.5 162t-153.5 247.5t-56 310.5q0 222 95 400t265.5 279
t384.5 101z" />
    <glyph glyph-name="D" unicode="D" horiz-adv-x="1501" 
d="M621 1505q378 0 589 -197.5t211 -553.5q0 -357 -210 -555.5t-590 -198.5h-443v1505h443zM616 1360h-282v-1215h282q311 0 479.5 159.5t168.5 449.5q0 288 -169.5 447t-478.5 159z" />
    <glyph glyph-name="E" unicode="E" horiz-adv-x="1185" 
d="M1087 1505v-145h-753v-526h665v-142h-665v-547h770v-145h-926v1505h909z" />
    <glyph glyph-name="F" unicode="F" horiz-adv-x="1089" 
d="M1057 1505v-145h-723v-547h616v-143h-616v-670h-156v1505h879z" />
    <glyph glyph-name="G" unicode="G" horiz-adv-x="1513" 
d="M825 1532q319 0 531 -215l-101 -115q-172 184 -430 184q-171 0 -305.5 -81.5t-209 -226t-74.5 -326.5q0 -276 172 -454.5t442 -178.5q229 0 387 123v385h-414v137h570v-600q-213 -191 -543 -191q-167 0 -310.5 59t-244 162t-158 247.5t-57.5 310.5q0 222 95 400
t265.5 279t384.5 101z" />
    <glyph glyph-name="H" unicode="H" horiz-adv-x="1482" 
d="M1307 1505v-1505h-156v696h-817v-696h-156v1505h156v-663h817v663h156z" />
    <glyph glyph-name="I" unicode="I" horiz-adv-x="509" 
d="M334 1505v-1505h-156v1505h156z" />
    <glyph glyph-name="J" unicode="J" horiz-adv-x="1077" 
d="M922 1505v-1085q0 -205 -120 -326t-317 -121q-122 0 -220.5 53.5t-159 161t-60.5 252.5h152q0 -150 77.5 -235.5t206.5 -85.5q133 0 209 81t76 226v1079h156z" />
    <glyph glyph-name="K" unicode="K" horiz-adv-x="1314" 
d="M1212 1505l-440 -733l512 -772h-188l-414 631l-381 -631h-123v1505h156v-1194l704 1194h174z" />
    <glyph glyph-name="L" unicode="L" horiz-adv-x="1116" 
d="M334 1505v-1364h753v-141h-909v1505h156z" />
    <glyph glyph-name="M" unicode="M" horiz-adv-x="1771" 
d="M1593 1532v-1532h-155v995l-545 -1003h-14l-545 1003v-995h-156v1532h8l699 -1256l700 1256h8z" />
    <glyph glyph-name="N" unicode="N" horiz-adv-x="1484" 
d="M186 1532l967 -1161v1134h156v-1532h-9l-966 1164v-1137h-156v1532h8z" />
    <glyph glyph-name="O" unicode="O" horiz-adv-x="1660" 
d="M829 1532q160 0 300 -59t239 -162t156 -248t57 -311q0 -222 -97 -400.5t-269 -278.5t-386 -100q-161 0 -300.5 58.5t-238 161.5t-154.5 247.5t-56 311.5q0 222 95.5 400t267 279t386.5 101zM829 1386q-171 0 -306.5 -81.5t-211 -226.5t-75.5 -326t75.5 -325.5t211 -226
t306.5 -81.5t306.5 81t211.5 226t76 326t-76 326t-211.5 226.5t-306.5 81.5z" />
    <glyph glyph-name="P" unicode="P" horiz-adv-x="1230" 
d="M659 1505q232 0 376.5 -122.5t144.5 -342.5t-143.5 -342.5t-377.5 -122.5h-325v-575h-156v1505h481zM647 1366h-313v-651h313q174 0 274.5 84t100.5 241q0 156 -101.5 241t-273.5 85z" />
    <glyph glyph-name="Q" unicode="Q" horiz-adv-x="1660" 
d="M1614 -207h-193l-229 268q-164 -88 -363 -88q-161 0 -300.5 58.5t-238 161.5t-154.5 247.5t-56 311.5q0 222 95.5 400t267 279t386.5 101q160 0 300 -59t239 -162t156 -248t57 -311q0 -188 -70 -345.5t-196 -263.5zM829 119q143 0 263 57l-250 293l110 96l265 -307
q98 87 152 214.5t54 279.5q0 181 -76 326t-211.5 226.5t-306.5 81.5t-306.5 -81.5t-211 -226.5t-75.5 -326t75.5 -325.5t211 -226t306.5 -81.5z" />
    <glyph glyph-name="R" unicode="R" horiz-adv-x="1259" 
d="M1223 0h-185l-370 594q-7 0 -21.5 -1t-21.5 -1h-297v-592h-156v1505h453q154 0 272 -51.5t187 -156t69 -248.5q0 -163 -86 -272.5t-236 -155.5zM612 733q179 0 281 81t102 235t-103 235.5t-280 81.5h-284v-633h284z" />
    <glyph glyph-name="S" unicode="S" horiz-adv-x="1191" 
d="M586 1532q264 0 481 -162l-78 -133q-82 68 -188 110t-217 42q-143 0 -233.5 -69t-90.5 -204q0 -116 77.5 -173.5t283.5 -102.5q268 -59 381.5 -154.5t113.5 -267.5q0 -199 -141 -322t-377 -123q-317 0 -535 189l91 129q82 -80 202.5 -127t245.5 -47q159 0 259 76t100 213
q0 114 -89 179.5t-294 108.5q-264 58 -369 150.5t-105 263.5q0 194 133 309t349 115z" />
    <glyph glyph-name="T" unicode="T" horiz-adv-x="1306" 
d="M1278 1505v-141h-547v-1364h-156v1364h-546v141h1249z" />
    <glyph glyph-name="U" unicode="U" horiz-adv-x="1429" 
d="M1274 1505v-981q0 -256 -145 -403.5t-412 -147.5q-271 0 -415 147t-144 404v981h155v-973q0 -193 104 -303t300 -110q192 0 296.5 110.5t104.5 302.5v973h156z" />
    <glyph glyph-name="V" unicode="V" horiz-adv-x="1456" 
d="M1434 1505l-701 -1530h-8l-702 1530h170l536 -1188l537 1188h168z" />
    <glyph glyph-name="W" unicode="W" horiz-adv-x="1984" 
d="M1952 1505l-566 -1530h-8l-385 1110l-387 -1110h-8l-563 1530h172l395 -1114l387 1114h8l387 -1114l394 1114h174z" />
    <glyph glyph-name="X" unicode="X" horiz-adv-x="1343" 
d="M1290 1505l-512 -739l535 -766h-185l-456 657l-457 -657h-184l534 766l-512 739h183l436 -628l436 628h182z" />
    <glyph glyph-name="Y" unicode="Y" horiz-adv-x="1312" 
d="M1296 1503l-563 -856v-647h-155v645l-562 858h185l454 -700l457 700h184z" />
    <glyph glyph-name="Z" unicode="Z" horiz-adv-x="1173" 
d="M1092 1505v-8l-785 -1354h809v-143h-1059v8l791 1354h-756v143h1000z" />
    <glyph glyph-name="bracketleft" unicode="[" horiz-adv-x="624" 
d="M553 1575v-127h-295v-1507h295v-127h-440v1761h440z" />
    <glyph glyph-name="backslash" unicode="\" horiz-adv-x="919" 
d="M164 1503l745 -1503h-153l-746 1503h154z" />
    <glyph glyph-name="bracketright" unicode="]" horiz-adv-x="641" 
d="M528 1575v-1761h-456v127h309v1507h-309v127h456z" />
    <glyph glyph-name="asciicircum" unicode="^" horiz-adv-x="1097" 
d="M549 1556l504 -610h-142l-362 438l-361 -438h-143z" />
    <glyph glyph-name="underscore" unicode="_" horiz-adv-x="1644" 
d="M1559 0v-137h-1473v137h1473z" />
    <glyph glyph-name="grave" unicode="`" horiz-adv-x="563" 
d="M250 1436l282 -252h-159l-318 252h195z" />
    <glyph glyph-name="a" unicode="a" horiz-adv-x="1177" 
d="M543 1044q219 0 340 -155l4 135h137v-1024h-137l-4 137q-120 -157 -340 -157q-208 0 -337.5 149.5t-129.5 382.5q0 232 129.5 382t337.5 150zM565 909q-150 0 -245 -111t-95 -286q0 -177 94.5 -287t245.5 -110q107 0 178.5 47.5t130.5 136.5v426q-59 89 -130.5 136.5
t-178.5 47.5z" />
    <glyph glyph-name="b" unicode="b" horiz-adv-x="1198" 
d="M307 1556v-659q122 147 342 147q138 0 247 -68.5t168.5 -190t59.5 -273.5q0 -233 -132.5 -382.5t-342.5 -149.5q-228 0 -348 157l-6 -137h-137v1556h149zM625 909q-108 0 -184 -48.5t-134 -135.5v-426q58 -87 134 -135.5t184 -48.5q153 0 250.5 110.5t97.5 286.5
q0 174 -98 285.5t-250 111.5z" />
    <glyph glyph-name="c" unicode="c" horiz-adv-x="1032" 
d="M580 1044q257 0 403 -219l-104 -82q-111 168 -299 168q-167 0 -261 -111.5t-94 -287.5q0 -177 95 -288t264 -111q101 0 177 47.5t124 120.5l106 -82q-149 -219 -407 -219q-232 0 -370 149t-138 383t136.5 383t367.5 149z" />
    <glyph glyph-name="d" unicode="d" horiz-adv-x="1198" 
d="M1040 1556v-1556h-137l-4 137q-52 -68 -139 -112.5t-209 -44.5q-210 0 -342.5 149.5t-132.5 382.5q0 152 59.5 273.5t168.5 190t247 68.5q222 0 340 -147v659h149zM573 909q-152 0 -250 -111.5t-98 -285.5q0 -176 97.5 -286.5t250.5 -110.5q109 0 184.5 48t133.5 136v426
q-58 88 -133.5 136t-184.5 48z" />
    <glyph glyph-name="e" unicode="e" horiz-adv-x="1089" 
d="M559 1044q145 0 251 -71t158 -188t52 -265v-61h-795q8 -163 102 -255.5t259 -92.5q106 0 186 40.5t125 104.5l100 -82q-148 -194 -411 -194q-235 0 -372.5 147.5t-137.5 382.5q0 232 134.5 383t348.5 151zM559 913q-144 0 -235 -90.5t-99 -238.5h647q-6 149 -88.5 239
t-224.5 90z" />
    <glyph glyph-name="f" unicode="f" horiz-adv-x="702" 
d="M549 1556q132 0 217 -75l-64 -117q-54 57 -147 57q-83 0 -131.5 -58.5t-48.5 -152.5v-186h287v-131h-287v-893h-150v893h-186v131h186v178q0 156 88.5 255t235.5 99z" />
    <glyph glyph-name="g" unicode="g" horiz-adv-x="1193" 
d="M551 1044q122 0 208.5 -44t139.5 -111l4 135h137v-1006q0 -236 -135.5 -373t-361.5 -137q-282 0 -455 211l100 97q142 -172 353 -172q160 0 255 100.5t95 271.5v111q-118 -147 -340 -147q-210 0 -342.5 149.5t-132.5 382.5q0 152 59.5 273.5t168.5 190t247 68.5zM573 909
q-152 0 -250 -111.5t-98 -285.5q0 -176 97.5 -286.5t250.5 -110.5q109 0 184.5 48t133.5 136v426q-58 88 -133.5 136t-184.5 48z" />
    <glyph glyph-name="h" unicode="h" horiz-adv-x="1169" 
d="M307 1556v-661q134 149 334 149q182 0 285.5 -118t103.5 -314v-612h-149v604q0 133 -74.5 215t-196.5 82q-96 0 -166.5 -46t-136.5 -132v-723h-149v1556h149z" />
    <glyph glyph-name="i" unicode="i" horiz-adv-x="454" 
d="M227 1464q45 0 76 -31t31 -77q0 -45 -31 -76t-76 -31q-46 0 -77 30.5t-31 76.5t31 77t77 31zM301 1024v-1024h-147v1024h147z" />
    <glyph glyph-name="j" unicode="j" horiz-adv-x="466" 
d="M240 1464q44 0 75 -31t31 -77t-31 -76.5t-75 -30.5q-46 0 -77.5 30.5t-31.5 76.5t31.5 77t77.5 31zM-33 -492q-144 0 -239 76l79 117q71 -57 164 -57q84 0 139.5 56.5t55.5 147.5v1176h147v-1174q0 -147 -98 -244.5t-248 -97.5z" />
    <glyph glyph-name="k" unicode="k" horiz-adv-x="1058" 
d="M307 1556v-1284l502 752h170l-313 -461l374 -563h-176l-293 438l-290 -438h-123v1556h149z" />
    <glyph glyph-name="l" unicode="l" horiz-adv-x="464" 
d="M307 1556v-1556h-149v1556h149z" />
    <glyph glyph-name="m" unicode="m" horiz-adv-x="1845" 
d="M1331 1044q173 0 273 -118t100 -314v-612h-150v604q0 133 -70 215t-186 82q-94 0 -166 -47.5t-137 -138.5q9 -70 9 -92v-623h-150v604q0 133 -71 215t-187 82q-90 0 -160 -45.5t-135 -130.5v-725h-147v1024h135l6 -135q53 66 138.5 110.5t197.5 44.5q113 0 195.5 -52
t127.5 -146q143 198 377 198z" />
    <glyph glyph-name="n" unicode="n" horiz-adv-x="1165" 
d="M637 1044q182 0 284.5 -117.5t102.5 -314.5v-612h-147v604q0 133 -74.5 215t-198.5 82q-94 0 -166 -46.5t-137 -131.5v-723h-147v1024h135l6 -137q53 66 139.5 111.5t202.5 45.5z" />
    <glyph glyph-name="o" unicode="o" horiz-adv-x="1183" 
d="M592 1044q224 0 371 -152t147 -382t-147 -380t-371 -150q-225 0 -370.5 149.5t-145.5 380.5t145.5 382.5t370.5 151.5zM592 909q-159 0 -263 -113.5t-104 -285.5t103.5 -283.5t263.5 -111.5t263 111.5t103 283.5t-103.5 285.5t-262.5 113.5z" />
    <glyph glyph-name="p" unicode="p" horiz-adv-x="1193" 
d="M643 1044q138 0 247 -68.5t168.5 -190t59.5 -273.5q0 -233 -132.5 -382.5t-342.5 -149.5q-219 0 -342 145v-596h-147v1495h135l6 -137q120 157 348 157zM618 909q-108 0 -183.5 -48t-133.5 -136v-426q58 -88 133.5 -136t183.5 -48q153 0 252 110.5t99 286.5t-99 286.5
t-252 110.5z" />
    <glyph glyph-name="q" unicode="q" horiz-adv-x="1193" 
d="M551 1044q122 0 209 -44.5t139 -112.5l4 137h137v-1495h-149v596q-120 -145 -340 -145q-210 0 -342.5 149.5t-132.5 382.5q0 152 59.5 273.5t168.5 190t247 68.5zM573 909q-153 0 -250.5 -110.5t-97.5 -286.5t97.5 -286.5t250.5 -110.5q109 0 184.5 48t133.5 136v426
q-58 88 -133.5 136t-184.5 48z" />
    <glyph glyph-name="r" unicode="r" horiz-adv-x="632" 
d="M604 1044v-149h-14q-92 0 -161 -46.5t-128 -135.5v-713h-147v1024h135l8 -145q44 70 121.5 117.5t185.5 47.5z" />
    <glyph glyph-name="s" unicode="s" horiz-adv-x="913" 
d="M467 1044q193 0 342 -102l-64 -119q-129 88 -282 88q-98 0 -156.5 -37.5t-58.5 -115.5q0 -69 52 -103t187 -65q183 -43 267 -113.5t84 -185.5q0 -141 -106 -226t-283 -85q-229 0 -381 120l69 121q133 -110 312 -110q108 0 173.5 43t65.5 125q0 71 -56 109t-188 67
q-186 43 -265 108t-79 182q0 140 99.5 219.5t267.5 79.5z" />
    <glyph glyph-name="t" unicode="t" horiz-adv-x="788" 
d="M383 1372v-348h338v-131h-338v-571q0 -97 52 -151t138 -54q88 0 160 37l45 -123q-79 -51 -211 -51q-154 0 -242.5 88t-88.5 254v571h-209v131h209v348h147z" />
    <glyph glyph-name="u" unicode="u" 
d="M991 1024v-1024h-137l-4 135q-131 -155 -344 -155q-171 0 -268 116.5t-97 309.5v618h150v-612q0 -130 67.5 -210.5t180.5 -80.5q69 0 126.5 24.5t96 60.5t80.5 93v725h149z" />
    <glyph glyph-name="v" unicode="v" horiz-adv-x="1064" 
d="M1044 1024l-507 -1044h-9l-508 1044h156l356 -752l359 752h153z" />
    <glyph glyph-name="w" unicode="w" horiz-adv-x="1544" 
d="M1524 1024l-437 -1044h-8l-307 712l-307 -712h-8l-437 1044h154l293 -723l301 723h8l301 -723l293 723h154z" />
    <glyph glyph-name="x" unicode="x" horiz-adv-x="989" 
d="M938 1024l-346 -504l360 -520h-170l-290 422l-289 -422h-170l360 520l-346 504h170l275 -406l276 406h170z" />
    <glyph glyph-name="y" unicode="y" horiz-adv-x="1079" 
d="M1053 1024l-723 -1495h-170l299 590l-432 905h155l357 -758l358 758h156z" />
    <glyph glyph-name="z" unicode="z" horiz-adv-x="901" 
d="M850 1024v-8l-565 -885h565v-131h-801v8l563 885h-532v131h770z" />
    <glyph glyph-name="braceleft" unicode="{" horiz-adv-x="700" 
d="M629 1575v-127q-121 0 -190.5 -70t-55.5 -227l20 -201q10 -106 -19.5 -166t-100.5 -90q71 -30 100.5 -90t19.5 -166l-20 -200q-14 -157 55.5 -227t190.5 -70v-127q-203 0 -307 110t-80 340l20 197q9 97 -43 150.5t-160 78.5v8q108 24 160 78.5t43 151.5l-20 196
q-24 230 80 340.5t307 110.5z" />
    <glyph glyph-name="bar" unicode="|" horiz-adv-x="466" 
d="M305 1432v-1680h-143v1680h143z" />
    <glyph glyph-name="braceright" unicode="}" horiz-adv-x="700" 
d="M72 1575q204 0 309 -110.5t80 -340.5l-23 -196q-10 -96 42.5 -151t160.5 -79v-8q-108 -25 -160.5 -79t-42.5 -150l23 -197q25 -230 -80 -340t-309 -110v127q121 0 190 70t53 227l-18 200q-10 106 19.5 166t101.5 90q-72 30 -101.5 90t-19.5 166l18 201q16 157 -53 227
t-190 70v127z" />
    <glyph glyph-name="asciitilde" unicode="~" horiz-adv-x="1239" 
d="M403 885q60 0 111 -19t87 -46.5t70.5 -54.5t76 -46t88.5 -19q83 0 139 46.5t84 123.5l96 -67q-45 -112 -126 -177t-193 -65q-60 0 -110.5 19t-85.5 46t-68.5 54t-76.5 46t-92 19q-157 0 -223 -170l-94 68q43 112 124 177t193 65z" />
    <glyph glyph-name="exclamdown" unicode="&#xa1;" horiz-adv-x="503" 
d="M254 813q-47 0 -79 32t-32 79q0 49 31.5 80.5t79.5 31.5q50 0 81.5 -31.5t31.5 -80.5q0 -48 -32 -79.5t-81 -31.5zM180 -489v1107h150v-1107h-150z" />
    <glyph glyph-name="cent" unicode="&#xa2;" horiz-adv-x="1034" 
d="M991 199q-132 -194 -352 -217v-277h-129v279q-202 24 -318 168.5t-116 359.5q0 216 116 360t318 168v265h129v-265q215 -23 344 -215l-104 -82q-111 168 -299 168q-167 0 -261 -111.5t-94 -287.5q0 -177 95 -288t264 -111q101 0 177 47.5t124 120.5z" />
    <glyph glyph-name="sterling" unicode="&#xa3;" horiz-adv-x="1165" 
d="M928 387h147q0 -387 -362 -387h-680v8q97 164 128 236q93 211 50 425q-1 6 -2 11l-2 12h-162v125h135q-35 140 -35 238q0 226 114 351.5t312 125.5q152 0 257.5 -84t148.5 -203l-146 -45q-29 89 -97 142t-167 53q-134 0 -203 -88.5t-69 -239.5q0 -95 37 -250h389v-125
h-363q21 -96 21 -160q0 -197 -119 -395h428q124 0 182 58.5t58 191.5z" />
    <glyph glyph-name="currency" unicode="&#xa4;" horiz-adv-x="1320" 
d="M1135 1122l98 -98l-252 -248q72 -101 72 -237q0 -139 -72 -236l252 -250l-98 -96l-252 250q-92 -70 -221 -70q-131 0 -226 70l-250 -250l-98 96l252 250q-74 104 -74 236q0 128 74 237l-252 248l98 98l250 -252q96 74 226 74q127 0 223 -74zM662 827q-116 0 -191.5 -82
t-75.5 -206q0 -122 75.5 -203.5t191.5 -81.5q114 0 189 81.5t75 203.5q0 123 -75 205.5t-189 82.5z" />
    <glyph glyph-name="yen" unicode="&#xa5;" horiz-adv-x="1310" 
d="M1294 1503l-501 -758h276v-116h-336v-183h336v-116h-336v-330h-155v330h-336v116h336v183h-336v116h274l-500 758h183l456 -700l455 700h184z" />
    <glyph glyph-name="brokenbar" unicode="&#xa6;" horiz-adv-x="466" 
d="M305 1432v-631h-143v631h143zM305 383v-631h-143v631h143z" />
    <glyph glyph-name="section" unicode="&#xa7;" horiz-adv-x="847" 
d="M451 1532q172 0 284 -109l-86 -94q-79 76 -198 76q-96 0 -154.5 -50.5t-58.5 -133.5q0 -71 38.5 -115.5t116.5 -69.5q23 -8 77 -18.5t85 -22.5q106 -34 168.5 -121.5t62.5 -201.5q0 -102 -51.5 -180.5t-138.5 -114.5q160 -74 160 -238q0 -139 -106.5 -233t-272.5 -94
q-197 0 -316 131l91 94q88 -98 227 -98q104 0 169.5 55t65.5 145q0 63 -35 103t-108 67q-26 8 -73 16t-60 11q-121 28 -194.5 119t-73.5 217q0 103 51.5 181.5t140.5 113.5q-166 78 -166 252q0 134 98 223.5t257 89.5zM428 893q-98 0 -160.5 -62t-62.5 -159t62.5 -158
t160.5 -61q99 0 162 61.5t63 157.5q0 97 -63.5 159t-161.5 62z" />
    <glyph glyph-name="dieresis" unicode="&#xa8;" horiz-adv-x="606" 
d="M137 1399q41 0 68.5 -27t27.5 -67t-27.5 -67.5t-68.5 -27.5q-39 0 -65.5 27.5t-26.5 67.5t26 67t66 27zM467 1399q40 0 67 -27t27 -67t-27 -67.5t-67 -27.5t-67 27.5t-27 67.5t27 67t67 27z" />
    <glyph glyph-name="copyright" unicode="&#xa9;" horiz-adv-x="1642" 
d="M821 1532q211 0 380.5 -101.5t264.5 -280t95 -400.5q0 -166 -56 -310.5t-153.5 -247t-235 -161t-295.5 -58.5q-160 0 -298 58.5t-234.5 161t-151.5 247t-55 310.5q0 222 93.5 400.5t262.5 280t383 101.5zM821 1430q-137 0 -255 -52t-201 -142t-130 -216t-47 -270
q0 -192 80.5 -346t225 -241t327.5 -87q181 0 326 87t226 241t81 346t-81 347.5t-226 244t-326 88.5zM842 1190q176 0 297 -127l-76 -90q-85 98 -221 98t-219.5 -90.5t-83.5 -232.5q0 -145 83.5 -233.5t219.5 -88.5q138 0 225 100l76 -88q-112 -133 -301 -133
q-186 0 -307 125.5t-121 317.5q0 191 121 316.5t307 125.5z" />
    <glyph glyph-name="ordfeminine" unicode="&#xaa;" horiz-adv-x="870" 
d="M383 1528q154 0 244 -107l4 92h114v-718h-114l-4 92q-90 -107 -244 -107q-142 0 -234 105.5t-92 267.5q0 163 92 269t234 106zM412 1417q-100 0 -165 -74t-65 -190t65 -189t165 -73q126 0 206 117v292q-84 117 -206 117z" />
    <glyph glyph-name="guillemotleft" unicode="&#xab;" horiz-adv-x="1021" 
d="M510 938l-293 -414l293 -413h-145l-297 409v8l297 410h145zM954 938l-295 -414l295 -413h-145l-297 409v8l297 410h145z" />
    <glyph glyph-name="logicalnot" unicode="&#xac;" horiz-adv-x="1157" 
d="M1079 868v-538h-108v432h-895v106h1003z" />
    <glyph glyph-name="registered" unicode="&#xae;" horiz-adv-x="1333" 
d="M668 1589q169 0 305 -81.5t212.5 -224.5t76.5 -320q0 -133 -45 -249t-123.5 -198.5t-189 -130t-236.5 -47.5q-171 0 -307 81t-211.5 223.5t-75.5 320.5q0 177 75.5 320t211.5 224.5t307 81.5zM668 436q213 0 352 149.5t139 377.5q0 149 -63 269.5t-175.5 189.5t-252.5 69
q-215 0 -354.5 -150.5t-139.5 -377.5q0 -228 139 -377.5t355 -149.5zM918 1090q0 -74 -37.5 -126.5t-102.5 -76.5l172 -275h-121l-159 256h-2h-125v-256h-105v695h230q109 0 179.5 -57.5t70.5 -159.5zM543 1208v-243h116q73 0 113.5 30.5t40.5 91.5q0 60 -41 90.5t-113 30.5
h-116z" />
    <glyph glyph-name="macron" unicode="&#xaf;" horiz-adv-x="606" 
d="M561 1335v-108h-516v108h516z" />
    <glyph glyph-name="degree" unicode="&#xb0;" horiz-adv-x="679" 
d="M342 1530q118 0 196 -78t78 -195q0 -118 -77.5 -194t-196.5 -76q-120 0 -198 76t-78 194q0 117 78 195t198 78zM342 1427q-73 0 -120.5 -48t-47.5 -122q0 -72 47.5 -119.5t120.5 -47.5q71 0 118.5 47.5t47.5 119.5q0 73 -47.5 121.5t-118.5 48.5z" />
    <glyph glyph-name="plusminus" unicode="&#xb1;" horiz-adv-x="966" 
d="M551 1311v-328h330v-139h-330v-330h-137v330h-330v139h330v328h137zM881 348v-137h-797v137h797z" />
    <glyph glyph-name="two.sups" unicode="&#xb2;" horiz-adv-x="706" 
d="M360 1681q121 0 197 -72t76 -186q0 -75 -27.5 -133.5t-87.5 -130.5l-209 -246h336v-106h-541v8l318 406q51 60 71.5 104t20.5 100q0 68 -43.5 109t-110.5 41q-136 0 -163 -141l-107 22q44 225 270 225z" />
    <glyph glyph-name="three.sups" unicode="&#xb3;" horiz-adv-x="700" 
d="M360 1681q115 0 188 -69.5t73 -175.5q0 -129 -121 -183q70 -26 110.5 -77.5t40.5 -124.5q0 -116 -77.5 -188t-204.5 -72q-117 0 -187.5 52t-103.5 156l104 29q25 -63 68.5 -96t118.5 -33q74 0 120 43t46 115q0 64 -51 107.5t-130 43.5h-98v92h102q62 2 105 37.5t43 100.5
q0 61 -42.5 99t-107.5 38q-118 0 -161 -119l-103 45q64 180 268 180z" />
    <glyph glyph-name="acute" unicode="&#xb4;" horiz-adv-x="563" 
d="M506 1436l-316 -252h-159l282 252h193z" />
    <glyph glyph-name="mu" unicode="&#xb5;" horiz-adv-x="1187" 
d="M1018 1024v-1024h-137l-4 135q-131 -155 -332 -155q-153 0 -228 92v-543h-149v1495h149v-612q0 -130 67.5 -210.5t180.5 -80.5q69 0 126.5 24.5t96 60.5t80.5 93v725h150z" />
    <glyph glyph-name="paragraph" unicode="&#xb6;" horiz-adv-x="1376" 
d="M1296 1505v-123h-188v-1607h-131v1607h-229v-1607h-132v854h-8q-117 0 -216 26t-176.5 77t-121 134.5t-43.5 190.5q0 218 153 333t406 115h686z" />
    <glyph glyph-name="periodcentered" unicode="&#xb7;" horiz-adv-x="391" 
d="M195 635q47 0 78.5 -32t31.5 -79q0 -46 -31.5 -77t-78.5 -31q-46 0 -77.5 31t-31.5 77q0 47 31.5 79t77.5 32z" />
    <glyph glyph-name="cedilla" unicode="&#xb8;" horiz-adv-x="497" 
d="M197 23l94 -7l-31 -122q79 -7 136 -52.5t57 -128.5q0 -85 -59 -134.5t-150 -49.5q-122 0 -199 80l64 74q60 -60 131 -60q104 0 104 90q0 79 -94 92q-48 8 -98 -2l-7 9z" />
    <glyph glyph-name="one.sups" unicode="&#xb9;" horiz-adv-x="514" 
d="M393 1681v-874h-119v678l-161 -109l-54 105l330 200h4z" />
    <glyph glyph-name="ordmasculine" unicode="&#xba;" horiz-adv-x="845" 
d="M424 1528q157 0 260.5 -107t103.5 -268t-103.5 -267t-260.5 -106q-161 0 -264 105.5t-103 267.5t103.5 268.5t263.5 106.5zM424 1417q-105 0 -173.5 -75t-68.5 -189t68 -188t174 -74q103 0 171.5 74t68.5 188t-68.5 189t-171.5 75z" />
    <glyph glyph-name="guillemotright" unicode="&#xbb;" horiz-adv-x="1021" 
d="M213 938l297 -410v-8l-297 -409h-145l294 413l-294 414h145zM657 938l297 -410v-8l-297 -409h-145l295 413l-295 414h145z" />
    <glyph glyph-name="onequarter" unicode="&#xbc;" horiz-adv-x="1466" 
d="M1167 1503l-745 -1503h-127l745 1503h127zM393 1477v-875h-119v678l-161 -109l-54 105l330 201h4zM1290 877v-625h123v-98h-123v-154h-114v156h-428v4l536 717h6zM1178 575l-236 -325h236v325z" />
    <glyph glyph-name="onehalf" unicode="&#xbd;" horiz-adv-x="1589" 
d="M1159 1503l-745 -1503h-129l745 1503h129zM393 1477v-875h-119v678l-161 -109l-54 105l330 201h4zM1231 874q121 0 196.5 -72t75.5 -186q0 -75 -27 -134t-87 -130l-209 -246h336v-106h-541v8l317 406q51 60 71.5 104t20.5 100q0 68 -43 109t-110 41q-134 0 -164 -141
l-106 22q44 225 270 225z" />
    <glyph glyph-name="threequarters" unicode="&#xbe;" horiz-adv-x="1652" 
d="M1341 1503l-745 -1503h-129l745 1503h129zM360 1477q115 0 188 -70t73 -176q0 -128 -121 -182q70 -26 110.5 -78t40.5 -125q0 -116 -77.5 -188t-204.5 -72q-117 0 -187.5 52.5t-103.5 156.5l104 28q25 -63 68.5 -96t118.5 -33q74 0 120 43t46 115q0 64 -51.5 108
t-129.5 44h-98v92h102q62 2 105 37t43 100q0 61 -42.5 99t-107.5 38q-118 0 -161 -119l-103 45q65 181 268 181zM1477 877v-625h122v-98h-122v-154h-115v156h-428v4l536 717h7zM1364 575l-236 -325h236v325z" />
    <glyph glyph-name="questiondown" unicode="&#xbf;" horiz-adv-x="968" 
d="M496 813q-47 0 -79 32t-32 79q0 49 31.5 80.5t79.5 31.5q50 0 81 -31t31 -81q0 -48 -31.5 -79.5t-80.5 -31.5zM500 -516q-185 0 -301.5 112.5t-116.5 288.5q0 71 19 130.5t48.5 101t66 78t73 69t66 65t48.5 75t19 90.5v124h151v-141q0 -59 -18.5 -109.5t-48 -87.5
t-65 -71t-71.5 -67t-65.5 -68.5t-48 -83.5t-18.5 -103q0 -124 74 -194t190 -70q221 0 276 234l148 -27q-36 -166 -143.5 -256t-282.5 -90z" />
    <glyph glyph-name="Agrave" unicode="&#xc0;" horiz-adv-x="1400" 
d="M518 1833l277 -231h-172l-306 231h201zM705 1532l673 -1532h-166l-151 352h-721l-152 -352h-165l673 1532h9zM700 1184l-301 -692h602z" />
    <glyph glyph-name="Aacute" unicode="&#xc1;" horiz-adv-x="1400" 
d="M1063 1833l-303 -231h-172l276 231h199zM705 1532l673 -1532h-166l-151 352h-721l-152 -352h-165l673 1532h9zM700 1184l-301 -692h602z" />
    <glyph glyph-name="Acircumflex" unicode="&#xc2;" horiz-adv-x="1400" 
d="M698 1888l310 -289h-148l-162 148l-163 -148h-146zM705 1532l673 -1532h-166l-151 352h-721l-152 -352h-165l673 1532h9zM700 1184l-301 -692h602z" />
    <glyph glyph-name="Atilde" unicode="&#xc3;" horiz-adv-x="1400" 
d="M569 1878q44 0 79 -17.5t57 -43t41.5 -51t42 -43t49.5 -17.5q80 0 80 158h104q0 -131 -53.5 -199t-139.5 -68q-38 0 -68.5 12.5t-49 32t-37 41.5t-32 41.5t-33.5 32t-44 12.5q-82 0 -82 -157h-104q0 133 52.5 199.5t137.5 66.5zM705 1532l673 -1532h-166l-151 352h-721
l-152 -352h-165l673 1532h9zM700 1184l-301 -692h602z" />
    <glyph glyph-name="Adieresis" unicode="&#xc4;" horiz-adv-x="1400" 
d="M532 1804q41 0 69 -27t28 -67t-28 -66t-69 -26q-40 0 -66 26t-26 66t26 67t66 27zM862 1804q40 0 67 -27t27 -67t-27 -66t-67 -26t-67 26t-27 66t27 67t67 27zM705 1532l673 -1532h-166l-151 352h-721l-152 -352h-165l673 1532h9zM700 1184l-301 -692h602z" />
    <glyph glyph-name="Aring" unicode="&#xc5;" horiz-adv-x="1400" 
d="M700 2015q89 0 150 -60t61 -149q0 -90 -60.5 -148.5t-150.5 -58.5q-91 0 -151 58.5t-60 148.5q0 89 60 149t151 60zM700 1925q-50 0 -83 -34t-33 -85q0 -50 33 -82t83 -32t83.5 32t33.5 82q0 51 -33.5 85t-83.5 34zM705 1532l673 -1532h-166l-151 352h-721l-152 -352
h-165l673 1532h9zM700 1184l-301 -692h602z" />
    <glyph glyph-name="AE" unicode="&#xc6;" horiz-adv-x="1783" 
d="M1686 1505v-145h-877l221 -529h567v-137h-512l230 -549h387v-145h-496l-149 358h-713l-147 -358h-174l645 1505h1018zM700 1225l-305 -740h611z" />
    <glyph glyph-name="Ccedilla" unicode="&#xc7;" horiz-adv-x="1415" 
d="M825 -27h-14l-20 -79q79 -7 135.5 -52.5t56.5 -128.5q0 -85 -59 -134.5t-150 -49.5q-122 0 -199 80l64 74q60 -60 131 -60q104 0 104 90q0 79 -94 92q-48 8 -98 -2l-6 9l41 168q-283 38 -460 251.5t-177 520.5q0 222 95 400t265.5 279t384.5 101q319 0 531 -215
l-101 -115q-172 184 -430 184q-171 0 -305.5 -81.5t-209 -226t-74.5 -326.5t74.5 -326t209 -225.5t305.5 -81.5q136 0 249 52t194 144l98 -118q-209 -224 -541 -224z" />
    <glyph glyph-name="Egrave" unicode="&#xc8;" horiz-adv-x="1185" 
d="M467 1833l276 -231h-172l-305 231h201zM1087 1505v-145h-753v-526h665v-142h-665v-547h770v-145h-926v1505h909z" />
    <glyph glyph-name="Eacute" unicode="&#xc9;" horiz-adv-x="1185" 
d="M1012 1833l-303 -231h-172l276 231h199zM1087 1505v-145h-753v-526h665v-142h-665v-547h770v-145h-926v1505h909z" />
    <glyph glyph-name="Ecircumflex" unicode="&#xca;" horiz-adv-x="1185" 
d="M647 1888l309 -289h-147l-162 148l-164 -148h-145zM1087 1505v-145h-753v-526h665v-142h-665v-547h770v-145h-926v1505h909z" />
    <glyph glyph-name="Edieresis" unicode="&#xcb;" horiz-adv-x="1185" 
d="M481 1804q41 0 69 -27t28 -67t-28 -66t-69 -26q-40 0 -66 26t-26 66t26 67t66 27zM811 1804q40 0 67 -27t27 -67t-27 -66t-67 -26t-67 26t-27 66t27 67t67 27zM1087 1505v-145h-753v-526h665v-142h-665v-547h770v-145h-926v1505h909z" />
    <glyph glyph-name="Igrave" unicode="&#xcc;" horiz-adv-x="509" 
d="M74 1833l276 -231h-172l-305 231h201zM334 1505v-1505h-156v1505h156z" />
    <glyph glyph-name="Iacute" unicode="&#xcd;" horiz-adv-x="509" 
d="M618 1833l-303 -231h-172l277 231h198zM334 1505v-1505h-156v1505h156z" />
    <glyph glyph-name="Icircumflex" unicode="&#xce;" horiz-adv-x="509" 
d="M256 1888l309 -289h-147l-162 148l-164 -148h-145zM334 1505v-1505h-156v1505h156z" />
    <glyph glyph-name="Idieresis" unicode="&#xcf;" horiz-adv-x="509" 
d="M88 1804q41 0 68.5 -27t27.5 -67t-27.5 -66t-68.5 -26q-40 0 -66 26t-26 66t26 67t66 27zM418 1804q40 0 67 -27t27 -67t-27 -66t-67 -26t-67 26t-27 66t27 67t67 27zM334 1505v-1505h-156v1505h156z" />
    <glyph glyph-name="Eth" unicode="&#xd0;" horiz-adv-x="1540" 
d="M657 1505q379 0 591 -197.5t212 -553.5q0 -357 -211 -555.5t-592 -198.5h-442v717h-182v110h182v678h442zM653 145q312 0 481 159.5t169 449.5q0 288 -170 447t-480 159h-282v-533h245v-110h-245v-572h282z" />
    <glyph glyph-name="Ntilde" unicode="&#xd1;" horiz-adv-x="1484" 
d="M616 1878q44 0 79 -17.5t57 -43t41.5 -51t42 -43t49.5 -17.5q80 0 80 158h104q0 -131 -53 -199t-139 -68q-45 0 -79.5 17.5t-55 43t-39 51t-41 43t-50.5 17.5q-82 0 -82 -157h-104q0 133 52.5 199.5t137.5 66.5zM186 1532l967 -1161v1134h156v-1532h-9l-966 1164v-1137
h-156v1532h8z" />
    <glyph glyph-name="Ograve" unicode="&#xd2;" horiz-adv-x="1660" 
d="M649 1853l277 -231h-172l-305 231h200zM829 1532q160 0 300 -59t239 -162t156 -248t57 -311q0 -222 -97 -400.5t-269 -278.5t-386 -100q-161 0 -300.5 58.5t-238 161.5t-154.5 247.5t-56 311.5q0 222 95.5 400t267 279t386.5 101zM829 1386q-171 0 -306.5 -81.5
t-211 -226.5t-75.5 -326t75.5 -325.5t211 -226t306.5 -81.5t306.5 81t211.5 226t76 326t-76 326t-211.5 226.5t-306.5 81.5z" />
    <glyph glyph-name="Oacute" unicode="&#xd3;" horiz-adv-x="1660" 
d="M1194 1853l-303 -231h-172l276 231h199zM829 1532q160 0 300 -59t239 -162t156 -248t57 -311q0 -222 -97 -400.5t-269 -278.5t-386 -100q-161 0 -300.5 58.5t-238 161.5t-154.5 247.5t-56 311.5q0 222 95.5 400t267 279t386.5 101zM829 1386q-171 0 -306.5 -81.5
t-211 -226.5t-75.5 -326t75.5 -325.5t211 -226t306.5 -81.5t306.5 81t211.5 226t76 326t-76 326t-211.5 226.5t-306.5 81.5z" />
    <glyph glyph-name="Ocircumflex" unicode="&#xd4;" horiz-adv-x="1660" 
d="M829 1909l310 -289h-148l-162 147l-163 -147h-146zM829 1532q160 0 300 -59t239 -162t156 -248t57 -311q0 -222 -97 -400.5t-269 -278.5t-386 -100q-161 0 -300.5 58.5t-238 161.5t-154.5 247.5t-56 311.5q0 222 95.5 400t267 279t386.5 101zM829 1386
q-171 0 -306.5 -81.5t-211 -226.5t-75.5 -326t75.5 -325.5t211 -226t306.5 -81.5t306.5 81t211.5 226t76 326t-76 326t-211.5 226.5t-306.5 81.5z" />
    <glyph glyph-name="Otilde" unicode="&#xd5;" horiz-adv-x="1660" 
d="M700 1898q44 0 79 -17.5t57 -43t41.5 -51t42 -43t49.5 -17.5q80 0 80 158h104q0 -131 -53 -198.5t-139 -67.5q-45 0 -79.5 17.5t-55 43t-39 51t-41 43t-50.5 17.5q-82 0 -82 -158h-104q0 133 52.5 199.5t137.5 66.5zM829 1532q160 0 300 -59t239 -162t156 -248t57 -311
q0 -222 -97 -400.5t-269 -278.5t-386 -100q-161 0 -300.5 58.5t-238 161.5t-154.5 247.5t-56 311.5q0 222 95.5 400t267 279t386.5 101zM829 1386q-171 0 -306.5 -81.5t-211 -226.5t-75.5 -326t75.5 -325.5t211 -226t306.5 -81.5t306.5 81t211.5 226t76 326t-76 326
t-211.5 226.5t-306.5 81.5z" />
    <glyph glyph-name="Odieresis" unicode="&#xd6;" horiz-adv-x="1660" 
d="M664 1825q41 0 68.5 -27t27.5 -67t-27.5 -66.5t-68.5 -26.5q-40 0 -66.5 26.5t-26.5 66.5t26.5 67t66.5 27zM993 1825q40 0 67 -27t27 -67t-27 -66.5t-67 -26.5t-67 26.5t-27 66.5t27 67t67 27zM829 1532q160 0 300 -59t239 -162t156 -248t57 -311q0 -222 -97 -400.5
t-269 -278.5t-386 -100q-161 0 -300.5 58.5t-238 161.5t-154.5 247.5t-56 311.5q0 222 95.5 400t267 279t386.5 101zM829 1386q-171 0 -306.5 -81.5t-211 -226.5t-75.5 -326t75.5 -325.5t211 -226t306.5 -81.5t306.5 81t211.5 226t76 326t-76 326t-211.5 226.5t-306.5 81.5z
" />
    <glyph glyph-name="multiply" unicode="&#xd7;" horiz-adv-x="892" 
d="M696 1065l99 -96l-250 -252l250 -250l-99 -98l-247 249l-252 -249l-99 96l252 252l-252 250l99 98l252 -250z" />
    <glyph glyph-name="Oslash" unicode="&#xd8;" horiz-adv-x="1660" 
d="M1255 1405q153 -103 239.5 -273.5t86.5 -379.5q0 -222 -97 -400.5t-269 -278.5t-386 -100q-172 0 -319 66l-111 -203h-141l143 264q-151 103 -236 272.5t-85 379.5q0 222 95.5 400t267 279t386.5 101q168 0 320 -68l111 205h139zM236 752q0 -165 63 -300t176 -219
l602 1102q-114 51 -248 51q-171 0 -306.5 -81.5t-211 -226.5t-75.5 -326zM829 119q171 0 306.5 81t211.5 226t76 326q0 165 -63.5 300.5t-177.5 221.5l-600 -1104q114 -51 247 -51z" />
    <glyph glyph-name="Ugrave" unicode="&#xd9;" horiz-adv-x="1429" 
d="M537 1833l276 -231h-172l-305 231h201zM1274 1505v-981q0 -256 -145 -403.5t-412 -147.5q-271 0 -415 147t-144 404v981h155v-973q0 -193 104 -303t300 -110q192 0 296.5 110.5t104.5 302.5v973h156z" />
    <glyph glyph-name="Uacute" unicode="&#xda;" horiz-adv-x="1429" 
d="M1081 1833l-303 -231h-172l277 231h198zM1274 1505v-981q0 -256 -145 -403.5t-412 -147.5q-271 0 -415 147t-144 404v981h155v-973q0 -193 104 -303t300 -110q192 0 296.5 110.5t104.5 302.5v973h156z" />
    <glyph glyph-name="Ucircumflex" unicode="&#xdb;" horiz-adv-x="1429" 
d="M717 1888l309 -289h-147l-162 148l-164 -148h-145zM1274 1505v-981q0 -256 -145 -403.5t-412 -147.5q-271 0 -415 147t-144 404v981h155v-973q0 -193 104 -303t300 -110q192 0 296.5 110.5t104.5 302.5v973h156z" />
    <glyph glyph-name="Udieresis" unicode="&#xdc;" horiz-adv-x="1429" 
d="M551 1804q41 0 68.5 -27t27.5 -67t-27.5 -66t-68.5 -26q-40 0 -66 26t-26 66t26 67t66 27zM881 1804q40 0 67 -27t27 -67t-27 -66t-67 -26t-67.5 26.5t-27.5 65.5q0 40 27.5 67t67.5 27zM1274 1505v-981q0 -256 -145 -403.5t-412 -147.5q-271 0 -415 147t-144 404v981
h155v-973q0 -193 104 -303t300 -110q192 0 296.5 110.5t104.5 302.5v973h156z" />
    <glyph glyph-name="Yacute" unicode="&#xdd;" horiz-adv-x="1312" 
d="M1020 1833l-303 -231h-172l276 231h199zM1296 1503l-563 -856v-647h-155v645l-562 858h185l454 -700l457 700h184z" />
    <glyph glyph-name="Thorn" unicode="&#xde;" horiz-adv-x="1118" 
d="M334 1505v-280h266q123 0 226 -47t168 -142t65 -221t-65 -221t-168 -141.5t-226 -46.5h-266v-406h-156v1505h156zM588 1085h-254v-540h254q133 0 223 72t90 198t-90 198t-223 72z" />
    <glyph glyph-name="germandbls" unicode="&#xdf;" horiz-adv-x="1183" 
d="M596 1532q185 0 303.5 -115t118.5 -289q0 -115 -56.5 -192t-150.5 -115q44 -11 85 -30.5t82 -53.5t71.5 -77t49.5 -105t19 -135q0 -200 -125 -323.5t-336 -123.5q-129 0 -223 54l39 137q43 -26 82.5 -38.5t99.5 -12.5q135 0 223.5 82t88.5 227q0 110 -62 186t-170 107
q-88 28 -188 28v115q78 0 162 35q155 70 155 225q0 125 -78 200t-190 75q-134 0 -210.5 -74.5t-76.5 -224.5v-1094h-153v1087q0 209 123 327t317 118z" />
    <glyph glyph-name="agrave" unicode="&#xe0;" horiz-adv-x="1177" 
d="M414 1436l282 -252h-159l-318 252h195zM543 1044q219 0 340 -155l4 135h137v-1024h-137l-4 137q-120 -157 -340 -157q-208 0 -337.5 149.5t-129.5 382.5q0 232 129.5 382t337.5 150zM565 909q-150 0 -245 -111t-95 -286q0 -177 94.5 -287t245.5 -110q107 0 178.5 47.5
t130.5 136.5v426q-59 89 -130.5 136.5t-178.5 47.5z" />
    <glyph glyph-name="aacute" unicode="&#xe1;" horiz-adv-x="1177" 
d="M975 1436l-316 -252h-159l282 252h193zM543 1044q219 0 340 -155l4 135h137v-1024h-137l-4 137q-120 -157 -340 -157q-208 0 -337.5 149.5t-129.5 382.5q0 232 129.5 382t337.5 150zM565 909q-150 0 -245 -111t-95 -286q0 -177 94.5 -287t245.5 -110q107 0 178.5 47.5
t130.5 136.5v426q-59 89 -130.5 136.5t-178.5 47.5z" />
    <glyph glyph-name="acircumflex" unicode="&#xe2;" horiz-adv-x="1177" 
d="M600 1501l303 -319h-143l-160 151l-160 -151h-143zM543 1044q219 0 340 -155l4 135h137v-1024h-137l-4 137q-120 -157 -340 -157q-208 0 -337.5 149.5t-129.5 382.5q0 232 129.5 382t337.5 150zM565 909q-150 0 -245 -111t-95 -286q0 -177 94.5 -287t245.5 -110
q107 0 178.5 47.5t130.5 136.5v426q-59 89 -130.5 136.5t-178.5 47.5z" />
    <glyph glyph-name="atilde" unicode="&#xe3;" horiz-adv-x="1177" 
d="M471 1452q44 0 79 -17.5t57 -43t41 -51t41.5 -43t49.5 -17.5q80 0 80 158h105q0 -131 -53.5 -199t-139.5 -68q-38 0 -68.5 12.5t-49 32t-37 41.5t-32 41.5t-33.5 32t-44 12.5q-82 0 -82 -157h-104q0 133 52.5 199.5t137.5 66.5zM543 1044q219 0 340 -155l4 135h137v-1024
h-137l-4 137q-120 -157 -340 -157q-208 0 -337.5 149.5t-129.5 382.5q0 232 129.5 382t337.5 150zM565 909q-150 0 -245 -111t-95 -286q0 -177 94.5 -287t245.5 -110q107 0 178.5 47.5t130.5 136.5v426q-59 89 -130.5 136.5t-178.5 47.5z" />
    <glyph glyph-name="adieresis" unicode="&#xe4;" horiz-adv-x="1177" 
d="M436 1399q41 0 68.5 -27t27.5 -67t-27.5 -67.5t-68.5 -27.5q-39 0 -65.5 27.5t-26.5 67.5t26 67t66 27zM766 1399q40 0 67 -27t27 -67t-27 -67.5t-67 -27.5t-67 27.5t-27 67.5t27 67t67 27zM543 1044q219 0 340 -155l4 135h137v-1024h-137l-4 137q-120 -157 -340 -157
q-208 0 -337.5 149.5t-129.5 382.5q0 232 129.5 382t337.5 150zM565 909q-150 0 -245 -111t-95 -286q0 -177 94.5 -287t245.5 -110q107 0 178.5 47.5t130.5 136.5v426q-59 89 -130.5 136.5t-178.5 47.5z" />
    <glyph glyph-name="aring" unicode="&#xe5;" horiz-adv-x="1177" 
d="M602 1589q89 0 150 -61t61 -150t-60.5 -148t-150.5 -59q-91 0 -151 59t-60 148q0 90 60.5 150.5t150.5 60.5zM602 1497q-50 0 -83.5 -34t-33.5 -85q0 -50 33.5 -82t83.5 -32t83.5 32t33.5 82q0 51 -33.5 85t-83.5 34zM543 1044q219 0 340 -155l4 135h137v-1024h-137
l-4 137q-120 -157 -340 -157q-208 0 -337.5 149.5t-129.5 382.5q0 232 129.5 382t337.5 150zM565 909q-150 0 -245 -111t-95 -286q0 -177 94.5 -287t245.5 -110q107 0 178.5 47.5t130.5 136.5v426q-59 89 -130.5 136.5t-178.5 47.5z" />
    <glyph glyph-name="ae" unicode="&#xe6;" horiz-adv-x="1923" 
d="M1389 1044q145 0 251.5 -69t160.5 -187.5t54 -271.5v-57h-806q9 -165 103 -256.5t269 -91.5q107 0 187 40t127 103l100 -84q-153 -190 -414 -190q-142 0 -245 50t-154 136l-6 -166h-129l-4 137q-120 -157 -340 -157q-208 0 -337.5 149.5t-129.5 382.5q0 232 129.5 382
t337.5 150q219 0 340 -155l4 135h131l6 -170q127 190 365 190zM1382 913q-138 0 -230.5 -87t-104.5 -242h661q-6 148 -92 238.5t-234 90.5zM565 909q-150 0 -245 -111t-95 -286q0 -177 94.5 -287t245.5 -110q107 0 178.5 47.5t130.5 136.5v426q-59 89 -130.5 136.5
t-178.5 47.5z" />
    <glyph glyph-name="ccedilla" unicode="&#xe7;" horiz-adv-x="1032" 
d="M584 -20h-11l-22 -86q79 -7 135.5 -52.5t56.5 -128.5q0 -85 -58.5 -134.5t-149.5 -49.5q-122 0 -199 80l63 74q60 -60 131 -60q105 0 105 90q0 79 -94 92q-48 8 -99 -2l-6 9l43 176q-188 33 -295.5 175.5t-107.5 348.5q0 234 136.5 383t367.5 149q257 0 403 -219
l-104 -82q-111 168 -299 168q-167 0 -261 -111.5t-94 -287.5q0 -177 95 -288t264 -111q101 0 177 47.5t124 120.5l106 -82q-149 -219 -407 -219z" />
    <glyph glyph-name="egrave" unicode="&#xe8;" horiz-adv-x="1089" 
d="M377 1436l282 -252h-159l-318 252h195zM559 1044q145 0 251 -71t158 -188t52 -265v-61h-795q8 -163 102 -255.5t259 -92.5q106 0 186 40.5t125 104.5l100 -82q-148 -194 -411 -194q-235 0 -372.5 147.5t-137.5 382.5q0 232 134.5 383t348.5 151zM559 913
q-144 0 -235 -90.5t-99 -238.5h647q-6 149 -88.5 239t-224.5 90z" />
    <glyph glyph-name="eacute" unicode="&#xe9;" horiz-adv-x="1089" 
d="M938 1436l-315 -252h-160l282 252h193zM559 1044q145 0 251 -71t158 -188t52 -265v-61h-795q8 -163 102 -255.5t259 -92.5q106 0 186 40.5t125 104.5l100 -82q-148 -194 -411 -194q-235 0 -372.5 147.5t-137.5 382.5q0 232 134.5 383t348.5 151zM559 913
q-144 0 -235 -90.5t-99 -238.5h647q-6 149 -88.5 239t-224.5 90z" />
    <glyph glyph-name="ecircumflex" unicode="&#xea;" horiz-adv-x="1089" 
d="M563 1501l303 -319h-143l-160 151l-160 -151h-143zM559 1044q145 0 251 -71t158 -188t52 -265v-61h-795q8 -163 102 -255.5t259 -92.5q106 0 186 40.5t125 104.5l100 -82q-148 -194 -411 -194q-235 0 -372.5 147.5t-137.5 382.5q0 232 134.5 383t348.5 151zM559 913
q-144 0 -235 -90.5t-99 -238.5h647q-6 149 -88.5 239t-224.5 90z" />
    <glyph glyph-name="edieresis" unicode="&#xeb;" horiz-adv-x="1089" 
d="M397 1399q41 0 69 -27t28 -67t-28 -67.5t-69 -27.5q-39 0 -65.5 27.5t-26.5 67.5t26 67t66 27zM727 1399q40 0 67 -27t27 -67t-27 -67.5t-67 -27.5t-67 27.5t-27 67.5t27 67t67 27zM559 1044q145 0 251 -71t158 -188t52 -265v-61h-795q8 -163 102 -255.5t259 -92.5
q106 0 186 40.5t125 104.5l100 -82q-148 -194 -411 -194q-235 0 -372.5 147.5t-137.5 382.5q0 232 134.5 383t348.5 151zM559 913q-144 0 -235 -90.5t-99 -238.5h647q-6 149 -88.5 239t-224.5 90z" />
    <glyph glyph-name="igrave" unicode="&#xec;" horiz-adv-x="487" 
d="M53 1436l285 -252h-160l-317 252h192zM301 1024v-1024h-147v1024h147z" />
    <glyph glyph-name="iacute" unicode="&#xed;" horiz-adv-x="487" 
d="M618 1436l-317 -252h-160l283 252h194zM301 1024v-1024h-147v1024h147z" />
    <glyph glyph-name="icircumflex" unicode="&#xee;" horiz-adv-x="454" 
d="M227 1501l303 -319h-143l-160 151l-159 -151h-144zM301 1024v-1024h-147v1024h147z" />
    <glyph glyph-name="idieresis" unicode="&#xef;" horiz-adv-x="487" 
d="M80 1399q40 0 67 -27t27 -67t-27 -67.5t-67 -27.5q-41 0 -67.5 27.5t-26.5 67.5t26.5 67t67.5 27zM408 1399q40 0 68 -27t28 -67t-28 -67.5t-68 -27.5t-67.5 27.5t-27.5 67.5t27.5 67t67.5 27zM301 1024v-1024h-147v1024h147z" />
    <glyph glyph-name="eth" unicode="&#xf0;" horiz-adv-x="1142" 
d="M985 782q92 -126 92 -297q0 -219 -142.5 -362t-361.5 -143q-218 0 -359.5 142.5t-141.5 362.5q0 218 142 362t359 144q43 0 86 -6l-149 209h-348v117h266l-174 245h182l174 -245h353v-117h-271zM573 106q154 0 254.5 107.5t100.5 271.5q0 163 -101 271t-254 108
t-252.5 -108t-99.5 -271q0 -165 99.5 -272t252.5 -107z" />
    <glyph glyph-name="ntilde" unicode="&#xf1;" horiz-adv-x="1165" 
d="M459 1452q44 0 79 -17.5t57 -43t41 -51t41.5 -43t49.5 -17.5q80 0 80 158h104q0 -131 -53 -199t-139 -68q-38 0 -68.5 12.5t-49 32t-37 41.5t-32 41.5t-33.5 32t-44 12.5q-82 0 -82 -157h-105q0 133 53 199.5t138 66.5zM637 1044q182 0 284.5 -117.5t102.5 -314.5v-612
h-147v604q0 133 -74.5 215t-198.5 82q-94 0 -166 -46.5t-137 -131.5v-723h-147v1024h135l6 -137q53 66 139.5 111.5t202.5 45.5z" />
    <glyph glyph-name="ograve" unicode="&#xf2;" horiz-adv-x="1183" 
d="M403 1436l283 -252h-160l-317 252h194zM592 1044q224 0 371 -152t147 -382t-147 -380t-371 -150q-225 0 -370.5 149.5t-145.5 380.5t145.5 382.5t370.5 151.5zM592 909q-159 0 -263 -113.5t-104 -285.5t103.5 -283.5t263.5 -111.5t263 111.5t103 283.5t-103.5 285.5
t-262.5 113.5z" />
    <glyph glyph-name="oacute" unicode="&#xf3;" horiz-adv-x="1183" 
d="M967 1436l-316 -252h-159l282 252h193zM592 1044q224 0 371 -152t147 -382t-147 -380t-371 -150q-225 0 -370.5 149.5t-145.5 380.5t145.5 382.5t370.5 151.5zM592 909q-159 0 -263 -113.5t-104 -285.5t103.5 -283.5t263.5 -111.5t263 111.5t103 283.5t-103.5 285.5
t-262.5 113.5z" />
    <glyph glyph-name="ocircumflex" unicode="&#xf4;" horiz-adv-x="1183" 
d="M592 1501l303 -319h-143l-160 151l-160 -151h-143zM592 1044q224 0 371 -152t147 -382t-147 -380t-371 -150q-225 0 -370.5 149.5t-145.5 380.5t145.5 382.5t370.5 151.5zM592 909q-159 0 -263 -113.5t-104 -285.5t103.5 -283.5t263.5 -111.5t263 111.5t103 283.5
t-103.5 285.5t-262.5 113.5z" />
    <glyph glyph-name="otilde" unicode="&#xf5;" horiz-adv-x="1183" 
d="M463 1452q44 0 79 -17.5t57 -43t41 -51t41.5 -43t49.5 -17.5q80 0 80 158h104q0 -131 -53 -199t-139 -68q-38 0 -68.5 12.5t-49 32t-37 41.5t-32 41.5t-33.5 32t-44 12.5q-82 0 -82 -157h-105q0 133 53 199.5t138 66.5zM592 1044q224 0 371 -152t147 -382t-147 -380
t-371 -150q-225 0 -370.5 149.5t-145.5 380.5t145.5 382.5t370.5 151.5zM592 909q-159 0 -263 -113.5t-104 -285.5t103.5 -283.5t263.5 -111.5t263 111.5t103 283.5t-103.5 285.5t-262.5 113.5z" />
    <glyph glyph-name="odieresis" unicode="&#xf6;" horiz-adv-x="1183" 
d="M426 1399q41 0 68.5 -27t27.5 -67t-27.5 -67.5t-68.5 -27.5q-39 0 -65.5 27.5t-26.5 67.5t26 67t66 27zM756 1399q40 0 67 -27t27 -67t-27 -67.5t-67 -27.5t-67 27.5t-27 67.5t27 67t67 27zM592 1044q224 0 371 -152t147 -382t-147 -380t-371 -150q-225 0 -370.5 149.5
t-145.5 380.5t145.5 382.5t370.5 151.5zM592 909q-159 0 -263 -113.5t-104 -285.5t103.5 -283.5t263.5 -111.5t263 111.5t103 283.5t-103.5 285.5t-262.5 113.5z" />
    <glyph glyph-name="divide" unicode="&#xf7;" horiz-adv-x="966" 
d="M481 1196q46 0 76.5 -31t30.5 -78q0 -43 -31 -73.5t-76 -30.5q-44 0 -73 30.5t-29 73.5q0 46 29 77.5t73 31.5zM881 786v-139h-797v139h797zM481 446q46 0 76.5 -29.5t30.5 -76.5q0 -44 -30.5 -74t-76.5 -30q-44 0 -73 30t-29 74q0 46 29 76t73 30z" />
    <glyph glyph-name="oslash" unicode="&#xf8;" horiz-adv-x="1183" 
d="M889 954q103 -70 162 -186.5t59 -257.5q0 -230 -147 -380t-371 -150q-116 0 -209 40l-88 -163h-111l113 209q-104 70 -162.5 185.5t-58.5 258.5q0 231 145.5 382.5t370.5 151.5q113 0 213 -43l90 166h109zM219 510q0 -102 37.5 -187t105.5 -139l379 701q-68 30 -149 30
q-162 0 -267.5 -115t-105.5 -290zM592 106q161 0 267 114.5t106 289.5q0 100 -37.5 184.5t-104.5 139.5l-377 -699q69 -29 146 -29z" />
    <glyph glyph-name="ugrave" unicode="&#xf9;" 
d="M391 1436l283 -252h-160l-317 252h194zM991 1024v-1024h-137l-4 135q-131 -155 -344 -155q-171 0 -268 116.5t-97 309.5v618h150v-612q0 -130 67.5 -210.5t180.5 -80.5q69 0 126.5 24.5t96 60.5t80.5 93v725h149z" />
    <glyph glyph-name="uacute" unicode="&#xfa;" 
d="M952 1436l-315 -252h-160l283 252h192zM991 1024v-1024h-137l-4 135q-131 -155 -344 -155q-171 0 -268 116.5t-97 309.5v618h150v-612q0 -130 67.5 -210.5t180.5 -80.5q69 0 126.5 24.5t96 60.5t80.5 93v725h149z" />
    <glyph glyph-name="ucircumflex" unicode="&#xfb;" 
d="M578 1501l303 -319h-144l-159 151l-160 -151h-144zM991 1024v-1024h-137l-4 135q-131 -155 -344 -155q-171 0 -268 116.5t-97 309.5v618h150v-612q0 -130 67.5 -210.5t180.5 -80.5q69 0 126.5 24.5t96 60.5t80.5 93v725h149z" />
    <glyph glyph-name="udieresis" unicode="&#xfc;" 
d="M414 1399q41 0 68.5 -27t27.5 -67t-27.5 -67.5t-68.5 -27.5q-39 0 -65.5 27.5t-26.5 67.5t26 67t66 27zM743 1399q40 0 67.5 -27t27.5 -67t-27.5 -67.5t-67.5 -27.5t-67 27.5t-27 67.5t27 67t67 27zM991 1024v-1024h-137l-4 135q-131 -155 -344 -155q-171 0 -268 116.5
t-97 309.5v618h150v-612q0 -130 67.5 -210.5t180.5 -80.5q69 0 126.5 24.5t96 60.5t80.5 93v725h149z" />
    <glyph glyph-name="yacute" unicode="&#xfd;" horiz-adv-x="1079" 
d="M903 1436l-315 -252h-160l283 252h192zM1053 1024l-723 -1495h-170l299 590l-432 905h155l357 -758l358 758h156z" />
    <glyph glyph-name="thorn" unicode="&#xfe;" horiz-adv-x="1198" 
d="M307 1556v-659q125 147 342 147q138 0 247 -68.5t168.5 -190t59.5 -273.5q0 -233 -132.5 -382.5t-342.5 -149.5q-219 0 -342 145v-596h-149v2027h149zM625 909q-108 0 -184 -48.5t-134 -135.5v-426q58 -87 134 -135.5t184 -48.5q153 0 250.5 110.5t97.5 286.5
t-97.5 286.5t-250.5 110.5z" />
    <glyph glyph-name="ydieresis" unicode="&#xff;" horiz-adv-x="1079" 
d="M362 1399q41 0 69 -27t28 -67t-28 -67.5t-69 -27.5q-39 0 -65.5 27.5t-26.5 67.5t26 67t66 27zM692 1399q40 0 67 -27t27 -67t-27 -67.5t-67 -27.5t-67 27.5t-27 67.5t27 67t67 27zM1053 1024l-723 -1495h-170l299 590l-432 905h155l357 -758l358 758h156z" />
    <glyph glyph-name="Amacron" unicode="&#x100;" horiz-adv-x="1400" 
d="M956 1747v-109h-516v109h516zM705 1532l673 -1532h-166l-151 352h-721l-152 -352h-165l673 1532h9zM700 1184l-301 -692h602z" />
    <glyph glyph-name="amacron" unicode="&#x101;" horiz-adv-x="1177" 
d="M860 1335v-108h-516v108h516zM543 1044q219 0 340 -155l4 135h137v-1024h-137l-4 137q-120 -157 -340 -157q-208 0 -337.5 149.5t-129.5 382.5q0 232 129.5 382t337.5 150zM565 909q-150 0 -245 -111t-95 -286q0 -177 94.5 -287t245.5 -110q107 0 178.5 47.5t130.5 136.5
v426q-59 89 -130.5 136.5t-178.5 47.5z" />
    <glyph glyph-name="Abreve" unicode="&#x102;" horiz-adv-x="1400" 
d="M995 1884q0 -122 -85 -203.5t-212 -81.5t-213 81.5t-86 203.5h111q0 -73 53 -123.5t135 -50.5q81 0 134 50.5t53 123.5h110zM705 1532l673 -1532h-166l-151 352h-721l-152 -352h-165l673 1532h9zM700 1184l-301 -692h602z" />
    <glyph glyph-name="abreve" unicode="&#x103;" horiz-adv-x="1177" 
d="M899 1470q0 -124 -84.5 -207t-212.5 -83t-213.5 83t-85.5 207h113q0 -77 52 -126.5t134 -49.5q80 0 132 50t52 126h113zM543 1044q219 0 340 -155l4 135h137v-1024h-137l-4 137q-120 -157 -340 -157q-208 0 -337.5 149.5t-129.5 382.5q0 232 129.5 382t337.5 150z
M565 909q-150 0 -245 -111t-95 -286q0 -177 94.5 -287t245.5 -110q107 0 178.5 47.5t130.5 136.5v426q-59 89 -130.5 136.5t-178.5 47.5z" />
    <glyph glyph-name="Aogonek" unicode="&#x104;" horiz-adv-x="1400" 
d="M1421 -362l31 -91q-44 -18 -104 -18q-115 0 -188 66t-73 180q0 148 117 241l-143 336h-721l-152 -352h-165l673 1532h9l673 -1532h-35q-149 -78 -149 -225q0 -71 44.5 -110.5t111.5 -39.5q45 0 71 13zM399 492h602l-301 692z" />
    <glyph glyph-name="aogonek" unicode="&#x105;" horiz-adv-x="1177" 
d="M1090 -362l30 -91q-44 -18 -104 -18q-115 0 -187.5 65.5t-72.5 180.5q0 154 131 254l-4 108q-120 -157 -340 -157q-208 0 -337.5 149.5t-129.5 382.5q0 232 129.5 382t337.5 150q219 0 340 -155l4 135h137v-1024h-12q-150 -78 -150 -225q0 -71 44.5 -110.5t111.5 -39.5
q46 0 72 13zM874 299v426q-59 89 -130.5 136.5t-178.5 47.5q-150 0 -245 -111t-95 -286q0 -177 94.5 -287t245.5 -110q107 0 178.5 47.5t130.5 136.5z" />
    <glyph glyph-name="Cacute" unicode="&#x106;" horiz-adv-x="1415" 
d="M1182 1853l-303 -231h-172l276 231h199zM825 1532q319 0 531 -215l-101 -115q-172 184 -430 184q-171 0 -305.5 -81.5t-209 -226t-74.5 -326.5t74.5 -326t209 -225.5t305.5 -81.5q136 0 249 52t194 144l98 -118q-209 -224 -541 -224q-160 0 -299 59t-236.5 162
t-153.5 247.5t-56 310.5q0 222 95 400t265.5 279t384.5 101z" />
    <glyph glyph-name="cacute" unicode="&#x107;" horiz-adv-x="1032" 
d="M952 1436l-315 -252h-160l283 252h192zM580 1044q257 0 403 -219l-104 -82q-111 168 -299 168q-167 0 -261 -111.5t-94 -287.5q0 -177 95 -288t264 -111q101 0 177 47.5t124 120.5l106 -82q-149 -219 -407 -219q-232 0 -370 149t-138 383t136.5 383t367.5 149z" />
    <glyph glyph-name="Ccircumflex" unicode="&#x108;" horiz-adv-x="1415" 
d="M817 1909l309 -289h-147l-162 147l-164 -147h-145zM825 1532q319 0 531 -215l-101 -115q-172 184 -430 184q-171 0 -305.5 -81.5t-209 -226t-74.5 -326.5t74.5 -326t209 -225.5t305.5 -81.5q136 0 249 52t194 144l98 -118q-209 -224 -541 -224q-160 0 -299 59t-236.5 162
t-153.5 247.5t-56 310.5q0 222 95 400t265.5 279t384.5 101z" />
    <glyph glyph-name="ccircumflex" unicode="&#x109;" horiz-adv-x="1032" 
d="M578 1501l303 -319h-144l-159 151l-160 -151h-144zM580 1044q257 0 403 -219l-104 -82q-111 168 -299 168q-167 0 -261 -111.5t-94 -287.5q0 -177 95 -288t264 -111q101 0 177 47.5t124 120.5l106 -82q-149 -219 -407 -219q-232 0 -370 149t-138 383t136.5 383t367.5 149
z" />
    <glyph glyph-name="Cdotaccent" unicode="&#x10a;" horiz-adv-x="1415" 
d="M817 1823q41 0 69.5 -29t28.5 -72q0 -41 -28.5 -68.5t-69.5 -27.5t-69.5 27.5t-28.5 68.5q0 43 28.5 72t69.5 29zM825 1532q319 0 531 -215l-101 -115q-172 184 -430 184q-171 0 -305.5 -81.5t-209 -226t-74.5 -326.5t74.5 -326t209 -225.5t305.5 -81.5q136 0 249 52
t194 144l98 -118q-209 -224 -541 -224q-160 0 -299 59t-236.5 162t-153.5 247.5t-56 310.5q0 222 95 400t265.5 279t384.5 101z" />
    <glyph glyph-name="cdotaccent" unicode="&#x10b;" horiz-adv-x="1032" 
d="M578 1436q42 0 70 -29t28 -72q0 -41 -27.5 -68.5t-70.5 -27.5q-41 0 -69 27.5t-28 68.5q0 43 28 72t69 29zM580 1044q257 0 403 -219l-104 -82q-111 168 -299 168q-167 0 -261 -111.5t-94 -287.5q0 -177 95 -288t264 -111q101 0 177 47.5t124 120.5l106 -82
q-149 -219 -407 -219q-232 0 -370 149t-138 383t136.5 383t367.5 149z" />
    <glyph glyph-name="Ccaron" unicode="&#x10c;" horiz-adv-x="1415" 
d="M1130 1890l-309 -288l-309 288h145l164 -145l162 145h147zM825 1532q319 0 531 -215l-101 -115q-172 184 -430 184q-171 0 -305.5 -81.5t-209 -226t-74.5 -326.5t74.5 -326t209 -225.5t305.5 -81.5q136 0 249 52t194 144l98 -118q-209 -224 -541 -224q-160 0 -299 59
t-236.5 162t-153.5 247.5t-56 310.5q0 222 95 400t265.5 279t384.5 101z" />
    <glyph glyph-name="ccaron" unicode="&#x10d;" horiz-adv-x="1032" 
d="M881 1489l-303 -320l-304 320h144l160 -152l159 152h144zM580 1044q257 0 403 -219l-104 -82q-111 168 -299 168q-167 0 -261 -111.5t-94 -287.5q0 -177 95 -288t264 -111q101 0 177 47.5t124 120.5l106 -82q-149 -219 -407 -219q-232 0 -370 149t-138 383t136.5 383
t367.5 149z" />
    <glyph glyph-name="Dcaron" unicode="&#x10e;" horiz-adv-x="1501" 
d="M1008 1870l-310 -289l-309 289h146l163 -146l162 146h148zM621 1505q378 0 589 -197.5t211 -553.5q0 -357 -210 -555.5t-590 -198.5h-443v1505h443zM616 1360h-282v-1215h282q311 0 479.5 159.5t168.5 449.5q0 288 -169.5 447t-478.5 159z" />
    <glyph glyph-name="dcaron" unicode="&#x10f;" horiz-adv-x="1198" 
d="M1231 1559q49 0 80.5 -33t31.5 -84q0 -46 -22 -88l-121 -211h-8v409q21 7 39 7zM1040 1556v-1556h-137l-4 137q-52 -68 -139 -112.5t-209 -44.5q-210 0 -342.5 149.5t-132.5 382.5q0 152 59.5 273.5t168.5 190t247 68.5q222 0 340 -147v659h149zM573 909
q-152 0 -250 -111.5t-98 -285.5q0 -176 97.5 -286.5t250.5 -110.5q109 0 184.5 48t133.5 136v426q-58 88 -133.5 136t-184.5 48z" />
    <glyph glyph-name="Dcroat" unicode="&#x110;" horiz-adv-x="1540" 
d="M657 1505q379 0 591 -197.5t212 -553.5q0 -357 -211 -555.5t-592 -198.5h-442v717h-182v110h182v678h442zM653 145q312 0 481 159.5t169 449.5q0 288 -170 447t-480 159h-282v-533h245v-110h-245v-572h282z" />
    <glyph glyph-name="dcroat" unicode="&#x111;" horiz-adv-x="1198" 
d="M1208 1313v-111h-168v-1202h-137l-4 137q-52 -68 -139 -112.5t-209 -44.5q-210 0 -342.5 149.5t-132.5 382.5q0 152 59.5 273.5t168.5 190t247 68.5q222 0 340 -147v305h-268v111h268v243h149v-243h168zM891 299v426q-58 88 -133.5 136t-184.5 48q-152 0 -250 -111.5
t-98 -285.5q0 -176 97.5 -286.5t250.5 -110.5q109 0 184.5 48t133.5 136z" />
    <glyph glyph-name="Emacron" unicode="&#x112;" horiz-adv-x="1185" 
d="M905 1747v-109h-516v109h516zM1087 1505v-145h-753v-526h665v-142h-665v-547h770v-145h-926v1505h909z" />
    <glyph glyph-name="emacron" unicode="&#x113;" horiz-adv-x="1089" 
d="M821 1335v-108h-516v108h516zM559 1044q145 0 251 -71t158 -188t52 -265v-61h-795q8 -163 102 -255.5t259 -92.5q106 0 186 40.5t125 104.5l100 -82q-148 -194 -411 -194q-235 0 -372.5 147.5t-137.5 382.5q0 232 134.5 383t348.5 151zM559 913q-144 0 -235 -90.5
t-99 -238.5h647q-6 149 -88.5 239t-224.5 90z" />
    <glyph glyph-name="Ebreve" unicode="&#x114;" horiz-adv-x="1185" 
d="M944 1884q0 -122 -85 -203.5t-212 -81.5t-213 81.5t-86 203.5h111q0 -73 53 -123.5t135 -50.5q81 0 134 50.5t53 123.5h110zM1087 1505v-145h-753v-526h665v-142h-665v-547h770v-145h-926v1505h909z" />
    <glyph glyph-name="ebreve" unicode="&#x115;" horiz-adv-x="1089" 
d="M860 1470q0 -124 -84.5 -207t-212.5 -83t-213.5 83t-85.5 207h113q0 -77 52 -126.5t134 -49.5q80 0 132.5 50t52.5 126h112zM559 1044q145 0 251 -71t158 -188t52 -265v-61h-795q8 -163 102 -255.5t259 -92.5q106 0 186 40.5t125 104.5l100 -82q-148 -194 -411 -194
q-235 0 -372.5 147.5t-137.5 382.5q0 232 134.5 383t348.5 151zM559 913q-144 0 -235 -90.5t-99 -238.5h647q-6 149 -88.5 239t-224.5 90z" />
    <glyph glyph-name="Edotaccent" unicode="&#x116;" horiz-adv-x="1185" 
d="M647 1802q41 0 69.5 -28.5t28.5 -71.5q0 -41 -28.5 -68.5t-69.5 -27.5t-69.5 27.5t-28.5 68.5q0 43 28.5 71.5t69.5 28.5zM1087 1505v-145h-753v-526h665v-142h-665v-547h770v-145h-926v1505h909z" />
    <glyph glyph-name="edotaccent" unicode="&#x117;" horiz-adv-x="1089" 
d="M563 1436q43 0 71 -29t28 -72q0 -41 -28 -68.5t-71 -27.5q-41 0 -68.5 27.5t-27.5 68.5q0 43 27.5 72t68.5 29zM559 1044q145 0 251 -71t158 -188t52 -265v-61h-795q8 -163 102 -255.5t259 -92.5q106 0 186 40.5t125 104.5l100 -82q-148 -194 -411 -194
q-235 0 -372.5 147.5t-137.5 382.5q0 232 134.5 383t348.5 151zM559 913q-144 0 -235 -90.5t-99 -238.5h647q-6 149 -88.5 239t-224.5 90z" />
    <glyph glyph-name="Eogonek" unicode="&#x118;" horiz-adv-x="1185" 
d="M987 0q-149 -78 -149 -225q0 -71 44 -110.5t111 -39.5q46 0 72 13l31 -91q-44 -18 -105 -18q-115 0 -187.5 65.5t-72.5 180.5q0 133 98 225h-651v1505h909v-145h-753v-526h665v-142h-665v-547h770v-145h-117z" />
    <glyph glyph-name="eogonek" unicode="&#x119;" horiz-adv-x="1089" 
d="M1020 520v-61h-795q8 -163 102 -255.5t259 -92.5q106 0 186 40.5t125 104.5l100 -82q-73 -98 -188 -151q-125 -74 -125 -211q0 -71 44.5 -110.5t111.5 -39.5q47 0 71 12l31 -90q-44 -18 -104 -18q-115 0 -187.5 65.5t-72.5 180.5q0 96 49 170q-12 -2 -41 -2
q-235 0 -372.5 147.5t-137.5 382.5q0 232 134.5 383t348.5 151q145 0 251 -71t158 -188t52 -265zM225 584h647q-6 149 -88.5 239t-224.5 90q-144 0 -235 -90.5t-99 -238.5z" />
    <glyph glyph-name="Ecaron" unicode="&#x11a;" horiz-adv-x="1185" 
d="M963 1870l-310 -289l-309 289h145l164 -146l162 146h148zM1087 1505v-145h-753v-526h665v-142h-665v-547h770v-145h-926v1505h909z" />
    <glyph glyph-name="ecaron" unicode="&#x11b;" horiz-adv-x="1089" 
d="M866 1489l-303 -320l-303 320h143l160 -152l160 152h143zM559 1044q145 0 251 -71t158 -188t52 -265v-61h-795q8 -163 102 -255.5t259 -92.5q106 0 186 40.5t125 104.5l100 -82q-148 -194 -411 -194q-235 0 -372.5 147.5t-137.5 382.5q0 232 134.5 383t348.5 151z
M559 913q-144 0 -235 -90.5t-99 -238.5h647q-6 149 -88.5 239t-224.5 90z" />
    <glyph glyph-name="Gcircumflex" unicode="&#x11c;" horiz-adv-x="1513" 
d="M819 1909l309 -289h-147l-162 147l-164 -147h-145zM825 1532q319 0 531 -215l-101 -115q-172 184 -430 184q-171 0 -305.5 -81.5t-209 -226t-74.5 -326.5q0 -276 172 -454.5t442 -178.5q229 0 387 123v385h-414v137h570v-600q-213 -191 -543 -191q-167 0 -310.5 59
t-244 162t-158 247.5t-57.5 310.5q0 222 95 400t265.5 279t384.5 101z" />
    <glyph glyph-name="gcircumflex" unicode="&#x11d;" horiz-adv-x="1193" 
d="M575 1501l304 -319h-144l-160 151l-159 -151h-144zM551 1044q122 0 208.5 -44t139.5 -111l4 135h137v-1006q0 -236 -135.5 -373t-361.5 -137q-282 0 -455 211l100 97q142 -172 353 -172q160 0 255 100.5t95 271.5v111q-118 -147 -340 -147q-210 0 -342.5 149.5
t-132.5 382.5q0 152 59.5 273.5t168.5 190t247 68.5zM573 909q-152 0 -250 -111.5t-98 -285.5q0 -176 97.5 -286.5t250.5 -110.5q109 0 184.5 48t133.5 136v426q-58 88 -133.5 136t-184.5 48z" />
    <glyph glyph-name="Gbreve" unicode="&#x11e;" horiz-adv-x="1513" 
d="M1116 1905q0 -122 -85 -203.5t-212 -81.5t-213 81.5t-86 203.5h111q0 -73 53 -123.5t135 -50.5q81 0 134 50.5t53 123.5h110zM825 1532q319 0 531 -215l-101 -115q-172 184 -430 184q-171 0 -305.5 -81.5t-209 -226t-74.5 -326.5q0 -276 172 -454.5t442 -178.5
q229 0 387 123v385h-414v137h570v-600q-213 -191 -543 -191q-167 0 -310.5 59t-244 162t-158 247.5t-57.5 310.5q0 222 95 400t265.5 279t384.5 101z" />
    <glyph glyph-name="gbreve" unicode="&#x11f;" horiz-adv-x="1193" 
d="M874 1470q0 -125 -84.5 -207.5t-211.5 -82.5q-128 0 -213.5 83t-85.5 207h112q0 -77 52.5 -126.5t134.5 -49.5q80 0 132 50t52 126h112zM551 1044q122 0 208.5 -44t139.5 -111l4 135h137v-1006q0 -236 -135.5 -373t-361.5 -137q-282 0 -455 211l100 97q142 -172 353 -172
q160 0 255 100.5t95 271.5v111q-118 -147 -340 -147q-210 0 -342.5 149.5t-132.5 382.5q0 152 59.5 273.5t168.5 190t247 68.5zM573 909q-152 0 -250 -111.5t-98 -285.5q0 -176 97.5 -286.5t250.5 -110.5q109 0 184.5 48t133.5 136v426q-58 88 -133.5 136t-184.5 48z" />
    <glyph glyph-name="Gdotaccent" unicode="&#x120;" horiz-adv-x="1513" 
d="M819 1823q41 0 70 -29t29 -72q0 -41 -28.5 -68.5t-70.5 -27.5q-41 0 -69.5 27.5t-28.5 68.5q0 43 28.5 72t69.5 29zM825 1532q319 0 531 -215l-101 -115q-172 184 -430 184q-171 0 -305.5 -81.5t-209 -226t-74.5 -326.5q0 -276 172 -454.5t442 -178.5q229 0 387 123v385
h-414v137h570v-600q-213 -191 -543 -191q-167 0 -310.5 59t-244 162t-158 247.5t-57.5 310.5q0 222 95 400t265.5 279t384.5 101z" />
    <glyph glyph-name="gdotaccent" unicode="&#x121;" horiz-adv-x="1193" 
d="M578 1436q42 0 70 -29t28 -72q0 -41 -27.5 -68.5t-70.5 -27.5q-41 0 -69 27.5t-28 68.5q0 43 28 72t69 29zM551 1044q122 0 208.5 -44t139.5 -111l4 135h137v-1006q0 -236 -135.5 -373t-361.5 -137q-282 0 -455 211l100 97q142 -172 353 -172q160 0 255 100.5t95 271.5
v111q-118 -147 -340 -147q-210 0 -342.5 149.5t-132.5 382.5q0 152 59.5 273.5t168.5 190t247 68.5zM573 909q-152 0 -250 -111.5t-98 -285.5q0 -176 97.5 -286.5t250.5 -110.5q109 0 184.5 48t133.5 136v426q-58 88 -133.5 136t-184.5 48z" />
    <glyph glyph-name="Gcommaaccent" unicode="&#x122;" horiz-adv-x="1513" 
d="M825 1532q319 0 531 -215l-101 -115q-172 184 -430 184q-171 0 -305.5 -81.5t-209 -226t-74.5 -326.5q0 -276 172 -454.5t442 -178.5q229 0 387 123v385h-414v137h570v-600q-213 -191 -543 -191q-167 0 -310.5 59t-244 162t-158 247.5t-57.5 310.5q0 222 95 400
t265.5 279t384.5 101zM784 -111q53 0 86 -28t33 -74q0 -50 -26 -80l-123 -176h-9v352q18 6 39 6z" />
    <glyph glyph-name="gcommaaccent" unicode="&#x123;" horiz-adv-x="1193" 
d="M618 1143q-53 0 -85.5 28t-32.5 74q0 50 26 80l123 176h8v-352q-18 -6 -39 -6zM551 1044q122 0 208.5 -44t139.5 -111l4 135h137v-1006q0 -236 -135.5 -373t-361.5 -137q-282 0 -455 211l100 97q142 -172 353 -172q160 0 255 100.5t95 271.5v111q-118 -147 -340 -147
q-210 0 -342.5 149.5t-132.5 382.5q0 152 59.5 273.5t168.5 190t247 68.5zM573 909q-152 0 -250 -111.5t-98 -285.5q0 -176 97.5 -286.5t250.5 -110.5q109 0 184.5 48t133.5 136v426q-58 88 -133.5 136t-184.5 48z" />
    <glyph glyph-name="Hcircumflex" unicode="&#x124;" horiz-adv-x="1482" 
d="M741 1888l310 -289h-148l-162 148l-163 -148h-146zM1307 1505v-1505h-156v696h-817v-696h-156v1505h156v-663h817v663h156z" />
    <glyph glyph-name="hcircumflex" unicode="&#x125;" horiz-adv-x="1169" 
d="M248 1921l309 -291h-145l-164 148l-162 -148h-147zM307 1556v-661q134 149 334 149q182 0 285.5 -118t103.5 -314v-612h-149v604q0 133 -74.5 215t-196.5 82q-96 0 -166.5 -46t-136.5 -132v-723h-149v1556h149z" />
    <glyph glyph-name="Hbar" unicode="&#x126;" horiz-adv-x="1531" 
d="M1507 1210v-110h-178v-1100h-155v690h-818v-690h-155v1100h-176v110h176v295h155v-295h818v295h155v-295h178zM1174 829v271h-818v-271h818z" />
    <glyph glyph-name="hbar" unicode="&#x127;" horiz-adv-x="1169" 
d="M641 1044q182 0 285.5 -118t103.5 -314v-612h-149v604q0 133 -74.5 215t-196.5 82q-96 0 -166.5 -46t-136.5 -132v-723h-149v1202h-168v111h168v243h149v-243h268v-111h-268v-307q134 149 334 149z" />
    <glyph glyph-name="Itilde" unicode="&#x128;" horiz-adv-x="509" 
d="M125 1878q44 0 79 -17.5t57 -43t41 -51t41.5 -43t49.5 -17.5q80 0 80 158h105q0 -131 -53.5 -199t-139.5 -68q-38 0 -68.5 12.5t-49 32t-37 41.5t-32 41.5t-33.5 32t-44 12.5q-82 0 -82 -157h-105q0 133 53 199.5t138 66.5zM334 1505v-1505h-156v1505h156z" />
    <glyph glyph-name="itilde" unicode="&#x129;" horiz-adv-x="487" 
d="M115 1452q38 0 68.5 -12.5t49.5 -32t38 -41.5t33 -41.5t34 -32t43 -12.5q82 0 82 158h102q0 -131 -53 -199t-139 -68q-45 0 -79 17.5t-55 43t-38.5 51t-40 43t-49.5 17.5q-84 0 -84 -157h-105q0 133 53 199.5t140 66.5zM301 1024v-1024h-147v1024h147z" />
    <glyph glyph-name="Imacron" unicode="&#x12a;" horiz-adv-x="509" 
d="M512 1747v-109h-516v109h516zM334 1505v-1505h-156v1505h156z" />
    <glyph glyph-name="imacron" unicode="&#x12b;" horiz-adv-x="487" 
d="M502 1335v-108h-516v108h516zM301 1024v-1024h-147v1024h147z" />
    <glyph glyph-name="Ibreve" unicode="&#x12c;" horiz-adv-x="509" 
d="M553 1884q0 -122 -85 -203.5t-212 -81.5t-213 81.5t-86 203.5h111q0 -73 53 -123.5t135 -50.5q81 0 133.5 50.5t52.5 123.5h111zM334 1505v-1505h-156v1505h156z" />
    <glyph glyph-name="ibreve" unicode="&#x12d;" horiz-adv-x="487" 
d="M541 1470q0 -124 -84.5 -207t-212.5 -83t-213.5 83t-85.5 207h112q0 -77 52.5 -126.5t134.5 -49.5q80 0 132 50t52 126h113zM301 1024v-1024h-147v1024h147z" />
    <glyph glyph-name="Iogonek" unicode="&#x12e;" horiz-adv-x="509" 
d="M348 -362l31 -91q-43 -18 -105 -18q-115 0 -187.5 65.5t-72.5 180.5q0 171 164 276v1454h156v-1505h-64q-149 -78 -149 -225q0 -71 44 -110.5t111 -39.5q46 0 72 13z" />
    <glyph glyph-name="iogonek" unicode="&#x12f;" horiz-adv-x="454" 
d="M227 1249q-46 0 -77 30.5t-31 76.5t31 77t77 31q45 0 76 -31t31 -77q0 -45 -31 -76t-76 -31zM360 -362l31 -91q-44 -18 -104 -18q-115 0 -187.5 65.5t-72.5 180.5q0 154 127 250v999h147v-1024h-18q-150 -78 -150 -225q0 -71 44.5 -110.5t111.5 -39.5q45 0 71 13z" />
    <glyph glyph-name="Idotaccent" unicode="&#x130;" horiz-adv-x="509" 
d="M256 1802q41 0 69.5 -28.5t28.5 -71.5q0 -41 -28.5 -68.5t-69.5 -27.5t-69.5 27.5t-28.5 68.5q0 43 28.5 71.5t69.5 28.5zM334 1505v-1505h-156v1505h156z" />
    <glyph glyph-name="dotlessi" unicode="&#x131;" horiz-adv-x="454" 
d="M301 1024v-1024h-147v1024h147z" />
    <glyph glyph-name="IJ" unicode="&#x132;" horiz-adv-x="1517" 
d="M334 1505v-1505h-156v1505h156zM1362 1505v-1085q0 -206 -119 -326.5t-317 -120.5q-122 0 -221 53.5t-159.5 161t-60.5 252.5h154q0 -150 77.5 -235.5t205.5 -85.5q133 0 208.5 81t75.5 226v1079h156z" />
    <glyph glyph-name="ij" unicode="&#x133;" horiz-adv-x="892" 
d="M666 1464q45 0 76.5 -31.5t31.5 -76.5t-31.5 -76t-76.5 -31q-46 0 -76.5 30.5t-30.5 76.5t30.5 77t76.5 31zM227 1464q45 0 76 -31t31 -77q0 -45 -31 -76t-76 -31q-46 0 -77 30.5t-31 76.5t31 77t77 31zM393 -492q-141 0 -239 76l79 117q74 -57 164 -57q86 0 140.5 56.5
t54.5 147.5v1176h147v-1174q0 -147 -97.5 -244.5t-248.5 -97.5zM301 1024v-1024h-147v1024h147z" />
    <glyph glyph-name="Jcircumflex" unicode="&#x134;" horiz-adv-x="1077" 
d="M838 1888l309 -289h-148l-161 148l-164 -148h-146zM922 1505v-1085q0 -205 -120 -326t-317 -121q-122 0 -220.5 53.5t-159 161t-60.5 252.5h152q0 -150 77.5 -235.5t206.5 -85.5q133 0 209 81t76 226v1079h156z" />
    <glyph glyph-name="jcircumflex" unicode="&#x135;" horiz-adv-x="466" 
d="M244 1501l303 -319h-146l-157 151l-160 -151h-143zM-33 -492q-144 0 -239 76l79 117q71 -57 164 -57q84 0 139.5 56.5t55.5 147.5v1176h147v-1174q0 -147 -98 -244.5t-248 -97.5z" />
    <glyph glyph-name="Kcommaaccent" unicode="&#x136;" horiz-adv-x="1314" 
d="M1212 1505l-440 -733l512 -772h-188l-414 631l-381 -631h-123v1505h156v-1194l704 1194h174zM657 -111q53 0 86 -28t33 -74q0 -50 -26 -80l-123 -176h-9v352q18 6 39 6z" />
    <glyph glyph-name="kcommaaccent" unicode="&#x137;" horiz-adv-x="1058" 
d="M307 1556v-1284l502 752h170l-313 -461l374 -563h-176l-293 438l-290 -438h-123v1556h149zM539 -111q53 0 85.5 -28t32.5 -74q0 -50 -26 -80l-123 -176h-8v352q18 6 39 6z" />
    <glyph glyph-name="Lacute" unicode="&#x139;" horiz-adv-x="1116" 
d="M623 1833l-304 -231h-172l277 231h199zM334 1505v-1364h753v-141h-909v1505h156z" />
    <glyph glyph-name="lacute" unicode="&#x13a;" horiz-adv-x="464" 
d="M629 1882l-303 -231h-174l278 231h199zM307 1556v-1556h-149v1556h149z" />
    <glyph glyph-name="Lcommaaccent" unicode="&#x13b;" horiz-adv-x="1116" 
d="M334 1505v-1364h753v-141h-909v1505h156zM594 -111q53 0 86 -28t33 -74q0 -49 -27 -80l-123 -176h-8v352q18 6 39 6z" />
    <glyph glyph-name="lcommaaccent" unicode="&#x13c;" horiz-adv-x="464" 
d="M307 1556v-1556h-149v1556h149zM197 -111q53 0 85.5 -28t32.5 -74q0 -50 -26 -80l-123 -176h-8v352q18 6 39 6z" />
    <glyph glyph-name="Lcaron" unicode="&#x13d;" horiz-adv-x="1116" 
d="M563 1518q51 0 82 -33t31 -84q0 -49 -23 -88l-121 -211h-8v409q21 7 39 7zM334 1505v-1364h753v-141h-909v1505h156z" />
    <glyph glyph-name="lcaron" unicode="&#x13e;" horiz-adv-x="464" 
d="M498 1559q49 0 79.5 -33t30.5 -84t-22 -88l-121 -211h-8v409q24 7 41 7zM307 1556v-1556h-149v1556h149z" />
    <glyph glyph-name="Ldot" unicode="&#x13f;" horiz-adv-x="1116" 
d="M334 1505v-1364h753v-141h-909v1505h156zM739 770q47 0 79 -32t32 -79q0 -46 -32 -77t-79 -31q-46 0 -77 31t-31 77q0 47 31 79t77 32z" />
    <glyph glyph-name="ldot" unicode="&#x140;" horiz-adv-x="815" 
d="M307 1556v-1556h-149v1556h149zM649 635q47 0 79 -32t32 -79q0 -46 -32 -77t-79 -31t-77.5 31t-30.5 77q0 48 30.5 79.5t77.5 31.5z" />
    <glyph glyph-name="Lslash" unicode="&#x141;" horiz-adv-x="1165" 
d="M381 141h756v-141h-912v514l-176 -98l-49 112l225 125v852h156v-766l227 127l49 -110l-276 -156v-459z" />
    <glyph glyph-name="lslash" unicode="&#x142;" horiz-adv-x="524" 
d="M547 799l-215 -117v-682h-150v602l-157 -86l-48 98l205 111v831h150v-751l170 92z" />
    <glyph glyph-name="Nacute" unicode="&#x143;" horiz-adv-x="1484" 
d="M1110 1833l-303 -231h-172l276 231h199zM186 1532l967 -1161v1134h156v-1532h-9l-966 1164v-1137h-156v1532h8z" />
    <glyph glyph-name="nacute" unicode="&#x144;" horiz-adv-x="1165" 
d="M963 1436l-316 -252h-160l283 252h193zM637 1044q182 0 284.5 -117.5t102.5 -314.5v-612h-147v604q0 133 -74.5 215t-198.5 82q-94 0 -166 -46.5t-137 -131.5v-723h-147v1024h135l6 -137q53 66 139.5 111.5t202.5 45.5z" />
    <glyph glyph-name="Ncommaaccent" unicode="&#x145;" horiz-adv-x="1484" 
d="M186 1532l967 -1161v1134h156v-1532h-9l-966 1164v-1137h-156v1532h8zM754 -111q53 0 85.5 -28t32.5 -74q0 -50 -26 -80l-123 -176h-8v352q18 6 39 6z" />
    <glyph glyph-name="ncommaaccent" unicode="&#x146;" horiz-adv-x="1165" 
d="M637 1044q182 0 284.5 -117.5t102.5 -314.5v-612h-147v604q0 133 -74.5 215t-198.5 82q-94 0 -166 -46.5t-137 -131.5v-723h-147v1024h135l6 -137q53 66 139.5 111.5t202.5 45.5zM582 -111q53 0 85.5 -28t32.5 -74q0 -50 -26 -80l-123 -176h-8v352q18 6 39 6z" />
    <glyph glyph-name="Ncaron" unicode="&#x147;" horiz-adv-x="1484" 
d="M1061 1870l-309 -289l-310 289h146l164 -146l161 146h148zM186 1532l967 -1161v1134h156v-1532h-9l-966 1164v-1137h-156v1532h8z" />
    <glyph glyph-name="ncaron" unicode="&#x148;" horiz-adv-x="1165" 
d="M891 1489l-303 -320l-303 320h143l160 -152l160 152h143zM637 1044q182 0 284.5 -117.5t102.5 -314.5v-612h-147v604q0 133 -74.5 215t-198.5 82q-94 0 -166 -46.5t-137 -131.5v-723h-147v1024h135l6 -137q53 66 139.5 111.5t202.5 45.5z" />
    <glyph glyph-name="Eng" unicode="&#x14a;" horiz-adv-x="1484" 
d="M1153 1505h156v-1532v-18q0 -206 -120 -326.5t-321 -120.5v154q133 0 209 78.5t76 224.5v187l-819 985v-1137h-156v1532h8l967 -1161v1134z" />
    <glyph glyph-name="eng" unicode="&#x14b;" horiz-adv-x="1165" 
d="M637 1044q182 0 284.5 -117.5t102.5 -314.5v-759q0 -148 -99.5 -246.5t-250.5 -98.5v140q90 0 146.5 53.5t56.5 140.5v762q0 133 -74.5 215t-198.5 82q-94 0 -166 -46.5t-137 -131.5v-723h-147v1024h135l6 -137q53 66 139.5 111.5t202.5 45.5z" />
    <glyph glyph-name="Omacron" unicode="&#x14c;" horiz-adv-x="1660" 
d="M1087 1767v-108h-516v108h516zM829 1532q160 0 300 -59t239 -162t156 -248t57 -311q0 -222 -97 -400.5t-269 -278.5t-386 -100q-161 0 -300.5 58.5t-238 161.5t-154.5 247.5t-56 311.5q0 222 95.5 400t267 279t386.5 101zM829 1386q-171 0 -306.5 -81.5t-211 -226.5
t-75.5 -326t75.5 -325.5t211 -226t306.5 -81.5t306.5 81t211.5 226t76 326t-76 326t-211.5 226.5t-306.5 81.5z" />
    <glyph glyph-name="omacron" unicode="&#x14d;" horiz-adv-x="1183" 
d="M850 1335v-108h-516v108h516zM592 1044q224 0 371 -152t147 -382t-147 -380t-371 -150q-225 0 -370.5 149.5t-145.5 380.5t145.5 382.5t370.5 151.5zM592 909q-159 0 -263 -113.5t-104 -285.5t103.5 -283.5t263.5 -111.5t263 111.5t103 283.5t-103.5 285.5t-262.5 113.5z
" />
    <glyph glyph-name="Obreve" unicode="&#x14e;" horiz-adv-x="1660" 
d="M1126 1905q0 -122 -85 -203.5t-212 -81.5t-213 81.5t-86 203.5h111q0 -73 53 -123.5t135 -50.5q81 0 134 50.5t53 123.5h110zM829 1532q160 0 300 -59t239 -162t156 -248t57 -311q0 -222 -97 -400.5t-269 -278.5t-386 -100q-161 0 -300.5 58.5t-238 161.5t-154.5 247.5
t-56 311.5q0 222 95.5 400t267 279t386.5 101zM829 1386q-171 0 -306.5 -81.5t-211 -226.5t-75.5 -326t75.5 -325.5t211 -226t306.5 -81.5t306.5 81t211.5 226t76 326t-76 326t-211.5 226.5t-306.5 81.5z" />
    <glyph glyph-name="obreve" unicode="&#x14f;" horiz-adv-x="1183" 
d="M889 1470q0 -124 -84.5 -207t-212.5 -83t-213.5 83t-85.5 207h113q0 -77 52 -126.5t134 -49.5q80 0 132 50t52 126h113zM592 1044q224 0 371 -152t147 -382t-147 -380t-371 -150q-225 0 -370.5 149.5t-145.5 380.5t145.5 382.5t370.5 151.5zM592 909q-159 0 -263 -113.5
t-104 -285.5t103.5 -283.5t263.5 -111.5t263 111.5t103 283.5t-103.5 285.5t-262.5 113.5z" />
    <glyph glyph-name="Ohungarumlaut" unicode="&#x150;" horiz-adv-x="1660" 
d="M942 1868l-219 -240h-129l207 240h141zM1255 1868l-219 -240h-129l207 240h141zM829 1532q160 0 300 -59t239 -162t156 -248t57 -311q0 -222 -97 -400.5t-269 -278.5t-386 -100q-161 0 -300.5 58.5t-238 161.5t-154.5 247.5t-56 311.5q0 222 95.5 400t267 279t386.5 101z
M829 1386q-171 0 -306.5 -81.5t-211 -226.5t-75.5 -326t75.5 -325.5t211 -226t306.5 -81.5t306.5 81t211.5 226t76 326t-76 326t-211.5 226.5t-306.5 81.5z" />
    <glyph glyph-name="ohungarumlaut" unicode="&#x151;" horiz-adv-x="1183" 
d="M705 1458l-230 -289h-133l221 289h142zM1026 1458l-229 -289h-133l221 289h141zM592 1044q224 0 371 -152t147 -382t-147 -380t-371 -150q-225 0 -370.5 149.5t-145.5 380.5t145.5 382.5t370.5 151.5zM592 909q-159 0 -263 -113.5t-104 -285.5t103.5 -283.5t263.5 -111.5
t263 111.5t103 283.5t-103.5 285.5t-262.5 113.5z" />
    <glyph glyph-name="OE" unicode="&#x152;" horiz-adv-x="2433" 
d="M1579 145h772v-145h-928v287q-97 -147 -251 -230.5t-343 -83.5q-161 0 -300.5 58.5t-238 161.5t-154.5 247.5t-56 311.5q0 222 95.5 400t267 279t386.5 101q189 0 343 -83t251 -232v288h912v-145h-756v-526h668v-142h-668v-547zM829 119q171 0 306.5 81t211.5 226t76 326
t-76 326t-211.5 226.5t-306.5 81.5t-306.5 -81.5t-211 -226.5t-75.5 -326t75.5 -325.5t211 -226t306.5 -81.5z" />
    <glyph glyph-name="oe" unicode="&#x153;" horiz-adv-x="1972" 
d="M1903 520v-61h-795q8 -163 101.5 -255.5t258.5 -92.5q106 0 186.5 41t125.5 104l102 -82q-151 -194 -414 -194q-149 0 -261 62.5t-177 174.5q-67 -111 -181.5 -174t-256.5 -63q-225 0 -370.5 149.5t-145.5 380.5t145.5 382.5t370.5 151.5q140 0 254.5 -64.5t183.5 -176.5
q63 113 170 177t242 64q145 0 251 -71t158 -188t52 -265zM1108 584h647q-5 149 -88 239t-225 90q-144 0 -234.5 -90t-99.5 -239zM592 115q160 0 263 111.5t103 283.5t-103.5 285.5t-262.5 113.5t-263 -113.5t-104 -285.5t103.5 -283.5t263.5 -111.5z" />
    <glyph glyph-name="Racute" unicode="&#x154;" horiz-adv-x="1259" 
d="M975 1833l-303 -231h-172l276 231h199zM1223 0h-185l-370 594q-7 0 -21.5 -1t-21.5 -1h-297v-592h-156v1505h453q154 0 272 -51.5t187 -156t69 -248.5q0 -163 -86 -272.5t-236 -155.5zM612 733q179 0 281 81t102 235t-103 235.5t-280 81.5h-284v-633h284z" />
    <glyph glyph-name="racute" unicode="&#x155;" horiz-adv-x="632" 
d="M770 1436l-315 -252h-160l283 252h192zM604 1044v-149h-14q-92 0 -161 -46.5t-128 -135.5v-713h-147v1024h135l8 -145q44 70 121.5 117.5t185.5 47.5z" />
    <glyph glyph-name="Rcommaaccent" unicode="&#x156;" horiz-adv-x="1259" 
d="M831 621l392 -621h-185l-370 594q-7 0 -21.5 -1t-21.5 -1h-297v-592h-156v1505h453q154 0 272 -51.5t187 -156t69 -248.5q0 -163 -86 -272.5t-236 -155.5zM612 733q179 0 281 81t102 235t-103 235.5t-280 81.5h-284v-633h284zM631 -111q53 0 86 -28t33 -74q0 -49 -27 -80
l-123 -176h-8v352q18 6 39 6z" />
    <glyph glyph-name="rcommaaccent" unicode="&#x157;" horiz-adv-x="632" 
d="M604 1044v-149h-14q-92 0 -161 -46.5t-128 -135.5v-713h-147v1024h135l8 -145q44 70 121.5 117.5t185.5 47.5zM197 -111q53 0 85.5 -28t32.5 -74q0 -50 -26 -80l-123 -176h-8v352q18 6 39 6z" />
    <glyph glyph-name="Rcaron" unicode="&#x158;" horiz-adv-x="1259" 
d="M926 1870l-310 -289l-309 289h146l163 -146l162 146h148zM1223 0h-185l-370 594q-7 0 -21.5 -1t-21.5 -1h-297v-592h-156v1505h453q154 0 272 -51.5t187 -156t69 -248.5q0 -163 -86 -272.5t-236 -155.5zM612 733q179 0 281 81t102 235t-103 235.5t-280 81.5h-284v-633
h284z" />
    <glyph glyph-name="rcaron" unicode="&#x159;" horiz-adv-x="632" 
d="M698 1489l-303 -320l-303 320h144l159 -152l160 152h143zM604 1044v-149h-14q-92 0 -161 -46.5t-128 -135.5v-713h-147v1024h135l8 -145q44 70 121.5 117.5t185.5 47.5z" />
    <glyph glyph-name="Sacute" unicode="&#x15a;" horiz-adv-x="1191" 
d="M950 1853l-303 -231h-172l277 231h198zM586 1532q264 0 481 -162l-78 -133q-82 68 -188 110t-217 42q-143 0 -233.5 -69t-90.5 -204q0 -116 77.5 -173.5t283.5 -102.5q268 -59 381.5 -154.5t113.5 -267.5q0 -199 -141 -322t-377 -123q-317 0 -535 189l91 129
q82 -80 202.5 -127t245.5 -47q159 0 259 76t100 213q0 114 -89 179.5t-294 108.5q-264 58 -369 150.5t-105 263.5q0 194 133 309t349 115z" />
    <glyph glyph-name="sacute" unicode="&#x15b;" horiz-adv-x="913" 
d="M831 1436l-315 -252h-160l283 252h192zM467 1044q193 0 342 -102l-64 -119q-129 88 -282 88q-98 0 -156.5 -37.5t-58.5 -115.5q0 -69 52 -103t187 -65q183 -43 267 -113.5t84 -185.5q0 -141 -106 -226t-283 -85q-229 0 -381 120l69 121q133 -110 312 -110q108 0 173.5 43
t65.5 125q0 71 -56 109t-188 67q-186 43 -265 108t-79 182q0 140 99.5 219.5t267.5 79.5z" />
    <glyph glyph-name="Scircumflex" unicode="&#x15c;" horiz-adv-x="1191" 
d="M586 1909l309 -289h-147l-162 147l-164 -147h-146zM586 1532q264 0 481 -162l-78 -133q-82 68 -188 110t-217 42q-143 0 -233.5 -69t-90.5 -204q0 -116 77.5 -173.5t283.5 -102.5q268 -59 381.5 -154.5t113.5 -267.5q0 -199 -141 -322t-377 -123q-317 0 -535 189l91 129
q82 -80 202.5 -127t245.5 -47q159 0 259 76t100 213q0 114 -89 179.5t-294 108.5q-264 58 -369 150.5t-105 263.5q0 194 133 309t349 115z" />
    <glyph glyph-name="scircumflex" unicode="&#x15d;" horiz-adv-x="913" 
d="M457 1501l303 -319h-144l-159 151l-160 -151h-143zM467 1044q193 0 342 -102l-64 -119q-129 88 -282 88q-98 0 -156.5 -37.5t-58.5 -115.5q0 -69 52 -103t187 -65q183 -43 267 -113.5t84 -185.5q0 -141 -106 -226t-283 -85q-229 0 -381 120l69 121q133 -110 312 -110
q108 0 173.5 43t65.5 125q0 71 -56 109t-188 67q-186 43 -265 108t-79 182q0 140 99.5 219.5t267.5 79.5z" />
    <glyph glyph-name="Scedilla" unicode="&#x15e;" horiz-adv-x="1191" 
d="M1116 418q0 -190 -129 -311.5t-346 -131.5l-20 -81q79 -7 135.5 -52.5t56.5 -128.5q0 -85 -59 -134.5t-150 -49.5q-121 0 -198 80l63 74q60 -60 131 -60q105 0 105 90q0 79 -95 92q-48 8 -98 -2l-6 9l39 163q-281 14 -482 187l91 129q82 -80 202.5 -127t245.5 -47
q159 0 259 76t100 213q0 114 -89 179.5t-294 108.5q-264 58 -369 150.5t-105 263.5q0 194 133 309t349 115q264 0 481 -162l-78 -133q-82 68 -188 110t-217 42q-143 0 -233.5 -69t-90.5 -204q0 -116 77.5 -173.5t283.5 -102.5q268 -59 381.5 -154.5t113.5 -267.5z" />
    <glyph glyph-name="scedilla" unicode="&#x15f;" horiz-adv-x="913" 
d="M838 291q0 -131 -92.5 -215t-249.5 -94l-23 -88q79 -7 136 -52.5t57 -128.5q0 -85 -59 -134.5t-150 -49.5q-122 0 -199 80l64 74q60 -60 131 -60q104 0 104 90q0 79 -94 92q-48 8 -98 -2l-7 9l41 170q-197 12 -331 118l69 121q133 -110 312 -110q108 0 173.5 43t65.5 125
q0 71 -56 109t-188 67q-186 43 -265 108t-79 182q0 140 99.5 219.5t267.5 79.5q193 0 342 -102l-64 -119q-129 88 -282 88q-98 0 -156.5 -37.5t-58.5 -115.5q0 -69 52 -103t187 -65q183 -43 267 -113.5t84 -185.5z" />
    <glyph glyph-name="Scaron" unicode="&#x160;" horiz-adv-x="1191" 
d="M901 1890l-309 -288l-309 288h145l164 -145l162 145h147zM586 1532q264 0 481 -162l-78 -133q-82 68 -188 110t-217 42q-143 0 -233.5 -69t-90.5 -204q0 -116 77.5 -173.5t283.5 -102.5q268 -59 381.5 -154.5t113.5 -267.5q0 -199 -141 -322t-377 -123q-317 0 -535 189
l91 129q82 -80 202.5 -127t245.5 -47q159 0 259 76t100 213q0 114 -89 179.5t-294 108.5q-264 58 -369 150.5t-105 263.5q0 194 133 309t349 115z" />
    <glyph glyph-name="scaron" unicode="&#x161;" horiz-adv-x="913" 
d="M760 1489l-303 -320l-303 320h143l160 -152l159 152h144zM467 1044q193 0 342 -102l-64 -119q-129 88 -282 88q-98 0 -156.5 -37.5t-58.5 -115.5q0 -69 52 -103t187 -65q183 -43 267 -113.5t84 -185.5q0 -141 -106 -226t-283 -85q-229 0 -381 120l69 121
q133 -110 312 -110q108 0 173.5 43t65.5 125q0 71 -56 109t-188 67q-186 43 -265 108t-79 182q0 140 99.5 219.5t267.5 79.5z" />
    <glyph glyph-name="Tcedilla" unicode="&#x162;" horiz-adv-x="1306" 
d="M731 0h-33l-26 -106q79 -7 135.5 -52.5t56.5 -128.5q0 -85 -59 -134.5t-150 -49.5q-121 0 -198 80l63 74q60 -60 131 -60q105 0 105 90q0 79 -94 92q-48 8 -99 -2l-6 9l45 188h-27v1364h-546v141h1249v-141h-547v-1364z" />
    <glyph glyph-name="tcedilla" unicode="&#x163;" horiz-adv-x="788" 
d="M494 -106q79 -7 135.5 -52.5t56.5 -128.5q0 -85 -59 -134.5t-150 -49.5q-121 0 -198 80l63 74q60 -60 131 -60q105 0 105 90q0 79 -95 92q-48 8 -98 -2l-6 9l47 192q-91 33 -140.5 114t-49.5 204v571h-209v131h209v348h147v-348h338v-131h-338v-571q0 -97 52 -151
t138 -54q88 0 160 37l45 -123q-79 -51 -211 -51q-35 0 -51 2z" />
    <glyph glyph-name="Tcaron" unicode="&#x164;" horiz-adv-x="1306" 
d="M967 1870l-310 -289l-309 289h146l163 -146l162 146h148zM1278 1505v-141h-547v-1364h-156v1364h-546v141h1249z" />
    <glyph glyph-name="tcaron" unicode="&#x165;" horiz-adv-x="788" 
d="M573 1559q49 0 81 -33t32 -84q0 -46 -22 -88l-121 -211h-8v409q21 7 38 7zM383 1372v-348h338v-131h-338v-571q0 -97 52 -151t138 -54q88 0 160 37l45 -123q-79 -51 -211 -51q-154 0 -242.5 88t-88.5 254v571h-209v131h209v348h147z" />
    <glyph glyph-name="Tbar" unicode="&#x166;" horiz-adv-x="1306" 
d="M1278 1364h-547v-578h316v-110h-316v-676h-156v676h-315v110h315v578h-546v141h1249v-141z" />
    <glyph glyph-name="tbar" unicode="&#x167;" horiz-adv-x="788" 
d="M733 154l45 -123q-79 -51 -211 -51q-154 0 -242.5 88t-88.5 254v231h-209v111h209v249h-209v111h209v348h147v-348h338v-111h-338v-249h338v-111h-338v-231q0 -97 52 -151t138 -54q88 0 160 37z" />
    <glyph glyph-name="Utilde" unicode="&#x168;" horiz-adv-x="1429" 
d="M586 1878q44 0 79 -17.5t57 -43t41 -51t41.5 -43t49.5 -17.5q80 0 80 158h104q0 -131 -53 -199t-139 -68q-38 0 -68.5 12.5t-49 32t-37 41.5t-32 41.5t-33.5 32t-44 12.5q-82 0 -82 -157h-105q0 133 53 199.5t138 66.5zM1274 1505v-981q0 -256 -145 -403.5t-412 -147.5
q-271 0 -415 147t-144 404v981h155v-973q0 -193 104 -303t300 -110q192 0 296.5 110.5t104.5 302.5v973h156z" />
    <glyph glyph-name="utilde" unicode="&#x169;" 
d="M449 1452q44 0 79 -17.5t57 -43t41 -51t41.5 -43t49.5 -17.5q80 0 80 158h104q0 -131 -53 -199t-139 -68q-45 0 -79.5 17.5t-55 43t-39 51t-41 43t-50.5 17.5q-82 0 -82 -157h-104q0 133 53 199.5t138 66.5zM991 1024v-1024h-137l-4 135q-131 -155 -344 -155
q-171 0 -268 116.5t-97 309.5v618h150v-612q0 -130 67.5 -210.5t180.5 -80.5q69 0 126.5 24.5t96 60.5t80.5 93v725h149z" />
    <glyph glyph-name="Umacron" unicode="&#x16a;" horiz-adv-x="1429" 
d="M975 1747v-109h-516v109h516zM1274 1505v-981q0 -256 -145 -403.5t-412 -147.5q-271 0 -415 147t-144 404v981h155v-973q0 -193 104 -303t300 -110q192 0 296.5 110.5t104.5 302.5v973h156z" />
    <glyph glyph-name="umacron" unicode="&#x16b;" 
d="M838 1335v-108h-516v108h516zM991 1024v-1024h-137l-4 135q-131 -155 -344 -155q-171 0 -268 116.5t-97 309.5v618h150v-612q0 -130 67.5 -210.5t180.5 -80.5q69 0 126.5 24.5t96 60.5t80.5 93v725h149z" />
    <glyph glyph-name="Ubreve" unicode="&#x16c;" horiz-adv-x="1429" 
d="M1014 1884q0 -122 -85 -203.5t-212 -81.5t-213 81.5t-86 203.5h110q0 -73 53.5 -123.5t135.5 -50.5q81 0 133.5 50.5t52.5 123.5h111zM1274 1505v-981q0 -256 -145 -403.5t-412 -147.5q-271 0 -415 147t-144 404v981h155v-973q0 -193 104 -303t300 -110
q192 0 296.5 110.5t104.5 302.5v973h156z" />
    <glyph glyph-name="ubreve" unicode="&#x16d;" 
d="M877 1470q0 -124 -84.5 -207t-212.5 -83t-213.5 83t-85.5 207h112q0 -77 52.5 -126.5t134.5 -49.5q80 0 132 50t52 126h113zM991 1024v-1024h-137l-4 135q-131 -155 -344 -155q-171 0 -268 116.5t-97 309.5v618h150v-612q0 -130 67.5 -210.5t180.5 -80.5q69 0 126.5 24.5
t96 60.5t80.5 93v725h149z" />
    <glyph glyph-name="Uring" unicode="&#x16e;" horiz-adv-x="1429" 
d="M717 2015q89 0 150 -60t61 -149q0 -90 -60.5 -148.5t-150.5 -58.5q-91 0 -151 58.5t-60 148.5q0 89 60 149t151 60zM717 1925q-50 0 -83.5 -34t-33.5 -85q0 -50 33.5 -82t83.5 -32t83.5 32t33.5 82q0 51 -33.5 85t-83.5 34zM1274 1505v-981q0 -256 -145 -403.5
t-412 -147.5q-271 0 -415 147t-144 404v981h155v-973q0 -193 104 -303t300 -110q192 0 296.5 110.5t104.5 302.5v973h156z" />
    <glyph glyph-name="uring" unicode="&#x16f;" 
d="M580 1589q89 0 150 -61t61 -150t-60.5 -148t-150.5 -59q-91 0 -151 59t-60 148q0 90 60.5 150.5t150.5 60.5zM580 1497q-50 0 -83.5 -34t-33.5 -85q0 -50 33.5 -82t83.5 -32t83 32t33 82q0 51 -33 85t-83 34zM991 1024v-1024h-137l-4 135q-131 -155 -344 -155
q-171 0 -268 116.5t-97 309.5v618h150v-612q0 -130 67.5 -210.5t180.5 -80.5q69 0 126.5 24.5t96 60.5t80.5 93v725h149z" />
    <glyph glyph-name="Uhungarumlaut" unicode="&#x170;" horiz-adv-x="1429" 
d="M829 1847l-219 -239h-129l207 239h141zM1143 1847l-219 -239h-129l206 239h142zM1274 1505v-981q0 -256 -145 -403.5t-412 -147.5q-271 0 -415 147t-144 404v981h155v-973q0 -193 104 -303t300 -110q192 0 296.5 110.5t104.5 302.5v973h156z" />
    <glyph glyph-name="uhungarumlaut" unicode="&#x171;" 
d="M692 1458l-229 -289h-133l221 289h141zM1014 1458l-230 -289h-133l221 289h142zM991 1024v-1024h-137l-4 135q-131 -155 -344 -155q-171 0 -268 116.5t-97 309.5v618h150v-612q0 -130 67.5 -210.5t180.5 -80.5q69 0 126.5 24.5t96 60.5t80.5 93v725h149z" />
    <glyph glyph-name="Uogonek" unicode="&#x172;" horiz-adv-x="1429" 
d="M1118 1505h156v-981q0 -206 -96 -344.5t-277 -183.5q-117 -76 -117 -207q0 -71 44 -110t112 -39q48 0 72 12l30 -90q-46 -19 -104 -19q-115 0 -187.5 65.5t-72.5 180.5q0 107 61 184h-22q-271 0 -415 147t-144 404v981h155v-973q0 -193 104 -303t300 -110
q192 0 296.5 110.5t104.5 302.5v973z" />
    <glyph glyph-name="uogonek" unicode="&#x173;" 
d="M1051 -362l30 -91q-43 -18 -104 -18q-115 0 -187.5 65.5t-72.5 180.5q0 156 137 258l-4 102q-131 -155 -344 -155q-171 0 -268 116.5t-97 309.5v618h150v-612q0 -130 67.5 -210.5t180.5 -80.5q69 0 126.5 24.5t96 60.5t80.5 93v725h149v-1024h-18q-150 -78 -150 -225
q0 -71 44.5 -110.5t111.5 -39.5q46 0 72 13z" />
    <glyph glyph-name="Wcircumflex" unicode="&#x174;" horiz-adv-x="1984" 
d="M993 1888l310 -289h-148l-162 148l-164 -148h-145zM1952 1505l-566 -1530h-8l-385 1110l-387 -1110h-8l-563 1530h172l395 -1114l387 1114h8l387 -1114l394 1114h174z" />
    <glyph glyph-name="wcircumflex" unicode="&#x175;" horiz-adv-x="1544" 
d="M772 1501l303 -319h-143l-160 151l-160 -151h-143zM1524 1024l-437 -1044h-8l-307 712l-307 -712h-8l-437 1044h154l293 -723l301 723h8l301 -723l293 723h154z" />
    <glyph glyph-name="Ycircumflex" unicode="&#x176;" horiz-adv-x="1312" 
d="M657 1888l310 -289h-148l-162 148l-163 -148h-146zM1296 1503l-563 -856v-647h-155v645l-562 858h185l454 -700l457 700h184z" />
    <glyph glyph-name="ycircumflex" unicode="&#x177;" horiz-adv-x="1079" 
d="M528 1501l303 -319h-143l-160 151l-159 -151h-144zM1053 1024l-723 -1495h-170l299 590l-432 905h155l357 -758l358 758h156z" />
    <glyph glyph-name="Ydieresis" unicode="&#x178;" horiz-adv-x="1312" 
d="M489 1804q41 0 69 -27t28 -67t-28 -66t-69 -26q-40 0 -66 26t-26 66t26 67t66 27zM819 1804q40 0 67 -27t27 -67t-27 -66t-67 -26t-67 26t-27 66t27 67t67 27zM1296 1503l-563 -856v-647h-155v645l-562 858h185l454 -700l457 700h184z" />
    <glyph glyph-name="Zacute" unicode="&#x179;" horiz-adv-x="1173" 
d="M952 1833l-303 -231h-172l277 231h198zM1092 1505v-8l-785 -1354h809v-143h-1059v8l791 1354h-756v143h1000z" />
    <glyph glyph-name="zacute" unicode="&#x17a;" horiz-adv-x="901" 
d="M823 1436l-315 -252h-160l283 252h192zM850 1024v-8l-565 -885h565v-131h-801v8l563 885h-532v131h770z" />
    <glyph glyph-name="Zdotaccent" unicode="&#x17b;" horiz-adv-x="1173" 
d="M588 1802q41 0 69.5 -28.5t28.5 -71.5q0 -41 -28.5 -68.5t-69.5 -27.5q-42 0 -70.5 27.5t-28.5 68.5q0 42 28.5 71t70.5 29zM1092 1505v-8l-785 -1354h809v-143h-1059v8l791 1354h-756v143h1000z" />
    <glyph glyph-name="zdotaccent" unicode="&#x17c;" horiz-adv-x="901" 
d="M449 1436q42 0 70 -29t28 -72q0 -41 -27.5 -68.5t-70.5 -27.5q-41 0 -69 27.5t-28 68.5q0 43 28 72t69 29zM850 1024v-8l-565 -885h565v-131h-801v8l563 885h-532v131h770z" />
    <glyph glyph-name="Zcaron" unicode="&#x17d;" horiz-adv-x="1173" 
d="M901 1870l-309 -289l-309 289h145l164 -146l162 146h147zM1092 1505v-8l-785 -1354h809v-143h-1059v8l791 1354h-756v143h1000z" />
    <glyph glyph-name="zcaron" unicode="&#x17e;" horiz-adv-x="901" 
d="M752 1489l-303 -320l-304 320h144l160 -152l159 152h144zM850 1024v-8l-565 -885h565v-131h-801v8l563 885h-532v131h770z" />
    <glyph glyph-name="florin" unicode="&#x192;" horiz-adv-x="819" 
d="M653 1540q133 0 217 -78l-63 -116q-59 59 -148 59q-82 0 -130.5 -57.5t-59.5 -159.5l-16 -164h227l-14 -131h-228l-116 -1055q-15 -146 -105 -238t-229 -92q-131 0 -217 76l63 117q57 -57 148 -57q82 0 130.5 57t59.5 160l113 1032h-156l14 131h158l18 186
q18 146 106 238t228 92z" />
    <glyph glyph-name="Aringacute" unicode="&#x1fa;" horiz-adv-x="1400" 
d="M1106 2175l-318 -254h-159l282 254h195zM743 1444l635 -1444h-166l-151 352h-721l-152 -352h-165l634 1444q-74 14 -121 69t-47 134q0 89 60 148.5t151 59.5t151 -59.5t60 -148.5q0 -79 -47 -134t-121 -69zM584 1647q0 -51 33 -83t83 -32t83.5 32.5t33.5 82.5
q0 49 -33.5 82.5t-83.5 33.5t-83 -33.5t-33 -82.5zM399 492h602l-301 692z" />
    <glyph glyph-name="aringacute" unicode="&#x1fb;" horiz-adv-x="1177" 
d="M973 1843l-303 -231h-172l276 231h199zM594 1542q90 0 150.5 -60.5t60.5 -150.5q0 -89 -60 -148t-151 -59t-151 59t-60 148q0 90 60.5 150.5t150.5 60.5zM594 1450q-50 0 -83.5 -34t-33.5 -85q0 -50 33.5 -82t83.5 -32t83.5 32t33.5 82q0 51 -33.5 85t-83.5 34zM543 1044
q219 0 340 -155l4 135h137v-1024h-137l-4 137q-120 -157 -340 -157q-208 0 -337.5 149.5t-129.5 382.5q0 232 129.5 382t337.5 150zM565 909q-150 0 -245 -111t-95 -286q0 -177 94.5 -287t245.5 -110q107 0 178.5 47.5t130.5 136.5v426q-59 89 -130.5 136.5t-178.5 47.5z
" />
    <glyph glyph-name="AEacute" unicode="&#x1fc;" horiz-adv-x="1783" 
d="M1374 1833l-303 -231h-172l277 231h198zM1686 1505v-145h-877l221 -529h567v-137h-512l230 -549h387v-145h-496l-149 358h-713l-147 -358h-174l645 1505h1018zM700 1225l-305 -740h611z" />
    <glyph glyph-name="aeacute" unicode="&#x1fd;" horiz-adv-x="1923" 
d="M1329 1436l-315 -252h-160l283 252h192zM1389 1044q145 0 251.5 -69t160.5 -187.5t54 -271.5v-57h-806q9 -165 103 -256.5t269 -91.5q107 0 187 40t127 103l100 -84q-153 -190 -414 -190q-142 0 -245 50t-154 136l-6 -166h-129l-4 137q-120 -157 -340 -157
q-208 0 -337.5 149.5t-129.5 382.5q0 232 129.5 382t337.5 150q219 0 340 -155l4 135h131l6 -170q127 190 365 190zM1382 913q-138 0 -230.5 -87t-104.5 -242h661q-6 148 -92 238.5t-234 90.5zM565 909q-150 0 -245 -111t-95 -286q0 -177 94.5 -287t245.5 -110
q107 0 178.5 47.5t130.5 136.5v426q-59 89 -130.5 136.5t-178.5 47.5z" />
    <glyph glyph-name="Oslashacute" unicode="&#x1fe;" horiz-adv-x="1660" 
d="M1194 1853l-303 -231h-172l276 231h199zM1255 1405q153 -103 239.5 -273.5t86.5 -379.5q0 -222 -97 -400.5t-269 -278.5t-386 -100q-172 0 -319 66l-111 -203h-141l143 264q-151 103 -236 272.5t-85 379.5q0 222 95.5 400t267 279t386.5 101q168 0 320 -68l111 205h139z
M236 752q0 -165 63 -300t176 -219l602 1102q-114 51 -248 51q-171 0 -306.5 -81.5t-211 -226.5t-75.5 -326zM829 119q171 0 306.5 81t211.5 226t76 326q0 165 -63.5 300.5t-177.5 221.5l-600 -1104q114 -51 247 -51z" />
    <glyph glyph-name="oslashacute" unicode="&#x1ff;" horiz-adv-x="1183" 
d="M973 1436l-316 -252h-159l282 252h193zM889 954q103 -70 162 -186.5t59 -257.5q0 -230 -147 -380t-371 -150q-116 0 -209 40l-88 -163h-111l113 209q-104 70 -162.5 185.5t-58.5 258.5q0 231 145.5 382.5t370.5 151.5q113 0 213 -43l90 166h109zM219 510
q0 -102 37.5 -187t105.5 -139l379 701q-68 30 -149 30q-162 0 -267.5 -115t-105.5 -290zM592 106q161 0 267 114.5t106 289.5q0 100 -37.5 184.5t-104.5 139.5l-377 -699q69 -29 146 -29z" />
    <glyph glyph-name="Scommaaccent" unicode="&#x218;" horiz-adv-x="1191" 
d="M586 1532q264 0 481 -162l-78 -133q-82 68 -188 110t-217 42q-143 0 -233.5 -69t-90.5 -204q0 -116 77.5 -173.5t283.5 -102.5q268 -59 381.5 -154.5t113.5 -267.5q0 -199 -141 -322t-377 -123q-317 0 -535 189l91 129q82 -80 202.5 -127t245.5 -47q159 0 259 76t100 213
q0 114 -89 179.5t-294 108.5q-264 58 -369 150.5t-105 263.5q0 194 133 309t349 115zM580 -111q53 0 85.5 -28t32.5 -74q0 -50 -26 -80l-123 -176h-8v352q18 6 39 6z" />
    <glyph glyph-name="scommaaccent" unicode="&#x219;" horiz-adv-x="913" 
d="M467 1044q193 0 342 -102l-64 -119q-129 88 -282 88q-98 0 -156.5 -37.5t-58.5 -115.5q0 -69 52 -103t187 -65q183 -43 267 -113.5t84 -185.5q0 -141 -106 -226t-283 -85q-229 0 -381 120l69 121q133 -110 312 -110q108 0 173.5 43t65.5 125q0 71 -56 109t-188 67
q-186 43 -265 108t-79 182q0 140 99.5 219.5t267.5 79.5zM418 -111q53 0 86 -28t33 -74q0 -49 -27 -80l-123 -176h-8v352q18 6 39 6z" />
    <glyph glyph-name="Tcommaaccent" unicode="&#x21a;" horiz-adv-x="1306" 
d="M1278 1505v-141h-547v-1364h-156v1364h-546v141h1249zM618 -111q53 0 86 -28t33 -74q0 -50 -26 -80l-123 -176h-8v352q18 6 38 6z" />
    <glyph glyph-name="tcommaaccent" unicode="&#x21b;" horiz-adv-x="788" 
d="M383 1372v-348h338v-131h-338v-571q0 -97 52 -151t138 -54q88 0 160 37l45 -123q-79 -51 -211 -51q-154 0 -242.5 88t-88.5 254v571h-209v131h209v348h147zM424 -111q53 0 86 -28t33 -74q0 -49 -27 -80l-123 -176h-8v352q18 6 39 6z" />
    <glyph glyph-name="circumflex" unicode="&#x2c6;" horiz-adv-x="696" 
d="M348 1501l303 -319h-143l-160 151l-160 -151h-143z" />
    <glyph glyph-name="caron" unicode="&#x2c7;" horiz-adv-x="696" 
d="M651 1489l-303 -320l-303 320h143l160 -152l160 152h143z" />
    <glyph glyph-name="breve" unicode="&#x2d8;" horiz-adv-x="686" 
d="M641 1470q0 -124 -84.5 -207t-212.5 -83t-213.5 83t-85.5 207h113q0 -77 52 -126.5t134 -49.5q80 0 132 50t52 126h113z" />
    <glyph glyph-name="dotaccent" unicode="&#x2d9;" horiz-adv-x="303" 
d="M152 1436q42 0 70 -29t28 -72q0 -41 -27.5 -68.5t-70.5 -27.5q-41 0 -69 27.5t-28 68.5q0 43 28 72t69 29z" />
    <glyph glyph-name="ring" unicode="&#x2da;" horiz-adv-x="512" 
d="M256 1589q89 0 150 -61t61 -150t-60.5 -148t-150.5 -59q-91 0 -151 59t-60 148q0 90 60.5 150.5t150.5 60.5zM256 1497q-50 0 -83.5 -34t-33.5 -85q0 -50 33.5 -82t83.5 -32t83.5 32t33.5 82q0 51 -33.5 85t-83.5 34z" />
    <glyph glyph-name="ogonek" unicode="&#x2db;" horiz-adv-x="452" 
d="M223 82l39 -82q-149 -78 -149 -225q0 -71 44 -110.5t111 -39.5q46 0 72 13l31 -91q-43 -18 -105 -18q-115 0 -187.5 65.5t-72.5 180.5q0 107 57 179.5t160 127.5z" />
    <glyph glyph-name="tilde" unicode="&#x2dc;" horiz-adv-x="733" 
d="M236 1452q44 0 79 -17.5t57 -43t41 -51t41.5 -43t49.5 -17.5q80 0 80 158h104q0 -131 -53 -199t-139 -68q-45 0 -79.5 17.5t-55 43t-39 51t-41 43t-50.5 17.5q-81 0 -81 -157h-105q0 133 53 199.5t138 66.5z" />
    <glyph glyph-name="hungarumlaut" unicode="&#x2dd;" horiz-adv-x="757" 
d="M479 1458l-229 -289h-133l221 289h141zM801 1458l-230 -289h-133l221 289h142z" />
    <glyph glyph-name="uni03A9" unicode="&#x3a9;" horiz-adv-x="1757" 
d="M889 1534q151 0 278.5 -53.5t215 -147t136 -223t48.5 -279.5q0 -98 -20.5 -189t-51 -158.5t-76.5 -131.5t-86 -106t-90 -86h440v-160h-682v152q184 123 293 292t109 381q0 243 -138 396t-376 153q-237 0 -374.5 -153t-137.5 -396q0 -212 108.5 -381t292.5 -292v-152h-680
v160h439q-50 44 -90 86t-86 106t-76.5 131.5t-51 158.5t-20.5 189q0 200 83.5 360t238.5 251.5t354 91.5z" />
    <glyph glyph-name="pi" unicode="&#x3c0;" horiz-adv-x="1413" 
d="M1266 1180l110 -68q-23 -57 -47.5 -94.5t-63 -67.5t-94 -43.5t-133.5 -13.5h-34l-78 -592q-11 -91 8.5 -130.5t81.5 -39.5q86 0 153 57l56 -102q-61 -46 -119 -69t-141 -23q-118 0 -155.5 70t-18.5 206l79 623h-270l-74 -539q-27 -202 -92 -354h-151q84 174 110 379
l72 514h-68q-92 0 -156.5 -35.5t-125.5 -99.5l-72 102q47 45 82 71.5t83.5 50.5t109 34t141.5 10h510q74 0 122 8t81 29t52 46t42 71z" />
    <glyph glyph-name="Wgrave" unicode="&#x1e80;" horiz-adv-x="1984" 
d="M813 1833l277 -231h-172l-306 231h201zM1952 1505l-566 -1530h-8l-385 1110l-387 -1110h-8l-563 1530h172l395 -1114l387 1114h8l387 -1114l394 1114h174z" />
    <glyph glyph-name="wgrave" unicode="&#x1e81;" horiz-adv-x="1544" 
d="M586 1436l282 -252h-159l-318 252h195zM1524 1024l-437 -1044h-8l-307 712l-307 -712h-8l-437 1044h154l293 -723l301 723h8l301 -723l293 723h154z" />
    <glyph glyph-name="Wacute" unicode="&#x1e82;" horiz-adv-x="1984" 
d="M1358 1833l-303 -231h-172l276 231h199zM1952 1505l-566 -1530h-8l-385 1110l-387 -1110h-8l-563 1530h172l395 -1114l387 1114h8l387 -1114l394 1114h174z" />
    <glyph glyph-name="wacute" unicode="&#x1e83;" horiz-adv-x="1544" 
d="M1147 1436l-316 -252h-159l282 252h193zM1524 1024l-437 -1044h-8l-307 712l-307 -712h-8l-437 1044h154l293 -723l301 723h8l301 -723l293 723h154z" />
    <glyph glyph-name="Wdieresis" unicode="&#x1e84;" horiz-adv-x="1984" 
d="M827 1804q41 0 69 -27t28 -67t-28 -66t-69 -26q-40 0 -66 26t-26 66t26 67t66 27zM1157 1804q40 0 67 -27t27 -67t-27 -66t-67 -26t-67 26t-27 66t27 67t67 27zM1952 1505l-566 -1530h-8l-385 1110l-387 -1110h-8l-563 1530h172l395 -1114l387 1114h8l387 -1114l394 1114
h174z" />
    <glyph glyph-name="wdieresis" unicode="&#x1e85;" horiz-adv-x="1544" 
d="M606 1399q41 0 68.5 -27t27.5 -67t-27.5 -67.5t-68.5 -27.5q-39 0 -65.5 27.5t-26.5 67.5t26 67t66 27zM936 1399q40 0 67 -27t27 -67t-27 -67.5t-67 -27.5t-67 27.5t-27 67.5t27 67t67 27zM1524 1024l-437 -1044h-8l-307 712l-307 -712h-8l-437 1044h154l293 -723
l301 723h8l301 -723l293 723h154z" />
    <glyph glyph-name="Ygrave" unicode="&#x1ef2;" horiz-adv-x="1312" 
d="M475 1833l277 -231h-172l-306 231h201zM1296 1503l-563 -856v-647h-155v645l-562 858h185l454 -700l457 700h184z" />
    <glyph glyph-name="ygrave" unicode="&#x1ef3;" horiz-adv-x="1079" 
d="M340 1436l283 -252h-160l-318 252h195zM1053 1024l-723 -1495h-170l299 590l-432 905h155l357 -758l358 758h156z" />
    <glyph glyph-name="endash" unicode="&#x2013;" 
d="M1059 612v-139h-973v139h973z" />
    <glyph glyph-name="emdash" unicode="&#x2014;" horiz-adv-x="1644" 
d="M1559 612v-139h-1473v139h1473z" />
    <glyph glyph-name="quoteleft" unicode="&#x2018;" horiz-adv-x="366" 
d="M252 1511v-514q-18 -6 -43 -6q-54 0 -88.5 33.5t-34.5 85.5q0 21 18 66l140 335h8z" />
    <glyph glyph-name="quoteright" unicode="&#x2019;" horiz-adv-x="366" 
d="M158 1511q54 0 88.5 -33t34.5 -85q0 -30 -19 -68l-139 -334h-8v514q18 6 43 6z" />
    <glyph glyph-name="quotesinglbase" unicode="&#x201a;" horiz-adv-x="366" 
d="M158 207q54 0 88.5 -34t34.5 -85q0 -30 -19 -68l-139 -335h-8v516q18 6 43 6z" />
    <glyph glyph-name="quotedblleft" unicode="&#x201c;" horiz-adv-x="708" 
d="M594 1511v-514q-18 -6 -43 -6q-54 0 -88.5 33.5t-34.5 85.5q0 21 18 66l140 335h8zM252 1511v-514q-18 -6 -43 -6q-54 0 -88.5 33.5t-34.5 85.5q0 21 18 66l140 335h8z" />
    <glyph glyph-name="quotedblright" unicode="&#x201d;" horiz-adv-x="708" 
d="M500 1511q54 0 88.5 -33t34.5 -85q0 -30 -19 -68l-139 -334h-8v514q18 6 43 6zM158 1511q54 0 88.5 -33t34.5 -85q0 -30 -19 -68l-139 -334h-8v514q18 6 43 6z" />
    <glyph glyph-name="quotedblbase" unicode="&#x201e;" horiz-adv-x="708" 
d="M500 207q54 0 88.5 -34t34.5 -85q0 -30 -19 -68l-139 -335h-8v516q18 6 43 6zM158 207q54 0 88.5 -34t34.5 -85q0 -30 -19 -68l-139 -335h-8v516q18 6 43 6z" />
    <glyph glyph-name="dagger" unicode="&#x2020;" horiz-adv-x="1003" 
d="M575 1505v-377h365v-137h-365v-991h-149v991h-363v137h363v377h149z" />
    <glyph glyph-name="daggerdbl" unicode="&#x2021;" horiz-adv-x="1003" 
d="M575 1505v-377h365v-137h-365v-477h365v-137h-365v-377h-147v377h-365v137h365v477h-365v137h365v377h147z" />
    <glyph glyph-name="bullet" unicode="&#x2022;" horiz-adv-x="604" 
d="M301 752q97 0 160 -63.5t63 -160.5q0 -95 -63 -158t-160 -63q-95 0 -158 63t-63 158q0 97 63 160.5t158 63.5z" />
    <glyph glyph-name="ellipsis" unicode="&#x2026;" horiz-adv-x="1372" 
d="M229 217q51 0 85 -33.5t34 -85.5t-34 -85t-85 -33q-53 0 -85.5 33t-32.5 85q0 51 33 85t85 34zM686 217q51 0 85 -33.5t34 -85.5t-34 -85t-85 -33q-53 0 -86 33t-33 85q0 51 33.5 85t85.5 34zM1143 217q51 0 85 -33.5t34 -85.5t-34 -85t-85 -33t-85 33t-34 85q0 51 34 85
t85 34z" />
    <glyph glyph-name="perthousand" unicode="&#x2030;" horiz-adv-x="2586" 
d="M420 1532q154 0 256 -107t102 -270q0 -162 -102 -267.5t-256 -105.5q-157 0 -258 105t-101 268t101.5 270t257.5 107zM1432 1505l-988 -1505h-139l987 1505h140zM420 1417q-104 0 -172 -74t-68 -188q0 -113 68 -186.5t172 -73.5q103 0 170 73.5t67 186.5q0 114 -67 188
t-170 74zM1319 725q155 0 257.5 -107t102.5 -270q0 -162 -102 -267.5t-258 -105.5q-155 0 -256.5 105t-101.5 268t101.5 270t256.5 107zM2136 725q154 0 255 -107t101 -270q0 -162 -101 -267.5t-255 -105.5q-157 0 -257.5 105t-100.5 268t101 270t257 107zM1319 610
q-104 0 -171 -74t-67 -188q0 -113 67 -185.5t171 -72.5t172 73t68 185q0 114 -68 188t-172 74zM2136 610q-104 0 -172 -74t-68 -188q0 -112 68 -185t172 -73q103 0 170.5 73t67.5 185q0 114 -67.5 188t-170.5 74z" />
    <glyph glyph-name="guilsinglleft" unicode="&#x2039;" horiz-adv-x="577" 
d="M510 938l-293 -414l293 -413h-145l-297 409v8l297 410h145z" />
    <glyph glyph-name="guilsinglright" unicode="&#x203a;" horiz-adv-x="577" 
d="M213 938l297 -410v-8l-297 -409h-145l292 413l-292 414h145z" />
    <glyph glyph-name="fraction" unicode="&#x2044;" horiz-adv-x="378" 
d="M627 1503l-746 -1503h-129l746 1503h129z" />
    <glyph glyph-name="zero.sups" unicode="&#x2070;" horiz-adv-x="778" 
d="M397 1681q149 0 231.5 -119.5t82.5 -324.5t-82.5 -325.5t-231.5 -120.5q-150 0 -233.5 120.5t-83.5 325.5t83.5 324.5t233.5 119.5zM397 1575q-98 0 -148 -89.5t-50 -248.5t50 -249.5t148 -90.5q96 0 145.5 90.5t49.5 249.5t-49.5 248.5t-145.5 89.5z" />
    <glyph glyph-name="four.sups" unicode="&#x2074;" horiz-adv-x="737" 
d="M573 1683v-624h125v-98h-125v-154h-114v156h-428v4l538 716h4zM461 1382l-236 -325h236v325z" />
    <glyph glyph-name="five.sups" unicode="&#x2075;" horiz-adv-x="716" 
d="M602 1665v-106h-354v-252q54 28 123 28q129 0 208.5 -72.5t79.5 -199.5q0 -118 -78 -195t-206 -77q-112 0 -182.5 47t-108.5 139l98 51q50 -129 185 -129q76 0 125 48t49 122q0 72 -49.5 119t-131.5 47q-85 0 -155 -51l-74 33v448h471z" />
    <glyph glyph-name="six.sups" unicode="&#x2076;" horiz-adv-x="727" 
d="M369 1356q122 0 208.5 -81t86.5 -202q0 -122 -86.5 -202t-208.5 -80q-124 0 -209.5 79.5t-85.5 202.5q0 88 55 170l293 422h135l-213 -309h25zM369 891q76 0 128 51.5t52 130.5t-52 130.5t-128 51.5t-128.5 -51.5t-52.5 -130.5t52.5 -130.5t128.5 -51.5z" />
    <glyph glyph-name="seven.sups" unicode="&#x2077;" horiz-adv-x="716" 
d="M676 1665v-8l-457 -850h-129l412 749h-434v109h608z" />
    <glyph glyph-name="eight.sups" unicode="&#x2078;" horiz-adv-x="724" 
d="M362 1681q107 0 183 -66.5t76 -166.5q0 -60 -31 -108.5t-82 -77.5q69 -31 110 -87.5t41 -125.5q0 -111 -86 -184.5t-211 -73.5q-122 0 -207 73.5t-85 184.5q0 69 41 126t108 85q-51 30 -80.5 79t-29.5 109q0 100 73.5 166.5t179.5 66.5zM362 1583q-62 0 -104.5 -40.5
t-42.5 -98.5q0 -62 42.5 -101.5t104.5 -39.5q64 0 108 39.5t44 101.5q0 58 -44.5 98.5t-107.5 40.5zM362 1204q-74 0 -126 -45t-52 -112t52 -111.5t126 -44.5q77 0 130 44.5t53 111.5t-53 112t-130 45z" />
    <glyph glyph-name="nine.sups" unicode="&#x2079;" horiz-adv-x="727" 
d="M371 1681q122 0 207.5 -80t85.5 -202q0 -87 -56 -170l-293 -422h-135l213 309h-22q-123 0 -210 81t-87 202q0 122 86.5 202t210.5 80zM371 1217q75 0 126.5 51.5t51.5 130.5t-51.5 130.5t-126.5 51.5q-77 0 -130 -51.5t-53 -130.5t53 -130.5t130 -51.5z" />
    <glyph glyph-name="n.sups" unicode="&#x207f;" horiz-adv-x="858" 
d="M477 1528q129 0 201 -83.5t72 -223.5v-426h-127v419q0 88 -46.5 141.5t-127.5 53.5q-63 0 -109 -29.5t-88 -85.5v-499h-125v718h115l2 -92q94 107 233 107z" />
    <glyph glyph-name="Euro" unicode="&#x20ac;" horiz-adv-x="1343" 
d="M1176 266l94 -108q-87 -88 -194.5 -137.5t-256.5 -49.5q-230 0 -388.5 147t-209.5 406h-145v109h131q-6 58 -6 119q0 64 6 122h-131v109h145q51 258 207.5 403.5t384.5 145.5q153 0 258.5 -49t188.5 -133l-95 -111q-65 71 -146.5 112.5t-205.5 41.5q-162 0 -274.5 -108
t-155.5 -302h483v-109h-501q-7 -68 -7 -122t7 -119h501v-109h-483q43 -194 157.5 -303.5t278.5 -109.5q121 0 203.5 41t153.5 114z" />
    <glyph glyph-name="afii61289" unicode="&#x2113;" horiz-adv-x="1196" 
d="M666 1536q141 0 221 -81t80 -216q0 -78 -26 -157.5t-66.5 -148.5t-105 -145t-125.5 -137t-144 -135v-199q0 -109 36.5 -160t137.5 -51q30 0 59 8.5t51 18.5t47.5 32.5t40 35.5t37 43t29.5 39.5t27.5 41.5t21.5 33l88 -67q-177 -311 -411 -311q-295 0 -295 319v115
q-127 -115 -199 -170l-72 102q142 113 264 229v619q0 170 71.5 256t232.5 86zM666 1423q-92 0 -134.5 -54t-42.5 -163v-542q78 73 136 136.5t111 137t80.5 148.5t27.5 147q0 90 -44.5 140t-133.5 50z" />
    <glyph glyph-name="trademark" unicode="&#x2122;" horiz-adv-x="1685" 
d="M1606 1520v-785h-115v432l-272 -436h-9l-270 436v-432h-117v785h4l387 -592l388 592h4zM707 1505v-112h-275v-658h-117v658h-272v112h664z" />
    <glyph glyph-name="Omega" unicode="&#x2126;" horiz-adv-x="1757" 
d="M889 1534q151 0 278.5 -53.5t215 -147t136 -223t48.5 -279.5q0 -98 -20.5 -189t-51 -158.5t-76.5 -131.5t-86 -106t-90 -86h440v-160h-682v152q184 123 293 292t109 381q0 243 -138 396t-376 153q-237 0 -374.5 -153t-137.5 -396q0 -212 108.5 -381t292.5 -292v-152h-680
v160h439q-50 44 -90 86t-86 106t-76.5 131.5t-51 158.5t-20.5 189q0 200 83.5 360t238.5 251.5t354 91.5z" />
    <glyph glyph-name="estimated" unicode="&#x212e;" horiz-adv-x="1210" 
d="M631 1100q222 0 365 -141t143 -386h-858v-331q0 -78 59 -115q125 -98 291 -98q285 0 459 264l45 -27q-86 -136 -214.5 -212.5t-289.5 -76.5q-155 0 -282 69.5t-202 199t-75 293.5q0 162 75 291.5t202 199.5t282 70zM631 1047q-83 0 -161.5 -26.5t-125.5 -68.5
q-63 -43 -63 -112v-215h657v223q0 49 -11 76t-42 47q-105 76 -254 76z" />
    <glyph glyph-name="partialdiff" unicode="&#x2202;" horiz-adv-x="1087" 
d="M506 1532q102 0 184 -36t136.5 -102t92.5 -148.5t58.5 -187t29.5 -204.5t9 -213q0 -95 -3 -151t-19 -131t-48 -132q-61 -117 -165 -179t-234 -62q-205 0 -341 135t-136 344q0 211 133.5 347t335.5 136q66 0 122.5 -17.5t95.5 -47.5t64 -56.5t43 -56.5q-17 621 -366 621
q-186 0 -291 -160l-103 96q66 92 167 148.5t235 56.5zM547 807q-140 0 -233 -96.5t-93 -245.5q0 -147 92.5 -242.5t233.5 -95.5q140 0 230.5 95t90.5 243q0 149 -90.5 245.5t-230.5 96.5z" />
    <glyph glyph-name="uni2206" unicode="&#x2206;" horiz-adv-x="1476" 
d="M739 1323l666 -1323h-1333zM739 1055l-473 -938h944z" />
    <glyph glyph-name="product" unicode="&#x220f;" horiz-adv-x="1445" 
d="M1374 1516v-140h-282v-1583h-138v1583h-462v-1583h-140v1583h-280v140h1302z" />
    <glyph glyph-name="summation" unicode="&#x2211;" horiz-adv-x="1249" 
d="M1153 1516v-148h-870l409 -584l-424 -637h910v-147h-1106v102l448 678l-442 633v103h1075z" />
    <glyph glyph-name="minus" unicode="&#x2212;" horiz-adv-x="966" 
d="M881 786v-139h-797v139h797z" />
    <glyph glyph-name="radical" unicode="&#x221a;" horiz-adv-x="1427" 
d="M1233 1421l123 -53l-596 -1515l-357 698l-258 -150l-67 107l399 235l279 -565z" />
    <glyph glyph-name="infinity" unicode="&#x221e;" horiz-adv-x="1513" 
d="M1112 932q150 0 244 -101.5t94 -252.5t-94 -253t-244 -102q-43 0 -86 13.5t-71.5 28t-68 47.5t-54.5 47t-51 52l-11 11l-43 45l-41 -47q-155 -166 -301 -166q-138 0 -220.5 92t-82.5 229q0 138 83 231t220 93q85 0 152.5 -43.5t146.5 -128.5l43 -49l31 39q46 52 77.5 83
t77 65.5t94.5 50.5t105 16zM1114 803q-41 0 -77 -13.5t-73.5 -46.5t-58 -55t-63.5 -72l-35 -43l43 -47q4 -5 22 -24.5t25 -27t24.5 -25.5t28 -26t28 -22t31.5 -20.5t32 -14.5t36 -11t37 -3q92 0 149.5 65t57.5 161t-57.5 160.5t-149.5 64.5zM383 776q-82 0 -131 -57.5
t-49 -143.5q0 -84 48.5 -140t131.5 -56q112 0 229 145l39 49l-41 50q-62 74 -114.5 113.5t-112.5 39.5z" />
    <glyph glyph-name="integral" unicode="&#x222b;" horiz-adv-x="888" 
d="M625 1536q129 0 221 -49l-31 -115q-76 39 -158 39q-147 0 -147 -209v-1247q0 -182 -64.5 -263t-195.5 -81q-134 0 -225 51l30 115q59 -41 162 -41q160 0 160 219v1247q0 176 61 255t187 79z" />
    <glyph glyph-name="approxequal" unicode="&#x2248;" horiz-adv-x="1265" 
d="M430 1092q59 0 110 -19t87 -46t70.5 -54.5t76 -46.5t88.5 -19q157 0 223 170l95 -67q-43 -111 -125 -176.5t-193 -65.5q-61 0 -111.5 19t-85.5 46t-68 54t-75.5 46t-91.5 19q-83 0 -139 -46.5t-84 -123.5l-96 68q45 112 125.5 177t193.5 65zM403 666q60 0 111 -19t87 -46
t70.5 -54.5t76 -46.5t88.5 -19q83 0 139 46.5t84 123.5l96 -67q-45 -111 -126.5 -176.5t-192.5 -65.5q-60 0 -110.5 19t-85.5 46.5t-68.5 55t-76.5 46.5t-92 19q-157 0 -223 -170l-94 68q43 111 124 175.5t193 64.5z" />
    <glyph glyph-name="notequal" unicode="&#x2260;" horiz-adv-x="966" 
d="M881 877h-271l-121 -322h392v-139h-443l-76 -203h-135l76 203h-219v139h270l121 322h-391v139h444l88 235h134l-86 -235h217v-139z" />
    <glyph glyph-name="lessequal" unicode="&#x2264;" horiz-adv-x="774" 
d="M688 1202l-407 -346l407 -346h-201l-401 342v8l401 342h201zM688 393v-137h-602v137h602z" />
    <glyph glyph-name="greaterequal" unicode="&#x2265;" horiz-adv-x="774" 
d="M287 1202l401 -342v-8l-401 -342h-201l406 346l-406 346h201zM688 393v-137h-602v137h602z" />
    <glyph glyph-name="lozenge" unicode="&#x25ca;" horiz-adv-x="1165" 
d="M645 1511l467 -823l-467 -821h-94l-469 821l469 823h94zM600 1300l-364 -612l364 -614l361 614z" />
    <glyph glyph-name="commaaccent" unicode="&#xf6c3;" horiz-adv-x="0" 
d="M-178 -111q53 0 86 -28t33 -74q0 -49 -27 -80l-123 -176h-8v352q18 6 39 6z" />
    <glyph glyph-name="CR" horiz-adv-x="512" 
 />
    <glyph glyph-name="germandbls.cap" horiz-adv-x="1331" 
d="M664 1532q294 0 491 -221l-293 -424q75 -16 140.5 -48t123 -85t91.5 -134.5t34 -183.5q0 -202 -136 -332.5t-353 -130.5q-178 0 -293 70l55 133q53 -31 106 -44t132 -13q134 0 228.5 87.5t94.5 231.5q0 86 -35 152t-97 106.5t-142.5 61t-177.5 20.5l-4 10l334 492
q-111 106 -299 106q-162 0 -262.5 -97t-100.5 -271v-1018h-151v1018q0 234 145.5 374t368.5 140z" />
    <glyph glyph-name="endash_guilsinglright" horiz-adv-x="1349" 
d="M680 1096l580 -527l-580 -526l-74 90l416 373h-934v125h934l-416 375z" />
    <glyph glyph-name="emdash_guilsinglright" horiz-adv-x="2021" 
d="M1352 1096l579 -527l-579 -526l-74 90l416 373h-1606v125h1606l-416 375z" />
    <glyph glyph-name="guilsinglleft_endash" horiz-adv-x="1349" 
d="M672 1096l71 -90l-417 -375h934v-125h-932l415 -373l-71 -90l-584 526z" />
    <glyph glyph-name="guilsinglleft_emdash" horiz-adv-x="2021" 
d="M672 1096l71 -90l-417 -375h1605v-125h-1603l415 -373l-71 -90l-584 526z" />
    <glyph glyph-name="at.cap" horiz-adv-x="1722" 
d="M860 1540q173 0 321 -58.5t252 -161t163 -248t59 -314.5q0 -207 -87 -331t-243 -124q-76 0 -123 34t-63 93l-2 10q-108 -137 -306 -137q-173 0 -283 124.5t-110 317.5q0 194 110 320.5t283 126.5q195 0 297 -127l2 111h119v-668q0 -90 88 -90q93 0 144 94t51 246
q0 142 -49.5 265t-137 211t-213 138.5t-272.5 50.5q-193 0 -346.5 -87t-238.5 -240t-85 -344q0 -193 84.5 -346t236 -238.5t343.5 -85.5q143 0 268 49l39 -111q-142 -57 -307 -57q-171 0 -317 59t-249 162.5t-161.5 250t-58.5 317.5q0 225 100.5 405t281.5 281.5t410 101.5z
M858 1077q-127 0 -209 -92.5t-82 -239.5q0 -146 82 -236.5t209 -90.5q90 0 152 38t112 107v369q-106 145 -264 145z" />
    <glyph glyph-name="grave.cap" horiz-adv-x="563" 
d="M256 1833l276 -231h-172l-305 231h201z" />
    <glyph glyph-name="acute.cap" horiz-adv-x="563" 
d="M506 1833l-303 -231h-172l276 231h199z" />
    <glyph glyph-name="circumflex.cap" horiz-adv-x="708" 
d="M354 1888l310 -289h-148l-162 148l-164 -148h-145z" />
    <glyph glyph-name="caron.cap" horiz-adv-x="708" 
d="M664 1870l-310 -289l-309 289h145l164 -146l162 146h148z" />
    <glyph glyph-name="tilde.cap" horiz-adv-x="733" 
d="M236 1878q44 0 79 -17.5t57 -43t41 -51t41.5 -43t49.5 -17.5q80 0 80 158h104q0 -131 -53 -199t-139 -68q-45 0 -79.5 17.5t-55 43t-39 51t-41 43t-50.5 17.5q-81 0 -81 -157h-105q0 133 53 199.5t138 66.5z" />
    <glyph glyph-name="dieresis.cap" horiz-adv-x="606" 
d="M137 1804q41 0 68.5 -27t27.5 -67t-27.5 -66t-68.5 -26q-40 0 -66 26t-26 66t26 67t66 27zM467 1804q40 0 67 -27t27 -67t-27 -66t-67 -26t-67 26t-27 66t27 67t67 27z" />
    <glyph glyph-name="macron.cap" horiz-adv-x="606" 
d="M561 1747v-109h-516v109h516z" />
    <glyph glyph-name="breve.cap" horiz-adv-x="686" 
d="M641 1884q0 -122 -85 -203.5t-212 -81.5t-213 81.5t-86 203.5h111q0 -73 53 -123.5t135 -50.5q81 0 133.5 50.5t52.5 123.5h111z" />
    <glyph glyph-name="ring.cap" horiz-adv-x="512" 
d="M256 2015q89 0 150 -60t61 -149q0 -90 -60.5 -148.5t-150.5 -58.5q-91 0 -151 58.5t-60 148.5q0 89 60 149t151 60zM256 1925q-50 0 -83.5 -34t-33.5 -85q0 -50 33.5 -82t83.5 -32t83.5 32t33.5 82q0 51 -33.5 85t-83.5 34z" />
    <glyph glyph-name="hungarumlaut.cap" horiz-adv-x="757" 
d="M481 1847l-219 -239h-129l207 239h141zM795 1847l-220 -239h-129l207 239h142z" />
    <glyph glyph-name="dotaccent.cap" horiz-adv-x="292" 
d="M145 1802q41 0 70 -29t29 -71q0 -41 -28.5 -68.5t-70.5 -27.5q-41 0 -69.5 27.5t-28.5 68.5q0 43 28.5 71.5t69.5 28.5z" />
    <glyph glyph-name="parenleft.cap" horiz-adv-x="589" 
d="M408 1614l110 -84q-57 -71 -99.5 -140t-85.5 -165t-66 -216.5t-23 -256.5t23 -256.5t66 -217t86 -165.5t99 -140l-110 -84q-306 378 -306 863q0 149 26.5 283.5t75 241.5t96 184t108.5 153z" />
    <glyph glyph-name="parenright.cap" horiz-adv-x="589" 
d="M182 1614q61 -75 109.5 -153t96.5 -184.5t74.5 -241t26.5 -283.5q0 -489 -307 -863l-110 84q44 55 80 107.5t73.5 127.5t63 153t41.5 179.5t16 211.5q0 136 -23 256.5t-65.5 216.5t-85.5 165.5t-100 139.5z" />
    <glyph glyph-name="bracketleft.cap" horiz-adv-x="624" 
d="M553 1632v-127h-295v-1507h295v-127h-440v1761h440z" />
    <glyph glyph-name="bracketright.cap" horiz-adv-x="641" 
d="M528 1632v-1761h-456v127h309v1507h-309v127h456z" />
    <glyph glyph-name="braceleft.cap" horiz-adv-x="700" 
d="M629 1632v-127q-121 0 -190.5 -70t-55.5 -227l20 -200q10 -106 -19.5 -166t-100.5 -90q71 -30 100.5 -90t19.5 -166l-20 -201q-14 -157 55.5 -227t190.5 -70v-127q-203 0 -307 110.5t-80 340.5l20 196q9 97 -43 151.5t-160 78.5v8q108 25 160 78.5t43 150.5l-20 197
q-24 230 80 340t307 110z" />
    <glyph glyph-name="braceright.cap" horiz-adv-x="700" 
d="M72 1632q204 0 309 -110t80 -340l-23 -197q-10 -96 42.5 -150t160.5 -79v-8q-108 -24 -160.5 -79t-42.5 -151l23 -196q25 -230 -80 -340.5t-309 -110.5v127q121 0 190 70t53 227l-18 201q-10 106 19.5 166t101.5 90q-72 30 -101.5 90t-19.5 166l18 200q16 157 -53 227
t-190 70v127z" />
    <glyph glyph-name="guilsinglleft.cap" horiz-adv-x="589" 
d="M522 1180l-305 -455l305 -455h-145l-309 451v8l309 451h145z" />
    <glyph glyph-name="guilsinglright.cap" horiz-adv-x="589" 
d="M215 1180l307 -451v-8l-307 -451h-147l307 455l-307 455h147z" />
    <glyph glyph-name="guillemotleft.cap" horiz-adv-x="1034" 
d="M522 1180l-305 -455l305 -455h-145l-309 451v8l309 451h145zM967 1180l-308 -455l308 -455h-146l-309 451v8l309 451h146z" />
    <glyph glyph-name="guillemotright.cap" horiz-adv-x="1034" 
d="M213 1180l309 -451v-8l-309 -451h-145l307 455l-307 455h145zM657 1180l310 -451v-8l-310 -451h-145l305 455l-305 455h145z" />
    <glyph glyph-name="exclamdown.cap" horiz-adv-x="503" 
d="M254 1303q-47 0 -79 31.5t-32 78.5q0 49 31.5 81t79.5 32q50 0 81.5 -32t31.5 -81q0 -47 -32 -78.5t-81 -31.5zM180 0v1108h150v-1108h-150z" />
    <glyph glyph-name="questiondown.cap" horiz-adv-x="968" 
d="M496 1303q-47 0 -79 31.5t-32 78.5q0 49 31.5 81t79.5 32q49 0 80.5 -31.5t31.5 -81.5q0 -48 -31.5 -79t-80.5 -31zM500 -27q-185 0 -301.5 113t-116.5 289q0 71 19 130.5t48.5 101t66 78t73 68.5t66 64.5t48.5 75t19 90.5v125h151v-141q0 -59 -18.5 -109.5t-48 -87
t-65 -70.5t-71.5 -67t-65.5 -68.5t-48 -83.5t-18.5 -104q0 -124 74 -194t190 -70q222 0 276 235l148 -29q-36 -165 -143.5 -255.5t-282.5 -90.5z" />
    <glyph glyph-name="endash.cap" 
d="M1059 801v-142h-973v142h973z" />
    <glyph glyph-name="periodcentered.cap" horiz-adv-x="391" 
d="M195 836q47 0 78.5 -32t31.5 -79q0 -46 -31.5 -77.5t-78.5 -31.5q-46 0 -77.5 31.5t-31.5 77.5q0 47 31.5 79t77.5 32z" />
    <glyph glyph-name="emdash.cap" horiz-adv-x="1644" 
d="M1559 801v-142h-1473v142h1473z" />
    <glyph glyph-name="hyphen.cap" horiz-adv-x="790" 
d="M705 801v-142h-619v142h619z" />
    <glyph glyph-name="zero.dnom" horiz-adv-x="790" 
d="M397 874q149 0 231.5 -119.5t82.5 -324.5t-82.5 -325.5t-231.5 -120.5q-150 0 -233.5 120.5t-83.5 325.5t83.5 324.5t233.5 119.5zM397 768q-98 0 -148 -89.5t-50 -248.5t50 -249.5t148 -90.5q96 0 145.5 90.5t49.5 249.5t-49.5 248.5t-145.5 89.5z" />
    <glyph glyph-name="one.dnom" horiz-adv-x="526" 
d="M393 874v-874h-119v678l-161 -109l-54 105l330 200h4z" />
    <glyph glyph-name="two.dnom" horiz-adv-x="718" 
d="M360 874q121 0 197 -72t76 -186q0 -75 -27.5 -133.5t-87.5 -130.5l-209 -246h336v-106h-541v8l318 406q51 60 71.5 104t20.5 100q0 68 -43.5 109t-110.5 41q-136 0 -163 -141l-107 22q44 225 270 225z" />
    <glyph glyph-name="three.dnom" horiz-adv-x="712" 
d="M360 874q115 0 188 -69.5t73 -175.5q0 -129 -121 -183q70 -26 110.5 -77.5t40.5 -124.5q0 -116 -77.5 -188t-204.5 -72q-117 0 -187.5 52.5t-103.5 156.5l104 28q25 -63 68.5 -96t118.5 -33q74 0 120 43t46 115q0 64 -51 107.5t-130 43.5h-98v93h102q62 2 105 37t43 100
q0 61 -42.5 99t-107.5 38q-118 0 -161 -119l-103 45q64 180 268 180z" />
    <glyph glyph-name="four.dnom" horiz-adv-x="749" 
d="M573 877v-625h125v-98h-125v-154h-114v156h-428v4l538 717h4zM461 575l-236 -325h236v325z" />
    <glyph glyph-name="five.dnom" horiz-adv-x="727" 
d="M602 858v-106h-354v-252q54 28 123 28q129 0 208.5 -72.5t79.5 -199.5q0 -118 -78 -195t-206 -77q-112 0 -182.5 47t-108.5 139l98 51q50 -129 185 -129q76 0 125 48t49 122q0 72 -49.5 119t-131.5 47q-85 0 -155 -51l-74 33v448h471z" />
    <glyph glyph-name="six.dnom" horiz-adv-x="737" 
d="M369 549q122 0 208.5 -81t86.5 -202q0 -122 -86.5 -202t-208.5 -80q-124 0 -209.5 79.5t-85.5 202.5q0 88 55 170l293 422h135l-213 -309h25zM369 84q76 0 128 51.5t52 130.5t-52 131t-128 52t-128.5 -52t-52.5 -131t52.5 -130.5t128.5 -51.5z" />
    <glyph glyph-name="seven.dnom" horiz-adv-x="729" 
d="M676 858v-8l-457 -850h-129l412 750h-434v108h608z" />
    <glyph glyph-name="eight.dnom" horiz-adv-x="737" 
d="M362 874q107 0 183 -66.5t76 -166.5q0 -60 -31 -108.5t-82 -77.5q69 -31 110 -87.5t41 -125.5q0 -111 -86 -184.5t-211 -73.5q-122 0 -207 73.5t-85 184.5q0 69 41 126t108 85q-51 30 -80.5 79t-29.5 109q0 100 73.5 166.5t179.5 66.5zM362 776q-62 0 -104.5 -40.5
t-42.5 -98.5q0 -62 42.5 -101.5t104.5 -39.5q64 0 108 39.5t44 101.5q0 58 -44.5 98.5t-107.5 40.5zM362 397q-74 0 -126 -45t-52 -112t52 -111.5t126 -44.5q77 0 130 44.5t53 111.5t-53 112t-130 45z" />
    <glyph glyph-name="nine.dnom" horiz-adv-x="737" 
d="M371 874q122 0 207.5 -80t85.5 -202q0 -87 -56 -170l-293 -422h-135l215 309h-24q-123 0 -210 81t-87 202q0 122 86.5 202t210.5 80zM371 410q75 0 126.5 52t51.5 130t-51.5 130t-126.5 52q-77 0 -130 -51.5t-53 -130.5t53 -130.5t130 -51.5z" />
    <glyph glyph-name="zero.numr" horiz-adv-x="778" 
d="M397 1518q149 0 231.5 -120t82.5 -325t-82.5 -325.5t-231.5 -120.5q-150 0 -233.5 120.5t-83.5 325.5t83.5 325t233.5 120zM397 1411q-98 0 -148 -89.5t-50 -248.5t50 -249.5t148 -90.5q96 0 145.5 90.5t49.5 249.5t-49.5 248.5t-145.5 89.5z" />
    <glyph glyph-name="one.numr" horiz-adv-x="514" 
d="M393 1518v-875h-119v678l-161 -109l-54 105l330 201h4z" />
    <glyph glyph-name="two.numr" horiz-adv-x="706" 
d="M360 1518q121 0 197 -72t76 -186q0 -75 -27.5 -134.5t-87.5 -130.5l-209 -245h336v-107h-541v8l318 406q51 60 71.5 104.5t20.5 100.5q0 68 -43.5 108.5t-110.5 40.5q-136 0 -163 -141l-107 22q45 226 270 226z" />
    <glyph glyph-name="three.numr" horiz-adv-x="700" 
d="M360 1518q115 0 188 -70t73 -176q0 -128 -121 -182q70 -26 110.5 -78t40.5 -125q0 -116 -77.5 -188t-204.5 -72q-117 0 -187.5 52.5t-103.5 156.5l104 28q25 -63 68.5 -96t118.5 -33q74 0 120 43t46 115q0 64 -51 107.5t-130 43.5h-98v93h102q62 2 105 37t43 100
q0 61 -42.5 99t-107.5 38q-118 0 -161 -119l-103 45q65 181 268 181z" />
    <glyph glyph-name="four.numr" horiz-adv-x="737" 
d="M573 1520v-625h125v-98h-125v-154h-114v156h-428v4l538 717h4zM461 1219l-236 -326h236v326z" />
    <glyph glyph-name="five.numr" horiz-adv-x="716" 
d="M602 1501v-106h-354v-252q54 28 123 28q129 0 208.5 -72.5t79.5 -199.5q0 -118 -78 -195t-206 -77q-112 0 -182.5 47t-108.5 139l98 51q50 -129 185 -129q76 0 125 48t49 122q0 72 -49.5 119t-131.5 47q-85 0 -155 -51l-74 33v448h471z" />
    <glyph glyph-name="six.numr" horiz-adv-x="727" 
d="M369 1192q122 0 208.5 -81t86.5 -202q0 -122 -86.5 -202t-208.5 -80q-124 0 -209.5 79.5t-85.5 202.5q0 88 55 170l293 422h135l-213 -309h25zM369 727q76 0 128 51.5t52 130.5t-52 131t-128 52t-128.5 -52t-52.5 -131t52.5 -130.5t128.5 -51.5z" />
    <glyph glyph-name="seven.numr" horiz-adv-x="716" 
d="M676 1501v-8l-457 -850h-129l412 750h-434v108h608z" />
    <glyph glyph-name="eight.numr" horiz-adv-x="724" 
d="M362 1518q107 0 183 -67t76 -167q0 -60 -31 -108.5t-82 -77.5q69 -31 110 -87.5t41 -125.5q0 -111 -86 -184.5t-211 -73.5q-122 0 -207 73.5t-85 184.5q0 69 41 126t108 85q-51 30 -80.5 79t-29.5 109q0 100 74 167t179 67zM362 1419q-62 0 -104.5 -40.5t-42.5 -98.5
q0 -62 42.5 -101.5t104.5 -39.5q64 0 108 39.5t44 101.5q0 58 -44.5 98.5t-107.5 40.5zM362 1040q-74 0 -126 -45t-52 -112t52 -111.5t126 -44.5q77 0 130 44.5t53 111.5t-53 112t-130 45z" />
    <glyph glyph-name="nine.numr" horiz-adv-x="727" 
d="M371 1518q122 0 207.5 -80t85.5 -203q0 -87 -56 -170l-293 -422h-135l213 309h-22q-123 0 -210 81t-87 202q0 123 86.5 203t210.5 80zM371 1053q75 0 126.5 51.5t51.5 130.5t-51.5 130.5t-126.5 51.5q-77 0 -130 -51.5t-53 -130.5t53 -130.5t130 -51.5z" />
    <glyph glyph-name="zero.subs" horiz-adv-x="778" 
d="M397 670q149 0 231.5 -120t82.5 -325t-82.5 -325.5t-231.5 -120.5q-150 0 -233.5 120.5t-83.5 325.5t83.5 325t233.5 120zM397 563q-98 0 -148 -89.5t-50 -248.5t50 -249.5t148 -90.5q96 0 145.5 90.5t49.5 249.5t-49.5 248.5t-145.5 89.5z" />
    <glyph glyph-name="one.subs" horiz-adv-x="514" 
d="M393 670v-875h-119v678l-161 -108l-54 104l330 201h4z" />
    <glyph glyph-name="two.subs" horiz-adv-x="706" 
d="M360 670q121 0 197 -72t76 -186q0 -75 -27.5 -134.5t-87.5 -130.5l-209 -245h336v-107h-541v8l318 406q51 60 71.5 104.5t20.5 100.5q0 68 -43.5 108.5t-110.5 40.5q-136 0 -163 -141l-107 22q45 226 270 226z" />
    <glyph glyph-name="three.subs" horiz-adv-x="700" 
d="M360 670q115 0 188 -70t73 -176q0 -128 -121 -182q70 -26 110.5 -78t40.5 -125q0 -116 -77.5 -188t-204.5 -72q-117 0 -187.5 52.5t-103.5 156.5l104 28q25 -63 68.5 -96t118.5 -33q74 0 120 43t46 115q0 64 -51.5 108t-129.5 44h-98v92h102q62 2 105 37t43 100
q0 61 -42.5 99t-107.5 38q-118 0 -161 -119l-103 45q65 181 268 181z" />
    <glyph glyph-name="four.subs" horiz-adv-x="737" 
d="M573 672v-625h125v-98h-125v-154h-114v156h-428v4l538 717h4zM461 371l-236 -326h236v326z" />
    <glyph glyph-name="five.subs" horiz-adv-x="716" 
d="M602 653v-106h-354v-252q56 29 123 29q128 0 208 -73t80 -200q0 -118 -78 -195t-206 -77q-112 0 -182.5 47t-108.5 139l98 51q50 -129 185 -129q76 0 125 48t49 122q0 72 -49.5 119t-131.5 47q-85 0 -155 -51l-74 33v448h471z" />
    <glyph glyph-name="six.subs" horiz-adv-x="727" 
d="M369 344q122 0 208.5 -81t86.5 -202q0 -122 -86.5 -202t-208.5 -80q-124 0 -209.5 79.5t-85.5 202.5q0 88 55 170l293 422h135l-213 -309h25zM369 -121q76 0 128 51.5t52 130.5t-52 131t-128 52t-128.5 -52t-52.5 -131t52.5 -130.5t128.5 -51.5z" />
    <glyph glyph-name="seven.subs" horiz-adv-x="716" 
d="M676 653v-8l-457 -850h-129l412 750h-434v108h608z" />
    <glyph glyph-name="eight.subs" horiz-adv-x="724" 
d="M362 670q107 0 183 -67t76 -167q0 -60 -31 -108.5t-82 -77.5q69 -31 110 -87.5t41 -125.5q0 -111 -86 -184.5t-211 -73.5q-122 0 -207 73.5t-85 184.5q0 69 41 126t108 85q-51 30 -80.5 79t-29.5 109q0 100 74 167t179 67zM362 571q-62 0 -104.5 -40.5t-42.5 -98.5
q0 -62 42.5 -101.5t104.5 -39.5q64 0 108 39.5t44 101.5q0 58 -44.5 98.5t-107.5 40.5zM362 193q-74 0 -126 -45.5t-52 -112.5t52 -111.5t126 -44.5q77 0 130 44.5t53 111.5t-53 112.5t-130 45.5z" />
    <glyph glyph-name="nine.subs" horiz-adv-x="727" 
d="M371 670q122 0 207.5 -80t85.5 -203q0 -87 -56 -170l-293 -422h-135l213 309h-22q-123 0 -210 81t-87 202q0 122 86.5 202.5t210.5 80.5zM371 205q75 0 126.5 51.5t51.5 130.5t-51.5 130.5t-126.5 51.5q-77 0 -130 -51.5t-53 -130.5t53 -130.5t130 -51.5z" />
    <glyph glyph-name="zero.lnum" horiz-adv-x="1228" 
d="M614 1532q247 0 383 -208.5t136 -569.5q0 -362 -136 -571.5t-383 -209.5t-382.5 209t-135.5 572q0 361 135.5 569.5t382.5 208.5zM614 1393q-179 0 -271.5 -170t-92.5 -469q0 -301 92.5 -471t271.5 -170t272 170.5t93 470.5q0 299 -93 469t-272 170z" />
    <glyph glyph-name="one.lnum" horiz-adv-x="1228" 
d="M768 1532v-1391h299v-141h-758v141h307v1112l-372 -245l-74 129l590 395h8z" />
    <glyph glyph-name="two.lnum" horiz-adv-x="1228" 
d="M598 1532q194 0 317 -120.5t123 -313.5q0 -143 -46 -252t-150 -234l-391 -473h608v-139h-889v12l551 684q91 112 127.5 200.5t36.5 203.5q0 135 -80.5 214t-206.5 79q-125 0 -197.5 -65.5t-101.5 -201.5l-137 31q37 183 147 279t289 96z" />
    <glyph glyph-name="three.lnum" horiz-adv-x="1228" 
d="M598 1532q186 0 304 -115t118 -299q0 -236 -217 -325q127 -43 199.5 -139.5t72.5 -229.5q0 -202 -126.5 -326.5t-330.5 -124.5q-192 0 -305.5 89.5t-175.5 259.5l137 38q46 -120 126 -183.5t216 -63.5t222 86t86 227q0 130 -93.5 215.5t-240.5 85.5h-170v125h172
q115 2 195.5 70t80.5 196q0 124 -76.5 199.5t-195.5 75.5q-217 0 -303 -232l-133 58q122 313 438 313z" />
    <glyph glyph-name="four.lnum" horiz-adv-x="1228" 
d="M913 1513v-1058h222v-140h-222v-315h-151v315h-672v9l813 1189h10zM764 1073l-416 -620h416v620z" />
    <glyph glyph-name="five.lnum" horiz-adv-x="1228" 
d="M997 1505v-139h-608v-512q108 59 236 59q210 0 339.5 -128t129.5 -341q0 -201 -128 -336t-337 -135q-183 0 -295.5 82t-175.5 238l133 59q43 -115 121.5 -177t208.5 -62q141 0 230 96t89 242q0 147 -90 239t-240 92q-153 0 -284 -100l-88 37v786h759z" />
    <glyph glyph-name="six.lnum" horiz-adv-x="1228" 
d="M610 952q202 0 343 -140t141 -351q0 -139 -65.5 -251.5t-176 -174.5t-242.5 -62q-131 0 -240.5 62t-174 174.5t-64.5 251.5q0 156 90 293l504 751h174l-375 -561q36 8 86 8zM610 113q139 0 234.5 98.5t95.5 249.5q0 153 -96 253.5t-234 100.5q-137 0 -230 -100t-93 -254
q0 -152 93 -250t230 -98z" />
    <glyph glyph-name="seven.lnum" horiz-adv-x="1228" 
d="M1139 1505v-12l-774 -1493h-168l718 1364h-768v141h992z" />
    <glyph glyph-name="eight.lnum" horiz-adv-x="1228" 
d="M614 1532q171 0 291.5 -112t120.5 -281q0 -113 -54.5 -202t-146.5 -136q122 -51 196.5 -153.5t74.5 -231.5q0 -94 -38.5 -177t-103.5 -141t-153.5 -91.5t-186.5 -33.5q-131 0 -241 56.5t-175 159t-65 227.5q0 130 73 233.5t193 149.5q-90 47 -143 136.5t-53 203.5
q0 169 120 281t291 112zM614 1395q-113 0 -190.5 -74.5t-77.5 -187.5q0 -119 77 -197t191 -78q112 0 190.5 78.5t78.5 196.5q0 112 -78.5 187t-190.5 75zM614 721q-137 0 -232 -88t-95 -219q0 -130 94.5 -216.5t232.5 -86.5q136 0 232 87t96 216q0 131 -96 219t-232 88z" />
    <glyph glyph-name="nine.lnum" horiz-adv-x="1228" 
d="M616 1532q131 0 240.5 -62t174.5 -174.5t65 -251.5q0 -155 -90 -292l-504 -752h-174l374 561q-36 -8 -86 -8q-202 0 -342.5 140t-140.5 351t140.5 349.5t342.5 138.5zM616 690q137 0 230.5 100.5t93.5 253.5q0 152 -93.5 250.5t-230.5 98.5q-138 0 -233.5 -98.5
t-95.5 -250.5q0 -153 95.5 -253.5t233.5 -100.5z" />
    <glyph glyph-name="zero.tnum" horiz-adv-x="1202" 
d="M600 1167q110 0 206.5 -45.5t165 -124t107.5 -189.5t39 -237q0 -256 -147 -423.5t-371 -167.5q-148 0 -266.5 76t-185 211t-66.5 304q0 126 39 237t107.5 189.5t165 124t206.5 45.5zM600 1032q-160 0 -264.5 -130.5t-104.5 -330.5t104.5 -328t264.5 -128q159 0 263 128
t104 328t-103.5 330.5t-263.5 130.5z" />
    <glyph glyph-name="one.tnum" horiz-adv-x="741" 
d="M569 1167v-1167h-151v885l-297 -211l-70 135l510 358h8z" />
    <glyph glyph-name="two.tnum" horiz-adv-x="1081" 
d="M549 1167q183 0 299.5 -110t116.5 -285q0 -60 -13.5 -113t-33 -92.5t-54 -81t-64 -69.5t-75.5 -68l-248 -209h531v-139h-879v12l459 410q104 94 131 123q86 95 92 204v19q0 125 -73.5 192.5t-194.5 67.5q-91 0 -152.5 -40.5t-103.5 -123.5l-125 64q118 239 387 239z" />
    <glyph glyph-name="three.tnum" horiz-adv-x="1073" 
d="M545 1167q187 0 305.5 -111t118.5 -290q0 -229 -219 -317q128 -42 201 -135.5t73 -223.5q0 -195 -126 -315.5t-333 -120.5q-189 0 -303 86.5t-176 251.5l137 39q46 -117 125.5 -178.5t216.5 -61.5t222 82.5t85 218.5q0 127 -93.5 210t-241.5 83h-166v123h170
q115 0 195.5 66t80.5 190q0 121 -76.5 193.5t-195.5 72.5q-217 0 -303 -223l-133 55q118 305 436 305z" />
    <glyph glyph-name="four.tnum" horiz-adv-x="1118" 
d="M856 1167v-1026h221v-137h-221v-305h-151v305h-674v8l815 1155h10zM707 739l-416 -600h416v600z" />
    <glyph glyph-name="five.tnum" horiz-adv-x="1091" 
d="M932 1145v-135h-608v-496q112 57 235 57q210 0 338.5 -125t128.5 -331q0 -127 -55 -230t-161.5 -165t-246.5 -62q-182 0 -294.5 80t-174.5 231l127 58q46 -112 124.5 -172t209.5 -60q140 0 229.5 92.5t89.5 233.5t-90 231t-239 90q-155 0 -285 -96l-88 37v762h760z" />
    <glyph glyph-name="six.tnum" horiz-adv-x="1103" 
d="M549 924q132 0 242.5 -61.5t175.5 -171.5t65 -245q0 -204 -140.5 -338.5t-342.5 -134.5q-201 0 -340 134.5t-139 338.5q0 153 80 269l514 745h180l-373 -542q41 6 78 6zM549 109q139 0 234.5 95t95.5 242q0 149 -95.5 245.5t-234.5 96.5q-137 0 -231.5 -96.5
t-94.5 -245.5q0 -147 94.5 -242t231.5 -95z" />
    <glyph glyph-name="seven.tnum" horiz-adv-x="1091" 
d="M1051 1147v-12l-775 -1448h-167l714 1321h-766v139h994z" />
    <glyph glyph-name="eight.tnum" horiz-adv-x="1103" 
d="M543 1487q172 0 291.5 -108.5t119.5 -272.5q0 -110 -54 -197.5t-144 -132.5q121 -48 195.5 -148t74.5 -225q0 -121 -65.5 -220.5t-176 -154.5t-241.5 -55t-241.5 55t-175.5 154.5t-65 220.5q0 126 74 226t195 145q-91 45 -145 132.5t-54 199.5q0 164 120.5 272.5
t291.5 108.5zM543 1352q-112 0 -190.5 -72.5t-78.5 -179.5q0 -115 78.5 -192t190.5 -77q113 0 190.5 76.5t77.5 192.5q0 108 -77.5 180t-190.5 72zM543 698q-137 0 -231.5 -84.5t-94.5 -212.5q0 -125 95 -208.5t231 -83.5q138 0 233.5 83.5t95.5 208.5q0 128 -95.5 212.5
t-233.5 84.5z" />
    <glyph glyph-name="nine.tnum" horiz-adv-x="1103" 
d="M553 1167q201 0 340 -134.5t139 -338.5q0 -152 -80 -268l-514 -745h-180l373 542q-41 -6 -78 -6q-132 0 -242.5 61t-175.5 171t-65 245q0 204 140.5 338.5t342.5 134.5zM553 352q137 0 231.5 96.5t94.5 245.5q0 147 -94.5 242.5t-231.5 95.5q-139 0 -234.5 -95.5
t-95.5 -242.5q0 -149 95.5 -245.5t234.5 -96.5z" />
    <glyph glyph-name="a.sups" horiz-adv-x="870" 
d="M383 1528q154 0 244 -107l4 92h114v-718h-114l-4 92q-90 -107 -244 -107q-142 0 -234 105.5t-92 267.5q0 163 92 269t234 106zM412 1417q-100 0 -165 -74t-65 -190t65 -189t165 -73q126 0 206 117v292q-84 117 -206 117z" />
    <glyph glyph-name="b.sups" horiz-adv-x="870" 
d="M252 1884v-454q86 98 235 98q142 0 234 -106t92 -269q0 -162 -92 -267.5t-234 -105.5q-153 0 -243 107l-2 -92h-115v1089h125zM459 1417q-123 0 -207 -117v-292q80 -117 207 -117q101 0 165 72.5t64 189.5t-64 190.5t-165 73.5z" />
    <glyph glyph-name="c.sups" horiz-adv-x="753" 
d="M418 1528q186 0 297 -156l-92 -69q-79 114 -205 114q-112 0 -174 -73t-62 -191q0 -116 63 -189t175 -73q135 0 207 117l92 -70q-106 -158 -299 -158q-165 0 -264 104.5t-99 268.5q0 165 98 270t263 105z" />
    <glyph glyph-name="d.sups" horiz-adv-x="870" 
d="M745 1884v-1089h-114l-4 92q-90 -107 -244 -107q-142 0 -234 105.5t-92 267.5q0 163 92 269t234 106q149 0 235 -98v454h127zM412 1417q-100 0 -165 -74t-65 -190t65 -189t165 -73q126 0 206 117v292q-84 117 -206 117z" />
    <glyph glyph-name="e.sups" horiz-adv-x="794" 
d="M406 1528q156 0 242.5 -104t86.5 -263v-47h-553q6 -107 67 -167t173 -60q132 0 211 98l86 -74q-112 -131 -299 -131q-167 0 -265 104t-98 269q0 164 96.5 269.5t252.5 105.5zM401 1423q-93 0 -153 -60t-66 -153h430q-6 95 -62 154t-149 59z" />
    <glyph glyph-name="f.sups" horiz-adv-x="534" 
d="M414 1884q95 0 155 -51l-51 -100q-38 41 -98 41q-56 0 -87.5 -39.5t-31.5 -102.5v-119h197v-108h-197v-610h-125v610h-135v108h135v113q0 112 65.5 185t172.5 73z" />
    <glyph glyph-name="g.sups" horiz-adv-x="872" 
d="M383 1528q155 0 244 -105l4 90h114v-702q0 -166 -99.5 -263t-264.5 -97q-201 0 -324 149l82 82q96 -121 242 -121q108 0 172.5 67.5t64.5 180.5v80q-88 -96 -235 -96q-142 0 -234 104t-92 264t92 263.5t234 103.5zM412 1421q-100 0 -165 -72.5t-65 -187.5
q0 -116 64.5 -188t165.5 -72q124 0 206 115v289q-83 116 -206 116z" />
    <glyph glyph-name="h.sups" horiz-adv-x="858" 
d="M252 1884v-461q88 105 225 105q129 0 201 -83.5t72 -223.5v-426h-127v419q0 88 -46.5 141.5t-127.5 53.5q-63 0 -109 -29.5t-88 -85.5v-499h-125v1089h125z" />
    <glyph glyph-name="i.sups" horiz-adv-x="376" 
d="M188 1831q37 0 60.5 -24.5t23.5 -61.5t-23.5 -60.5t-60.5 -23.5t-60.5 23.5t-23.5 60.5t23.5 61.5t60.5 24.5zM250 1513v-718h-123v718h123z" />
    <glyph glyph-name="j.sups" horiz-adv-x="391" 
d="M203 1831q37 0 61.5 -24.5t24.5 -61.5t-24.5 -60.5t-61.5 -23.5q-36 0 -60 24t-24 60q0 37 24.5 61.5t59.5 24.5zM266 1513v-808q0 -117 -81.5 -185.5t-209.5 -68.5v110q73 0 119.5 37t46.5 96v819h125z" />
    <glyph glyph-name="k.sups" horiz-adv-x="788" 
d="M252 1884v-860l323 489h152l-219 -317l258 -401h-145l-191 295l-203 -295h-100v1089h125z" />
    <glyph glyph-name="l.sups" horiz-adv-x="378" 
d="M252 1884v-1089h-125v1089h125z" />
    <glyph glyph-name="m.sups" horiz-adv-x="1327" 
d="M958 1528q123 0 193 -83.5t70 -223.5v-426h-125v419q0 87 -46 141t-122 54q-114 0 -197 -117q4 -20 4 -61v-436h-125v419q0 87 -45 141t-121 54q-111 0 -192 -113v-501h-125v718h115l2 -90q89 105 231 105q77 0 134.5 -35t90.5 -98q96 133 258 133z" />
    <glyph glyph-name="o.sups" horiz-adv-x="845" 
d="M424 1528q157 0 260.5 -107t103.5 -268t-103.5 -267t-260.5 -106q-161 0 -264 105.5t-103 267.5t103.5 268.5t263.5 106.5zM424 1417q-105 0 -173.5 -75t-68.5 -189t68 -188t174 -74q103 0 171.5 74t68.5 188t-68.5 189t-171.5 75z" />
    <glyph glyph-name="p.sups" horiz-adv-x="870" 
d="M487 1528q142 0 234 -105.5t92 -267.5q0 -163 -92 -269t-234 -106q-148 0 -235 99v-414h-125v1048h115l2 -92q90 107 243 107zM459 1417q-123 0 -207 -117v-292q78 -115 207 -115q101 0 165 72.5t64 189.5t-64 189.5t-165 72.5z" />
    <glyph glyph-name="q.sups" horiz-adv-x="870" 
d="M383 1528q154 0 244 -107l4 92h114v-1048h-127v414q-87 -99 -235 -99q-142 0 -234 106t-92 269q0 162 92 267.5t234 105.5zM412 1417q-100 0 -165 -73t-65 -189t65 -189t165 -73q128 0 206 115v292q-84 117 -206 117z" />
    <glyph glyph-name="r.sups" horiz-adv-x="493" 
d="M463 1528v-125h-14q-120 0 -197 -117v-491h-125v718h113l6 -102q73 117 217 117z" />
    <glyph glyph-name="s.sups" horiz-adv-x="675" 
d="M348 1528q137 0 240 -78l-58 -96q-79 65 -182 65q-139 0 -139 -102q0 -42 36 -63t136 -44q121 -28 175 -76.5t54 -129.5q0 -99 -77 -161.5t-203 -62.5q-164 0 -269 88l56 95q90 -76 215 -76q71 0 112 28t41 84q0 44 -36.5 66t-133.5 45q-122 28 -176.5 75t-54.5 128
q0 99 71.5 157t192.5 58z" />
    <glyph glyph-name="t.sups" horiz-adv-x="579" 
d="M289 1757v-244h231v-108h-231v-375q0 -65 35.5 -101t95.5 -36q66 0 102 25l37 -99q-53 -39 -149 -39q-114 0 -179 65t-65 185v375h-143v108h143v244h123z" />
    <glyph glyph-name="u.sups" horiz-adv-x="843" 
d="M719 1513v-718h-115l-4 88q-87 -103 -235 -103q-121 0 -188.5 82t-67.5 219v432h124v-423q0 -86 44 -138.5t118 -52.5q68 0 113.5 28t83.5 83v503h127z" />
    <glyph glyph-name="v.sups" horiz-adv-x="788" 
d="M762 1513l-365 -733h-6l-362 733h137l229 -481l228 481h139z" />
    <glyph glyph-name="w.sups" horiz-adv-x="1116" 
d="M1087 1513l-313 -733h-6l-209 475l-213 -475h-4l-313 733h137l186 -466l203 466h6l201 -466l186 466h139z" />
    <glyph glyph-name="x.sups" horiz-adv-x="729" 
d="M684 1513l-235 -354l247 -364h-147l-187 272l-184 -272h-147l248 364l-236 354h145l174 -264l179 264h143z" />
    <glyph glyph-name="y.sups" horiz-adv-x="808" 
d="M772 1513l-518 -1048h-141l225 434l-301 614h139l227 -481l230 481h139z" />
    <glyph glyph-name="z.sups" horiz-adv-x="665" 
d="M618 1513v-6l-374 -606h372v-106h-571v6l373 604h-350v108h550z" />
    <glyph glyph-name="G.smcp_I.smcp" horiz-adv-x="1228" 
d="M668 1589q169 0 305 -81.5t212.5 -224.5t76.5 -320q0 -133 -45 -249t-123.5 -198.5t-189 -130t-236.5 -47.5q-171 0 -307 81t-211.5 223.5t-75.5 320.5q0 177 75.5 320t211.5 224.5t307 81.5zM668 1491q-215 0 -354.5 -150.5t-139.5 -377.5q0 -228 139 -377.5t355 -149.5
q213 0 352 149.5t139 377.5q0 149 -63 269.5t-175.5 189.5t-252.5 69z" />
    <glyph glyph-name="zero.slash" horiz-adv-x="1200" 
d="M600 1532q247 0 382.5 -208.5t135.5 -569.5q0 -363 -135.5 -572t-382.5 -209t-382.5 209t-135.5 572q0 361 135.5 569.5t382.5 208.5zM600 1399q-179 0 -271.5 -172t-92.5 -473q0 -258 67 -420l522 960q-88 105 -225 105zM600 104q119 0 201.5 81t123 226t40.5 343
q0 257 -68 417l-522 -960q90 -107 225 -107z" />
    <glyph glyph-name="K.alt" horiz-adv-x="1325" 
d="M1214 1505l-499 -631l569 -874h-186l-486 748l-278 -342v-406h-156v1505h156v-878l700 878h180z" />
    <glyph glyph-name="Kcommaaccent.alt" horiz-adv-x="1325" 
d="M1214 1505l-499 -631l569 -874h-186l-486 748l-278 -342v-406h-156v1505h156v-878l700 878h180zM670 -111q53 0 85.5 -28t32.5 -74q0 -50 -26 -80l-123 -176h-8v352q18 6 39 6z" />
    <glyph glyph-name="M.alt" horiz-adv-x="1738" 
d="M1563 1532v-1532h-156v1116l-530 -706h-15l-528 708v-1118h-156v1532h8l684 -893l684 893h9z" />
    <glyph glyph-name="idotaccent" horiz-adv-x="454" 
d="M227 1464q45 0 76 -31t31 -77q0 -45 -31 -76t-76 -31q-46 0 -77 30.5t-31 76.5t31 77t77 31zM301 1024v-1024h-147v1024h147z" />
    <glyph glyph-name="k.alt" horiz-adv-x="1058" 
d="M307 1556v-1073l500 541h178l-360 -399l413 -625h-174l-342 516l-215 -229v-287h-149v1556h149z" />
    <glyph glyph-name="kcommaaccent.alt" horiz-adv-x="1058" 
d="M307 1556v-1073l500 541h178l-360 -399l413 -625h-174l-342 516l-215 -229v-287h-149v1556h149zM537 -111q53 0 85.5 -28t32.5 -74q0 -50 -26 -80l-123 -176h-8v352q18 6 39 6z" />
    <glyph glyph-name="f_k.alt" horiz-adv-x="1759" 
d="M545 1556q100 0 170 -45l-39 -125q-44 35 -121 35q-83 0 -131.5 -58.5t-48.5 -152.5v-186h287v-131h-287v-893h-150v893h-186v131h186v182q0 153 88 251.5t232 98.5zM1008 1556v-1073l499 541h179l-361 -399l414 -625h-174l-342 516l-215 -229v-287h-150v1556h150z" />
    </font>
</defs>
</svg>
