<?xml version="1.0" standalone="no"?>
<!DOCTYPE svg PUBLIC "-//W3C//DTD SVG 1.1//EN" "http://www.w3.org/Graphics/SVG/1.1/DTD/svg11.dtd" >
<svg xmlns="http://www.w3.org/2000/svg" xmlns:xlink="http://www.w3.org/1999/xlink" version="1.1">
<metadata>
Created by FontForge 20170731 at Mon Jun 26 21:20:06 2017
 By Aleksey,,,
Copyright (c) 2013 by Nico Inosanto. All rights reserved.
</metadata>
<defs>
<font id="Radikal-LightItalic" horiz-adv-x="529" >
  <font-face 
    font-family="Radikal Light"
    font-weight="300"
    font-style="italic"
    font-stretch="normal"
    units-per-em="1000"
    panose-1="0 0 4 0 0 0 0 0 0 0"
    ascent="800"
    descent="-200"
    x-height="500"
    cap-height="735"
    bbox="-234 -252 1224 1047"
    underline-thickness="50"
    underline-position="-200"
    slope="-10"
    unicode-range="U+0020-FB02"
  />
<missing-glyph horiz-adv-x="594" 
d="M605 699l-123 -699h-462l122 699h463zM536 658h-345l125 -274zM168 610l-92 -525l211 263zM549 609l-214 -267l120 -268zM305 306l-212 -264h332z" />
    <glyph glyph-name="fi" unicode="fi" horiz-adv-x="574" 
d="M361 760q51 0 81 -22l-33 -61q-20 17 -56 17q-41 0 -69.5 -28.5t-36.5 -74.5l-16 -91h140l-12 -64h-140l-77 -436h-73l77 436h-91l12 64h91l15 89q14 77 64.5 124t123.5 47zM544 715q21 0 33 -12.5t12 -32.5q0 -25 -18.5 -42.5t-42.5 -17.5q-21 0 -33 12.5t-12 32.5
q0 25 18 42.5t43 17.5zM543 500l-88 -500h-72l87 500h73z" />
    <glyph glyph-name="fl" unicode="fl" horiz-adv-x="570" 
d="M359 760q49 0 80 -21l-30 -62q-20 17 -56 17q-41 0 -69.5 -28.5t-36.5 -74.5l-16 -91h140l-12 -64h-140l-77 -436h-73l77 436h-91l12 64h91l15 89q14 77 64 124t122 47zM581 760l-135 -760h-73l134 760h74z" />
    <glyph glyph-name="f_j" unicode="fj" horiz-adv-x="574" 
d="M361 760q51 0 81 -22l-33 -61q-20 17 -56 17q-41 0 -69.5 -28.5t-36.5 -74.5l-16 -91h140l-12 -64h-140l-77 -436h-73l77 436h-91l12 64h91l15 89q14 77 64.5 124t123.5 47zM544 715q21 0 33 -12.5t12 -32.5q0 -25 -18.5 -42.5t-42.5 -17.5q-21 0 -33 12.5t-12 32.5
q0 25 18 42.5t43 17.5zM252 -240q-71 0 -116 40l44 55q29 -29 75 -29q43 0 74.5 27t39.5 71l101 576h73l-103 -582q-11 -69 -63.5 -113.5t-124.5 -44.5z" />
    <glyph glyph-name="f_b" unicode="fb" horiz-adv-x="927" 
d="M359 760q49 0 80 -21l-30 -62q-20 17 -56 17q-41 0 -69.5 -28.5t-36.5 -74.5l-16 -91h140l-12 -64h-140l-77 -436h-73l77 436h-91l12 64h91l15 89q14 77 64 124t122 47zM582 760l-56 -318q72 68 163 68q96 0 150 -64.5t54 -166.5q0 -115 -76 -202t-196 -87
q-58 0 -100.5 22t-63.5 54l-16 -66h-66l134 760h73zM683 444q-39 0 -72.5 -14t-50.5 -27.5t-42 -38.5l-3.5 -3.5l-3.5 -3.5l-39 -220q39 -81 145 -81q87 0 145 68t58 156q0 74 -38 119t-99 45z" />
    <glyph glyph-name="f_h" unicode="fh" horiz-adv-x="914" 
d="M359 760q49 0 80 -21l-30 -62q-20 17 -56 17q-41 0 -69.5 -28.5t-36.5 -74.5l-16 -91h140l-12 -64h-140l-77 -436h-73l77 436h-91l12 64h91l15 89q14 77 64 124t122 47zM580 760l-57 -323q73 73 171 73q90 0 131 -62.5t24 -158.5l-51 -289h-72l51 295q11 66 -13.5 105.5
t-81.5 39.5q-54 0 -93.5 -23.5t-81.5 -68.5l-61 -348h-73l134 760h73z" />
    <glyph glyph-name="f_k" unicode="fk" horiz-adv-x="859" 
d="M359 760q49 0 80 -21l-30 -62q-20 17 -56 17q-41 0 -69.5 -28.5t-36.5 -74.5l-16 -91h140l-12 -64h-140l-77 -436h-73l77 436h-91l12 64h91l15 89q14 77 64 124t122 47zM581 760l-110 -625l303 365h87l-193 -227l135 -273h-78l-108 213l-178 -213h-66l134 760h74z" />
    <glyph glyph-name=".notdef" horiz-adv-x="594" 
d="M605 699l-123 -699h-462l122 699h463zM536 658h-345l125 -274zM168 610l-92 -525l211 263zM549 609l-214 -267l120 -268zM305 306l-212 -264h332z" />
    <glyph glyph-name=".null" horiz-adv-x="0" 
 />
    <glyph glyph-name="nonmarkingreturn" horiz-adv-x="333" 
 />
    <glyph glyph-name="space" unicode=" " horiz-adv-x="241" 
 />
    <glyph glyph-name="exclam" unicode="!" horiz-adv-x="246" 
d="M240 735l-95 -541h-73l95 541h73zM91 99q22 0 35 -13.5t11 -36.5q-1 -25 -20 -42t-43 -17q-23 0 -36 13.5t-11 35.5q1 25 20.5 42.5t43.5 17.5z" />
    <glyph glyph-name="quotedbl" unicode="&#x22;" horiz-adv-x="323" 
d="M276 487l-1 144q0 58 1 64q4 21 19 35t34 14q18 0 28 -13.5t6 -35.5q-2 -14 -21 -64l-55 -144h-11zM116 487l-1 144q0 58 1 64q4 21 19 35t34 14q18 0 28.5 -14t6.5 -35q-5 -26 -22 -64l-55 -144h-11z" />
    <glyph glyph-name="numbersign" unicode="#" horiz-adv-x="707" 
d="M665 735l-75 -211h147l-11 -61h-157l-70 -198h145l-11 -62h-155l-71 -203h-73l71 203h-193l-70 -203h-74l71 203h-146l11 62h157l70 198h-146l11 61h156l75 211h72l-75 -211h194l74 211h73zM497 463h-194l-69 -198h193z" />
    <glyph glyph-name="dollar" unicode="$" horiz-adv-x="580" 
d="M316 409q109 -25 158.5 -68t52.5 -116q4 -104 -72.5 -169t-193.5 -69l-19 -116h-63l20 119q-117 14 -201 91l47 57q86 -81 206 -81q88 0 144.5 44t54.5 112q-1 49 -39 79t-119 48q-113 25 -159 66t-48 112q-4 98 67 163t181 67l21 121h63l-23 -125q96 -14 176 -79
l-43 -56q-86 69 -187 69q-77 0 -129.5 -41.5t-50.5 -107.5q1 -50 35.5 -75.5t120.5 -44.5z" />
    <glyph glyph-name="percent" unicode="%" horiz-adv-x="851" 
d="M286 748q68 0 108.5 -43.5t40.5 -110.5q0 -85 -59 -148.5t-148 -63.5q-68 0 -108.5 43t-40.5 110q0 84 59.5 148.5t147.5 64.5zM781 735l-611 -735h-69l612 735h68zM279 693q-58 0 -99.5 -46t-41.5 -107q0 -46 26 -74.5t70 -28.5q59 0 100.5 45.5t41.5 107.5
q0 45 -26.5 74t-70.5 29zM656 354q68 0 108.5 -43.5t40.5 -110.5q0 -84 -59.5 -148t-147.5 -64q-68 0 -109 43t-41 111q0 84 59.5 148t148.5 64zM649 299q-58 0 -100 -46.5t-42 -107.5q0 -45 26.5 -73.5t70.5 -28.5q58 0 100 45.5t42 107.5q0 45 -26.5 74t-70.5 29z" />
    <glyph glyph-name="ampersand" unicode="&#x26;" horiz-adv-x="674" 
d="M681 335l-179 -176l115 -159h-90l-78 109q-131 -119 -252 -119q-83 0 -136.5 47t-53.5 126q0 48 15.5 87t48.5 70.5t66.5 54.5t85.5 51q-51 76 -51 143q0 75 51 125.5t132 53.5q66 0 104 -35.5t39 -94.5q0 -30 -11 -57t-25 -46t-42 -40t-47.5 -32.5t-54.5 -31.5
q17 -21 29 -39l115 -158l124 121h95zM351 685q-48 0 -78.5 -32t-30.5 -79q0 -53 42 -115q26 14 33 18t30 18t32.5 24t23 25.5t19 32.5t5.5 36q0 72 -76 72zM203 56q40 0 80.5 18t65 37.5t60.5 52.5l-115 162q-8 11 -37 50q-39 -22 -63 -37.5t-53.5 -41.5t-44 -57.5
t-14.5 -69.5q-1 -53 33.5 -83.5t87.5 -30.5z" />
    <glyph glyph-name="quotesingle" unicode="'" horiz-adv-x="163" 
d="M116 487l-1 144q0 58 1 64q4 21 19 35t34 14q18 0 28.5 -14t6.5 -35q-5 -26 -22 -64l-55 -144h-11z" />
    <glyph glyph-name="parenleft" unicode="(" horiz-adv-x="286" 
d="M276 762l51 -44q-80 -82 -133.5 -178.5t-69.5 -228.5q-25 -207 70 -353l-58 -39q-108 167 -81 390q29 255 221 453z" />
    <glyph glyph-name="parenright" unicode=")" horiz-adv-x="286" 
d="M164 760q109 -165 83 -389q-29 -253 -221 -453l-51 44q81 84 134 179.5t68 227.5q24 206 -71 353z" />
    <glyph glyph-name="asterisk" unicode="*" horiz-adv-x="402" 
d="M306 734l-27 -139l138 46l9 -52l-140 -41l64 -110l-50 -32l-59 110l-99 -110l-39 32l103 110l-127 41l27 52l123 -46l22 139h55z" />
    <glyph glyph-name="plus" unicode="+" horiz-adv-x="475" 
d="M319 544l-29 -160h162l-13 -67h-161l-28 -162h-68l29 162h-161l12 67h161l28 160h68z" />
    <glyph glyph-name="comma" unicode="," horiz-adv-x="205" 
d="M65 105q23 0 37.5 -14.5t13.5 -37.5q-2 -19 -16 -38l-98 -164h-4l45 251q10 3 22 3z" />
    <glyph glyph-name="hyphen" unicode="-" horiz-adv-x="387" 
d="M349 299l-12 -68h-302l12 68h302z" />
    <glyph glyph-name="period" unicode="." horiz-adv-x="223" 
d="M85 106q25 0 38.5 -14.5t11.5 -38.5q-2 -26 -22 -44.5t-46 -18.5q-25 0 -38 14.5t-11 38.5q1 26 21 44.5t46 18.5z" />
    <glyph glyph-name="slash" unicode="/" horiz-adv-x="449" 
d="M526 734l-489 -734h-79l490 734h78z" />
    <glyph glyph-name="zero" unicode="0" horiz-adv-x="586" 
d="M372 748q100 0 150.5 -69.5t50.5 -193.5q0 -138 -40.5 -251.5t-115 -180t-168.5 -66.5q-100 0 -151 69.5t-51 193.5q0 211 91.5 354.5t233.5 143.5zM364 680q-71 0 -127.5 -62.5t-86 -160.5t-29.5 -209q0 -193 136 -193q71 0 128 62.5t86 160t29 208.5q0 194 -136 194z
" />
    <glyph glyph-name="one" unicode="1" horiz-adv-x="362" 
d="M361 748l-131 -748h-74l109 614l-161 -104l-31 61l284 177h4z" />
    <glyph glyph-name="two" unicode="2" horiz-adv-x="528" 
d="M346 748q85 0 135 -49t50 -129q0 -73 -34.5 -135.5t-99.5 -127.5l-235 -240h294l-11 -67h-428l1 6l322 339q55 57 86 109t31 112q0 54 -31.5 84t-84.5 30q-120 0 -171 -130l-66 17q69 181 242 181z" />
    <glyph glyph-name="three" unicode="3" horiz-adv-x="524" 
d="M347 748q82 0 129.5 -47.5t47.5 -123.5q0 -135 -138 -193q49 -18 76.5 -59.5t27.5 -96.5q0 -100 -74 -170.5t-180 -70.5q-98 0 -146.5 43t-67.5 127l68 19q14 -59 47.5 -90.5t99.5 -31.5q71 0 125.5 52t54.5 126q0 56 -37.5 90t-102.5 34h-83l12 60h83q64 0 112.5 44.5
t48.5 110.5q0 52 -30 81t-82 29q-105 0 -167 -114l-63 30q82 151 239 151z" />
    <glyph glyph-name="four" unicode="4" horiz-adv-x="546" 
d="M502 739l-91 -517h109l-12 -68h-109l-27 -154h-74l27 154h-330l1 4l501 581h5zM392 518l-257 -297h202z" />
    <glyph glyph-name="five" unicode="5" horiz-adv-x="533" 
d="M538 735l-11 -67h-298l-44 -251q60 29 120 29q88 0 140 -52.5t52 -135.5q0 -111 -75.5 -191t-189.5 -80q-90 0 -138.5 40.5t-68.5 115.5l64 27q27 -116 145 -116q76 0 132.5 59.5t56.5 138.5q0 60 -32.5 95.5t-94.5 35.5q-82 0 -156 -50l-40 18l67 384h371z" />
    <glyph glyph-name="six" unicode="6" horiz-adv-x="539" 
d="M302 465q89 0 144.5 -57t55.5 -145q0 -110 -82 -193t-197 -83q-89 0 -144.5 56.5t-55.5 144.5q0 97 66 175l318 372h88l-233 -273q20 3 40 3zM232 54q77 0 135.5 62t58.5 144q0 61 -37 99.5t-96 38.5q-77 0 -136 -62t-59 -144q0 -61 37.5 -99.5t96.5 -38.5z" />
    <glyph glyph-name="seven" unicode="7" horiz-adv-x="533" 
d="M595 735l-1 -6l-503 -729h-85l466 667h-373l11 68h485z" />
    <glyph glyph-name="eight" unicode="8" horiz-adv-x="539" 
d="M347 748q76 0 125 -45.5t49 -116.5q0 -65 -36.5 -115.5t-92.5 -79.5q39 -20 69 -61t31 -98q0 -104 -80.5 -174.5t-193.5 -70.5q-86 0 -143.5 51.5t-57.5 135.5q0 80 49 135.5t117 85.5q-69 39 -69 133q0 89 69.5 154.5t163.5 65.5zM340 685q-62 0 -109.5 -45t-47.5 -109
q-1 -49 29.5 -80.5t79.5 -31.5q60 0 108.5 47t48.5 110q0 49 -29.5 79t-79.5 30zM280 357q-70 0 -129 -51.5t-59 -122.5q0 -59 37.5 -96t95.5 -37q74 0 133 52t59 128q0 56 -38.5 91.5t-98.5 35.5z" />
    <glyph glyph-name="nine" unicode="9" horiz-adv-x="539" 
d="M350 748q89 0 144 -56.5t55 -144.5q0 -96 -65 -175l-318 -372h-89l234 273q-20 -3 -40 -3q-89 0 -144.5 57t-55.5 145q0 110 82 193t197 83zM280 337q77 0 135.5 62t58.5 144q0 61 -37 99.5t-96 38.5q-77 0 -136 -62t-59 -144q0 -61 37.5 -99.5t96.5 -38.5z" />
    <glyph glyph-name="colon" unicode=":" horiz-adv-x="219" 
d="M156 510q23 0 36 -14.5t11 -37.5q-1 -25 -21 -42.5t-44 -17.5t-37 13.5t-11 36.5q1 25 21 43.5t45 18.5zM83 102q23 0 36 -14t12 -37q-2 -26 -21.5 -43.5t-44.5 -17.5q-23 0 -36 14t-11 37q1 25 20.5 43t44.5 18z" />
    <glyph glyph-name="semicolon" unicode=";" horiz-adv-x="219" 
d="M156 510q22 0 35 -14t11 -36q-1 -26 -20.5 -44t-45.5 -18q-22 0 -35.5 14t-11.5 36q2 25 22 43.5t45 18.5zM66 105q24 0 38 -14.5t13 -37.5q-1 -18 -16 -38l-98 -164h-3l44 251q10 3 22 3z" />
    <glyph glyph-name="less" unicode="&#x3c;" horiz-adv-x="377" 
d="M384 538l-238 -195l168 -189h-92l-168 193l1 4l229 187h100z" />
    <glyph glyph-name="equal" unicode="=" horiz-adv-x="474" 
d="M469 496l-12 -68h-389l12 68h389zM429 271l-11 -68h-389l11 68h389z" />
    <glyph glyph-name="greater" unicode="&#x3e;" horiz-adv-x="377" 
d="M181 538l169 -193l-1 -4l-229 -187h-100l237 195l-167 189h91z" />
    <glyph glyph-name="question" unicode="?" horiz-adv-x="473" 
d="M306 748q82 0 130.5 -47.5t48.5 -123.5q0 -50 -20.5 -90.5t-51.5 -67.5t-62 -50.5t-56 -52.5t-31 -60l-11 -62h-75l14 69q7 41 32 75.5t55.5 58.5t60 48.5t49 57.5t19.5 73q1 50 -29 77.5t-79 27.5q-110 0 -155 -117l-72 15q31 81 90.5 125t142.5 44zM198 99
q23 0 35.5 -14t10.5 -36q-1 -25 -20 -42t-43 -17q-23 0 -35.5 13.5t-10.5 35.5q1 25 20 42.5t43 17.5z" />
    <glyph glyph-name="at" unicode="@" horiz-adv-x="833" 
d="M473 627q149 0 238.5 -89t89.5 -227q0 -45 -11 -92.5t-33 -93t-62 -74t-91 -28.5q-72 0 -78 61l-1 7q-60 -68 -150 -68q-79 0 -127 50t-48 127q0 101 65.5 179.5t167.5 78.5q95 0 134 -66l13 57h58l-58 -328q-9 -44 34 -44q44 0 75 39t43 89.5t12 104.5
q0 120 -73.5 191.5t-199.5 71.5q-157 0 -275 -115.5t-118 -276.5q-2 -122 70.5 -195.5t194.5 -73.5q77 0 142 24l9 -50q-78 -27 -151 -27q-147 0 -234 88.5t-87 232.5q0 118 60 221t164.5 164.5t226.5 61.5zM438 402q-76 0 -125.5 -58t-49.5 -138q0 -58 32 -92.5t86 -34.5
q80 0 142 74l31 181q-38 68 -116 68z" />
    <glyph glyph-name="A" unicode="A" horiz-adv-x="684" 
d="M430 748l197 -748h-77l-46 173h-345l-105 -173h-87l459 748h4zM401 574l-200 -334h285z" />
    <glyph glyph-name="B" unicode="B" horiz-adv-x="656" 
d="M412 735q98 0 148.5 -45.5t50.5 -120.5q0 -63 -33 -113t-88 -74q121 -31 121 -146q0 -113 -79.5 -174.5t-197.5 -61.5h-297l129 735h246zM394 665h-165l-46 -255h177q69 0 121 41.5t52 109.5q0 104 -139 104zM372 341h-201l-48 -271h215q82 0 140 42t58 124
q0 105 -164 105z" />
    <glyph glyph-name="C" unicode="C" horiz-adv-x="691" 
d="M470 748q154 0 249 -110l-51 -51q-74 91 -199 91q-144 0 -244 -106t-96 -261q1 -117 69.5 -185.5t176.5 -68.5q129 0 229 89l42 -58q-111 -101 -272 -101q-142 0 -230.5 88t-91.5 234q-4 180 118.5 309.5t299.5 129.5z" />
    <glyph glyph-name="D" unicode="D" horiz-adv-x="734" 
d="M367 735q163 0 255 -83t92 -228q0 -188 -125.5 -306t-329.5 -118h-222l129 735h201zM363 665h-133l-105 -595h143q161 -3 265.5 96.5t104.5 258.5q0 115 -70.5 177.5t-204.5 62.5z" />
    <glyph glyph-name="E" unicode="E" horiz-adv-x="578" 
d="M611 735l-12 -70h-369l-45 -258h326l-14 -69h-325l-47 -268h377l-12 -70h-453l129 735h445z" />
    <glyph glyph-name="F" unicode="F" horiz-adv-x="532" 
d="M595 735l-11 -70h-354l-47 -268h302l-13 -69h-302l-57 -328h-76l129 735h429z" />
    <glyph glyph-name="G" unicode="G" horiz-adv-x="740" 
d="M471 748q155 0 249 -109l-52 -52q-74 91 -200 91q-140 0 -235.5 -98.5t-101.5 -245.5q-7 -124 62 -200.5t187 -76.5t197 60l34 189h-201l11 67h278l-52 -293q-107 -93 -271 -93q-153 0 -240.5 95.5t-81.5 249.5q7 173 126.5 294.5t290.5 121.5z" />
    <glyph glyph-name="H" unicode="H" horiz-adv-x="724" 
d="M717 735l-129 -735h-76l60 341h-399l-60 -341h-76l129 735h76l-57 -324h399l57 324h76z" />
    <glyph glyph-name="I" unicode="I" horiz-adv-x="249" 
d="M242 735l-129 -735h-76l129 735h76z" />
    <glyph glyph-name="J" unicode="J" horiz-adv-x="526" 
d="M523 735l-94 -534q-18 -101 -82.5 -157.5t-161.5 -56.5q-90 0 -144.5 61.5t-35.5 166.5h73q-13 -73 18.5 -115.5t93.5 -42.5q64 0 107.5 39.5t56.5 111.5l93 527h76z" />
    <glyph glyph-name="K" unicode="K" horiz-adv-x="637" 
d="M671 735l-279 -360l183 -375h-85l-147 312l-242 -312h-64l129 735h76l-101 -573l439 573h91z" />
    <glyph glyph-name="L" unicode="L" horiz-adv-x="545" 
d="M242 735l-118 -667h369l-12 -68h-444l129 735h76z" />
    <glyph glyph-name="M" unicode="M" horiz-adv-x="865" 
d="M860 748l-131 -748h-76l82 478l-350 -482h-6l-180 499l-86 -495h-76l131 748h4l230 -612l454 612h4z" />
    <glyph glyph-name="N" unicode="N" horiz-adv-x="725" 
d="M173 748l371 -577l98 564h76l-132 -748h-4l-369 576l-100 -563h-76l132 748h4z" />
    <glyph glyph-name="O" unicode="O" horiz-adv-x="812" 
d="M469 748q146 0 234.5 -96t88.5 -244q0 -110 -53 -206t-149.5 -155.5t-212.5 -59.5q-146 0 -234.5 95.5t-88.5 244.5q0 110 53 206t149 155.5t213 59.5zM463 678q-138 0 -235.5 -105.5t-97.5 -246.5q0 -121 69 -195t184 -74q138 0 235 105.5t97 246.5q0 121 -68.5 195
t-183.5 74z" />
    <glyph glyph-name="P" unicode="P" horiz-adv-x="601" 
d="M397 735q99 0 160 -51t62 -138q0 -120 -84.5 -192t-213.5 -72h-159l-49 -282h-76l129 735h231zM384 668h-153l-57 -319h152q93 0 154.5 50t61.5 142q0 61 -42 94t-116 33z" />
    <glyph glyph-name="Q" unicode="Q" horiz-adv-x="812" 
d="M792 408q0 -93 -40 -178.5t-111 -145.5l126 -185h-89l-97 143q-93 -55 -204 -55q-146 0 -234.5 95.5t-88.5 244.5q0 110 53 206t149 155.5t213 59.5q146 0 234.5 -96t88.5 -244zM383 57q84 0 158 44l-89 130l59 45l89 -131q54 49 84.5 118.5t30.5 145.5q0 121 -68.5 195
t-183.5 74q-138 0 -235.5 -105.5t-97.5 -246.5q0 -121 69 -195t184 -74z" />
    <glyph glyph-name="R" unicode="R" horiz-adv-x="615" 
d="M609 546q0 -92 -54 -155.5t-142 -87.5l137 -303h-82l-131 290q-5 0 -14 -0.5t-13 -0.5h-147l-50 -289h-76l129 735h213q103 0 166.5 -50.5t63.5 -138.5zM175 358h140q90 0 153.5 47.5t63.5 136.5q-1 61 -43.5 93t-118.5 32h-139z" />
    <glyph glyph-name="S" unicode="S" horiz-adv-x="580" 
d="M340 748q130 0 230 -83l-43 -56q-86 69 -187 69q-77 0 -129.5 -41.5t-50.5 -107.5q1 -50 35.5 -75.5t120.5 -44.5q109 -25 158.5 -68t52.5 -116q4 -108 -76 -173t-202 -65q-148 0 -251 94l47 57q86 -81 206 -81q88 0 144.5 44t54.5 112q-1 49 -39 79t-119 48
q-113 25 -159 66t-48 112q-4 100 69 165t186 65z" />
    <glyph glyph-name="T" unicode="T" horiz-adv-x="638" 
d="M699 735l-11 -68h-268l-117 -667h-76l117 667h-267l11 68h611z" />
    <glyph glyph-name="U" unicode="U" horiz-adv-x="698" 
d="M699 735l-84 -479q-22 -127 -102.5 -198t-209.5 -71q-130 0 -191.5 73.5t-38.5 201.5l83 473h76l-83 -475q-17 -96 22.5 -149.5t136.5 -53.5q94 0 154 54.5t78 148.5l83 475h76z" />
    <glyph glyph-name="V" unicode="V" horiz-adv-x="713" 
d="M771 735l-474 -747h-4l-211 747h79l158 -579l364 579h88z" />
    <glyph glyph-name="W" unicode="W" horiz-adv-x="969" 
d="M1023 735l-406 -747h-4l-92 549l-286 -549h-4l-144 747h76l101 -551l284 551h4l93 -548l289 548h89z" />
    <glyph glyph-name="X" unicode="X" horiz-adv-x="656" 
d="M701 735l-315 -365l193 -370h-87l-165 320l-276 -320h-93l326 378l-184 357h87l158 -307l263 307h93z" />
    <glyph glyph-name="Y" unicode="Y" horiz-adv-x="630" 
d="M697 735l-348 -419l-55 -316h-76l55 315l-201 420h84l163 -343l284 343h94z" />
    <glyph glyph-name="Z" unicode="Z" horiz-adv-x="573" 
d="M613 735v-4l-497 -661h392l-13 -70h-515v4l497 661h-365l12 70h489z" />
    <glyph glyph-name="bracketleft" unicode="[" horiz-adv-x="305" 
d="M352 769l-10 -62h-144l-127 -736h143l-11 -62h-213l148 860h214z" />
    <glyph glyph-name="backslash" unicode="\" horiz-adv-x="449" 
d="M152 734l239 -734h-72l-238 734h71z" />
    <glyph glyph-name="bracketright" unicode="]" horiz-adv-x="313" 
d="M341 769l-149 -860h-222l11 62h151l127 736h-152l11 62h223z" />
    <glyph glyph-name="asciicircum" unicode="^" horiz-adv-x="536" 
d="M355 760l194 -298h-65l-139 214l-214 -214h-74z" />
    <glyph glyph-name="underscore" unicode="_" horiz-adv-x="803" 
d="M721 0l-12 -67h-720l12 67h720z" />
    <glyph glyph-name="grave" unicode="`" horiz-adv-x="275" 
d="M171 701l124 -123h-75l-137 123h88z" />
    <glyph glyph-name="a" unicode="a" horiz-adv-x="576" 
d="M302 510q111 0 162 -76l13 66h67l-88 -500h-66l10 64q-70 -74 -166 -74q-95 0 -148 64t-53 166q0 116 75 203t194 87zM306 444q-87 0 -143 -68t-56 -156q0 -74 36.5 -119t97.5 -45q40 0 75.5 16.5t49.5 29.5t44 45l38 216q-39 81 -142 81z" />
    <glyph glyph-name="b" unicode="b" horiz-adv-x="585" 
d="M240 760l-56 -318q72 68 164 68q95 0 149 -64.5t54 -166.5q0 -115 -75.5 -202t-195.5 -87q-59 0 -101.5 22t-63.5 54l-15 -66h-66l133 760h73zM341 444q-13 0 -25.5 -1.5t-22 -3.5t-21 -7t-18.5 -7.5t-17.5 -10t-15 -10.5t-14.5 -12t-13 -11.5t-13 -12t-12 -11.5
l-39 -220q39 -81 145 -81q87 0 145 68t58 156q0 74 -38 119t-99 45z" />
    <glyph glyph-name="c" unicode="c" horiz-adv-x="506" 
d="M317 510q126 0 183 -110l-55 -37q-42 82 -132 82q-89 0 -147.5 -66t-58.5 -161q0 -76 37.5 -119.5t113.5 -43.5q94 0 158 82l48 -44q-82 -103 -210 -103q-107 0 -163.5 62.5t-56.5 163.5q0 125 81.5 209.5t201.5 84.5z" />
    <glyph glyph-name="d" unicode="d" horiz-adv-x="585" 
d="M597 760l-134 -760h-67l11 64q-70 -74 -170 -74q-96 0 -150 64t-54 166q0 116 76 203t196 87q57 0 100 -21.5t63 -50.5l56 322h73zM309 444q-87 0 -144.5 -68t-57.5 -156q0 -74 37.5 -119t99.5 -45q25 0 48.5 6.5t38 12.5t35 22t26.5 21.5t25 24.5l38 220q-39 81 -146 81
z" />
    <glyph glyph-name="e" unicode="e" 
d="M303 510q106 0 158.5 -73.5t34.5 -182.5l-4 -30h-385q-5 -78 33 -125t115 -47q95 0 163 71l45 -44q-86 -89 -213 -89q-103 0 -159.5 60t-56.5 159q0 121 74 211t195 90zM299 446q-72 0 -120.5 -46t-62.5 -117h312q10 73 -24 118t-105 45z" />
    <glyph glyph-name="f" unicode="f" horiz-adv-x="343" 
d="M359 760q63 0 99 -41l-37 -53q-23 28 -65 28q-43 0 -72 -28.5t-37 -74.5l-16 -91h140l-12 -64h-140l-77 -436h-73l77 436h-91l12 64h91l16 90q14 80 62.5 125t122.5 45z" />
    <glyph glyph-name="g" unicode="g" horiz-adv-x="583" 
d="M305 510q57 0 100 -21.5t63 -50.5l17 62h67l-88 -498q-19 -112 -93.5 -177t-180.5 -65q-141 0 -211 104l53 44q55 -82 157 -82q80 0 134 48t69 132l11 61q-69 -71 -166 -71q-96 0 -150 61.5t-54 162.5q0 116 76 203t196 87zM309 444q-87 0 -144.5 -68t-57.5 -156
q0 -74 37.5 -116.5t99.5 -42.5q41 0 76 15.5t53 31.5t44 45l38 210q-39 81 -146 81z" />
    <glyph glyph-name="h" unicode="h" horiz-adv-x="571" 
d="M237 760l-56 -323q73 73 170 73q91 0 131.5 -62.5t23.5 -158.5l-50 -289h-73l52 295q11 66 -14 105.5t-82 39.5q-54 0 -93.5 -23.5t-80.5 -68.5l-62 -348h-72l134 760h72z" />
    <glyph glyph-name="i" unicode="i" horiz-adv-x="221" 
d="M191 715q21 0 33 -12.5t12 -32.5q0 -25 -18.5 -42.5t-42.5 -17.5q-21 0 -33 12.5t-12 32.5q0 25 18 42.5t43 17.5zM190 500l-87 -500h-73l88 500h72z" />
    <glyph glyph-name="j" unicode="j" horiz-adv-x="227" 
d="M197 715q21 0 33 -12.5t12 -32.5q0 -25 -18.5 -42.5t-42.5 -17.5q-21 0 -33 12.5t-12 32.5q0 25 18 42.5t43 17.5zM-95 -240q-71 0 -116 40l44 55q31 -29 75 -29q43 0 74.5 27t39.5 71l102 576h72l-103 -582q-11 -69 -63.5 -113.5t-124.5 -44.5z" />
    <glyph glyph-name="k" unicode="k" horiz-adv-x="517" 
d="M238 760l-110 -625l303 365h88l-193 -227l135 -273h-78l-108 213l-178 -213h-66l134 760h73z" />
    <glyph glyph-name="l" unicode="l" horiz-adv-x="228" 
d="M238 760l-135 -760h-72l134 760h73z" />
    <glyph glyph-name="m" unicode="m" horiz-adv-x="903" 
d="M688 510q89 0 128 -62.5t22 -158.5l-51 -289h-73l52 295q12 66 -11 105.5t-79 39.5q-96 0 -175 -98q-2 -36 -5 -53l-51 -289h-73l52 295q12 66 -11 105.5t-79 39.5q-53 0 -91 -22.5t-79 -67.5l-61 -350h-73l88 500h66l-8 -67q72 77 169 77q116 0 147 -102q87 102 196 102
z" />
    <glyph glyph-name="n" unicode="n" horiz-adv-x="571" 
d="M350 510q91 0 131.5 -62.5t24.5 -158.5l-51 -289h-73l52 295q11 66 -13.5 105.5t-81.5 39.5q-55 0 -94.5 -23.5t-80.5 -68.5l-61 -348h-73l88 500h66l-8 -67q72 77 174 77z" />
    <glyph glyph-name="o" unicode="o" horiz-adv-x="577" 
d="M318 510q101 0 163 -65t62 -165q0 -118 -81.5 -204t-202.5 -86q-101 0 -163 65t-62 165q0 117 81.5 203.5t202.5 86.5zM313 444q-85 0 -145 -66t-60 -157q0 -73 43 -119t114 -46q85 0 144.5 66t59.5 156q0 74 -42.5 120t-113.5 46z" />
    <glyph glyph-name="p" unicode="p" horiz-adv-x="581" 
d="M344 510q95 0 149 -64.5t54 -166.5q0 -115 -75.5 -202t-195.5 -87q-58 0 -101 21.5t-62 50.5l-51 -292h-73l129 730h66l-10 -64q70 74 170 74zM334 444q-30 0 -55.5 -7t-48 -23t-34 -26.5t-32.5 -32.5l-38 -218q38 -81 148 -81q86 0 143 68t57 156q0 74 -38 119t-102 45z
" />
    <glyph glyph-name="q" unicode="q" horiz-adv-x="583" 
d="M306 510q58 0 100.5 -22t63.5 -54l16 66h66l-129 -730h-73l51 288q-70 -68 -163 -68q-96 0 -150 64t-54 166q0 116 76 203t196 87zM310 444q-88 0 -145.5 -68t-57.5 -156q0 -74 37.5 -119t100.5 -45q31 0 57 7t48.5 22.5t34.5 26.5t32 32l39 219q-39 81 -146 81z" />
    <glyph glyph-name="r" unicode="r" horiz-adv-x="311" 
d="M340 510l-13 -73h-7q-81 0 -156 -88l-61 -349h-73l88 500h66l-7 -65q65 75 163 75z" />
    <glyph glyph-name="s" unicode="s" horiz-adv-x="445" 
d="M255 510q98 0 166 -57l-39 -54q-55 46 -127 46q-53 0 -85.5 -22t-31.5 -64q1 -30 21.5 -44t74.5 -27q83 -21 116.5 -50.5t35.5 -78.5q3 -77 -57.5 -123t-147.5 -46q-114 0 -180 61l41 57q62 -54 147 -54q49 0 87 24.5t37 70.5q-1 28 -24 44t-79 30q-77 19 -110.5 47.5
t-34.5 79.5q-3 71 52.5 115.5t137.5 44.5z" />
    <glyph glyph-name="t" unicode="t" horiz-adv-x="385" 
d="M250 670l-30 -170h165l-12 -64h-165l-48 -277q-18 -102 72 -102q49 0 78 17l19 -61q-36 -23 -106 -23q-73 0 -111 46t-24 127l47 273h-101l12 64h101l30 170h73z" />
    <glyph glyph-name="u" unicode="u" horiz-adv-x="558" 
d="M527 500l-88 -500h-67l9 66q-74 -76 -171 -76q-86 0 -126 62t-23 157l51 291h73l-53 -297q-11 -65 12.5 -104.5t77.5 -39.5t91.5 23t79.5 68l61 350h73z" />
    <glyph glyph-name="v" unicode="v" horiz-adv-x="521" 
d="M548 500l-338 -510h-4l-158 510h72l109 -366l238 366h81z" />
    <glyph glyph-name="w" unicode="w" horiz-adv-x="755" 
d="M782 500l-303 -510h-4l-87 350l-213 -350h-4l-123 510h71l80 -352l210 352h4l84 -352l206 352h79z" />
    <glyph glyph-name="x" unicode="x" horiz-adv-x="483" 
d="M496 500l-213 -252l131 -248h-84l-104 203l-171 -203h-87l222 261l-127 239h83l99 -197l165 197h86z" />
    <glyph glyph-name="y" unicode="y" 
d="M554 500l-482 -730h-83l201 293l-137 437h73l110 -363l238 363h80z" />
    <glyph glyph-name="z" unicode="z" horiz-adv-x="440" 
d="M461 500l-1 -4l-348 -433h272l-10 -63h-391l1 4l346 432h-255l10 64h376z" />
    <glyph glyph-name="braceleft" unicode="{" horiz-adv-x="342" 
d="M395 769l-11 -62q-59 0 -100 -35.5t-46 -111.5l-6 -98q-5 -96 -80 -126q32 -14 40.5 -42t-4.5 -83l-25 -98q-37 -142 94 -142l-11 -62q-208 0 -149 223l25 97q13 48 -7.5 73.5t-72.5 37.5l1 4q114 26 119 112l5 96q6 110 67.5 163.5t160.5 53.5z" />
    <glyph glyph-name="bar" unicode="|" horiz-adv-x="228" 
d="M224 699l-145 -820h-71l145 820h71z" />
    <glyph glyph-name="braceright" unicode="}" horiz-adv-x="342" 
d="M123 769q210 0 150 -223l-26 -97q-13 -48 7.5 -73.5t71.5 -37.5l-1 -4q-114 -26 -118 -112l-5 -96q-6 -110 -66.5 -163.5t-160.5 -53.5l11 62q59 0 99.5 35.5t45.5 111.5l6 98q6 97 81 126q-33 14 -42 42t5 83l26 98q37 142 -95 142z" />
    <glyph glyph-name="asciitilde" unicode="~" horiz-adv-x="606" 
d="M220 432q37 0 65 -14t42.5 -31t38.5 -31t52 -14q77 0 123 84l47 -34q-66 -118 -177 -118q-37 0 -64.5 14t-41.5 31t-37 31t-51 14q-72 0 -119 -85l-50 34q66 119 172 119z" />
    <glyph glyph-name="exclamdown" unicode="&#xa1;" horiz-adv-x="246" 
d="M144 397q-22 0 -35 13.5t-11 36.5q1 25 20 42t43 17q23 0 35.5 -13.5t10.5 -35.5q-1 -24 -20 -42t-43 -18zM-5 -239l95 541h73l-95 -541h-73z" />
    <glyph glyph-name="cent" unicode="&#xa2;" horiz-adv-x="505" 
d="M258 55q94 0 158 82l48 -44q-78 -97 -198 -103l-24 -134h-63l25 138q-83 15 -126.5 74.5t-43.5 147.5q0 119 74.5 202t186.5 91l23 128h62l-23 -131q97 -16 143 -106l-55 -37q-42 82 -132 82q-89 0 -147.5 -66t-58.5 -161q0 -76 37.5 -119.5t113.5 -43.5z" />
    <glyph glyph-name="sterling" unicode="&#xa3;" horiz-adv-x="569" 
d="M315 67q60 0 93 28.5t45 93.5h72q-33 -189 -210 -189h-331v4q3 4 18.5 24.5t20.5 27.5t19.5 27.5t20 31t17.5 31t17 34.5t13 34.5t11 38t5.5 38t1.5 41.5v6h-79l11 61h65q-3 63 3 109q14 110 79.5 175t163.5 65q75 0 121.5 -40.5t58.5 -99.5l-73 -22q-8 44 -37 69.5
t-77 25.5q-68 0 -109 -46t-53 -124q-6 -47 -3 -112h191l-11 -61h-177q2 -39 -1 -68q-15 -92 -90 -203h204z" />
    <glyph glyph-name="currency" unicode="&#xa4;" horiz-adv-x="645" 
d="M600 548l43 -51l-142 -123q20 -34 20 -79q0 -85 -60 -152l97 -123l-52 -41l-98 123q-54 -35 -115 -35q-65 0 -106 36l-145 -124l-42 51l146 126q-18 32 -18 75q0 87 59 153l-96 122l51 42l97 -123q55 37 117 37q60 0 102 -37zM350 404q-64 0 -110.5 -50t-46.5 -120
q0 -49 28.5 -79.5t77.5 -30.5q63 0 110.5 49.5t47.5 118.5q0 50 -29.5 81t-77.5 31z" />
    <glyph glyph-name="yen" unicode="&#xa5;" horiz-adv-x="640" 
d="M697 735l-311 -371h136l-10 -57h-165l-15 -89h164l-9 -57h-165l-28 -161h-76l28 161h-163l9 57h164l15 89h-163l10 57h133l-179 371h84l163 -343l284 343h94z" />
    <glyph glyph-name="brokenbar" unicode="&#xa6;" horiz-adv-x="228" 
d="M224 699l-55 -308h-71l55 308h71zM134 187l-55 -308h-71l55 308h71z" />
    <glyph glyph-name="section" unicode="&#xa7;" horiz-adv-x="414" 
d="M291 748q86 0 137 -54l-45 -44q-34 36 -94 36q-48 0 -85 -30t-37 -77q-1 -52 61 -73q11 -4 37 -9.5t40 -11.5q40 -16 64 -52t24 -81q0 -55 -32 -98.5t-89 -69.5q59 -31 59 -99q0 -75 -63 -126t-144 -51q-99 0 -148 66l48 43q37 -47 105 -47q51 0 92.5 31t41.5 81
q0 26 -14 41.5t-44 27.5q-11 4 -32 7.5t-30 6.5q-49 11 -77 49t-28 88q0 57 33 102.5t88 67.5q-62 33 -62 104q0 72 58.5 122t135.5 50zM235 436q-54 0 -92.5 -38t-38.5 -94q0 -39 24.5 -61t67.5 -22q52 0 91.5 37t39.5 92q0 40 -25 63t-67 23z" />
    <glyph glyph-name="dieresis" unicode="&#xa8;" horiz-adv-x="296" 
d="M132 683q17 0 28 -11t11 -29q0 -22 -16 -37t-38 -15q-18 0 -28.5 11t-10.5 29q0 22 15.5 37t38.5 15zM292 683q18 0 28.5 -11t10.5 -29q0 -21 -16 -36.5t-37 -15.5q-19 0 -29.5 11t-10.5 29q0 22 15.5 37t38.5 15z" />
    <glyph glyph-name="copyright" unicode="&#xa9;" horiz-adv-x="810" 
d="M478 748q141 0 226 -88.5t85 -226.5q0 -115 -55 -217t-156 -165.5t-222 -63.5q-141 0 -225.5 88t-84.5 226q0 115 55 217.5t155.5 166t221.5 63.5zM474 696q-152 0 -263.5 -117.5t-111.5 -271.5q0 -124 70 -197t192 -73q151 0 262 118t111 272q0 124 -69.5 196.5
t-190.5 72.5zM460 585q88 0 139 -64l-42 -40q-34 45 -102 45q-74 0 -127 -56.5t-53 -134.5q0 -57 33 -90.5t88 -33.5q70 0 122 50l33 -48q-63 -60 -160 -60q-80 0 -129 51t-49 131q0 102 71.5 176t175.5 74z" />
    <glyph glyph-name="ordfeminine" unicode="&#xaa;" horiz-adv-x="425" 
d="M272 746q79 0 110 -51l10 44h56l-61 -351h-56l5 45q-50 -52 -122 -52q-64 0 -102 46t-33 114q5 88 61 146.5t132 58.5zM277 692q-54 0 -93 -41t-43 -104q-4 -50 20.5 -81t68.5 -31q64 0 115 60l25 148q-31 49 -93 49z" />
    <glyph glyph-name="guillemotleft" unicode="&#xab;" horiz-adv-x="499" 
d="M287 458l-181 -204l109 -200h-69l-112 203v4l178 197h75zM504 458l-181 -204l108 -200h-69l-111 203l1 4l177 197h75z" />
    <glyph glyph-name="logicalnot" unicode="&#xac;" horiz-adv-x="565" 
d="M551 424l-47 -263h-54l37 211h-437l10 52h491z" />
    <glyph glyph-name="registered" unicode="&#xae;" horiz-adv-x="651" 
d="M403 772q112 0 179 -70.5t67 -181.5q0 -142 -101.5 -249.5t-248.5 -107.5q-112 0 -179 70.5t-67 181.5q0 142 101.5 249.5t248.5 107.5zM306 212q118 0 204.5 91.5t86.5 211.5q0 96 -54 152.5t-147 56.5q-119 0 -205.5 -92t-86.5 -212q0 -96 54 -152t148 -56zM378 638
q49 0 80.5 -26t27.5 -71q-3 -39 -27 -67t-61 -41l61 -134h-56l-55 125h-3h-63l-21 -125h-52l59 339h110zM434 541q3 49 -66 49h-57l-20 -119h57q34 0 59.5 17.5t26.5 52.5z" />
    <glyph glyph-name="macron" unicode="&#xaf;" horiz-adv-x="296" 
d="M333 652l-10 -53h-252l10 53h252z" />
    <glyph glyph-name="degree" unicode="&#xb0;" horiz-adv-x="332" 
d="M246 747q54 0 85.5 -33.5t27.5 -84.5q-4 -61 -49 -104t-108 -43q-55 0 -86.5 33t-27.5 84q4 62 49.5 105t108.5 43zM239 697q-39 0 -68 -28t-30 -69q-1 -30 17.5 -49t49.5 -19q39 0 68 27.5t30 68.5q2 30 -17 49.5t-50 19.5z" />
    <glyph glyph-name="plusminus" unicode="&#xb1;" horiz-adv-x="474" 
d="M335 640l-28 -160h161l-12 -67h-161l-28 -162h-68l29 162h-161l12 67h160l28 160h68zM414 170l-12 -67h-388l11 67h389z" />
    <glyph glyph-name="two.sups" unicode="&#xb2;" horiz-adv-x="345" 
d="M276 821q53 0 84 -29t31 -76q0 -69 -80 -147l-124 -123h161l-9 -52h-264l1 4l192 200q65 63 65 113q0 26 -17 42t-44 16q-66 0 -95 -71l-52 14q41 109 151 109z" />
    <glyph glyph-name="three.sups" unicode="&#xb3;" horiz-adv-x="342" 
d="M275 821q51 0 80 -28.5t29 -73.5q0 -36 -20.5 -65t-54.5 -43q55 -21 55 -80t-47.5 -102t-112.5 -43q-110 0 -126 104l51 11q13 -62 78 -62q41 0 70.5 26.5t29.5 65.5q0 26 -20 42.5t-56 16.5h-48l8 45h50q35 0 60.5 23t25.5 57q0 25 -16.5 39t-43.5 14q-62 0 -92 -59
l-48 23q50 89 148 89z" />
    <glyph glyph-name="acute" unicode="&#xb4;" horiz-adv-x="275" 
d="M323 701l-174 -123h-83l155 123h102z" />
    <glyph glyph-name="mu" unicode="&#xb5;" horiz-adv-x="581" 
d="M542 500l-88 -500h-67l9 67q-79 -77 -173 -77q-78 0 -102 64l-50 -284h-72l127 730h73l-53 -300q-11 -64 14.5 -102.5t82.5 -38.5q49 0 86 21.5t77 63.5l63 356h73z" />
    <glyph glyph-name="paragraph" unicode="&#xb6;" horiz-adv-x="672" 
d="M722 735l-11 -60h-92l-139 -785h-63l138 785h-113l-138 -785h-64l74 417h-3q-116 0 -182.5 52t-53.5 150q13 110 99 168t212 58h336z" />
    <glyph glyph-name="periodcentered" unicode="&#xb7;" horiz-adv-x="191" 
d="M104 310q23 0 35.5 -15.5t8.5 -38.5q-4 -22 -22 -37.5t-41 -15.5t-36 15t-8 38q4 23 22 38.5t41 15.5z" />
    <glyph glyph-name="cedilla" unicode="&#xb8;" horiz-adv-x="243" 
d="M54 11l42 -3l-28 -60q35 -3 58 -24.5t22 -54.5q0 -46 -33 -72.5t-84 -26.5q-59 0 -94 42l33 32q25 -28 62 -28q27 0 45 13t18 37q0 33 -37 41q-25 3 -48 -3l-3 4z" />
    <glyph glyph-name="one.sups" unicode="&#xb9;" horiz-adv-x="251" 
d="M295 821l-79 -427h-58l62 330l-88 -52l-20 49l181 100h2z" />
    <glyph glyph-name="ordmasculine" unicode="&#xba;" horiz-adv-x="413" 
d="M288 746q77 0 118.5 -52t27.5 -131q-13 -79 -73 -130.5t-137 -51.5q-78 0 -119.5 51.5t-27.5 130.5t73.5 131t137.5 52zM279 692q-51 0 -90.5 -36.5t-50.5 -92.5q-9 -56 17.5 -92t77.5 -36t90 36t50 92q10 56 -17 92.5t-77 36.5z" />
    <glyph glyph-name="guillemotright" unicode="&#xbb;" horiz-adv-x="499" 
d="M140 458l111 -203v-4l-178 -197h-75l182 204l-109 200h69zM356 458l112 -203l-1 -4l-177 -197h-75l181 204l-108 200h68z" />
    <glyph glyph-name="onequarter" unicode="&#xbc;" horiz-adv-x="744" 
d="M651 734l-492 -734h-63l493 734h62zM254 721l-79 -427h-57l62 330l-88 -52l-20 49l180 100h2zM683 423l-56 -301h61l-8 -46h-60l-15 -76h-57l14 76h-205v2l323 345h3zM599 267l-134 -145h106z" />
    <glyph glyph-name="onehalf" unicode="&#xbd;" horiz-adv-x="793" 
d="M646 734l-492 -734h-63l493 734h62zM252 721l-79 -427h-58l63 330l-89 -52l-20 49l181 100h2zM651 427q53 0 84 -29t31 -76q0 -69 -80 -147l-124 -123h161l-9 -52h-264l1 4l192 200q65 61 65 113q0 26 -17 42t-44 16q-67 0 -94 -71l-52 14q39 109 150 109z" />
    <glyph glyph-name="threequarters" unicode="&#xbe;" horiz-adv-x="836" 
d="M744 734l-491 -734h-63l493 734h61zM239 721q51 0 80 -28.5t29 -73.5q0 -36 -20.5 -65t-55.5 -43q56 -21 56 -80t-47.5 -102t-112.5 -43q-112 0 -126 104l51 11q13 -62 78 -62q40 0 69.5 26.5t29.5 65.5q0 27 -19.5 43t-55.5 16h-48l8 45h50q35 0 60.5 23t25.5 57
q0 25 -16.5 39t-43.5 14q-62 0 -92 -59l-48 23q48 89 148 89zM775 423l-55 -301h60l-8 -46h-60l-14 -76h-58l14 76h-204v2l322 345h3zM691 267l-134 -145h107z" />
    <glyph glyph-name="questiondown" unicode="&#xbf;" horiz-adv-x="473" 
d="M273 397q-23 0 -35.5 14t-10.5 36q1 25 20 42t43 17q23 0 35.5 -13.5t10.5 -35.5q-1 -24 -20 -42t-43 -18zM165 -252q-82 0 -130.5 47.5t-48.5 123.5q0 50 20.5 90.5t51.5 67.5t62 50.5t56 52.5t31 60l11 62h75l-13 -69q-7 -41 -32.5 -75.5t-56 -58.5t-60 -48.5
t-49 -57.5t-19.5 -73q-1 -50 29 -77.5t79 -27.5q110 0 155 117l72 -15q-31 -81 -90.5 -125t-142.5 -44z" />
    <glyph glyph-name="Agrave" unicode="&#xc0;" horiz-adv-x="684" 
d="M359 895l120 -113h-78l-134 113h92zM430 748l197 -748h-77l-46 173h-345l-105 -173h-87l459 748h4zM401 574l-200 -334h285z" />
    <glyph glyph-name="Aacute" unicode="&#xc1;" horiz-adv-x="684" 
d="M646 895l-169 -113h-90l152 113h107zM430 748l197 -748h-77l-46 173h-345l-105 -173h-87l459 748h4zM401 574l-200 -334h285z" />
    <glyph glyph-name="Acircumflex" unicode="&#xc2;" horiz-adv-x="684" 
d="M458 922l126 -141h-66l-68 72l-92 -72h-76zM430 748l197 -748h-77l-46 173h-345l-105 -173h-87l459 748h4zM401 574l-200 -334h285z" />
    <glyph glyph-name="Atilde" unicode="&#xc3;" horiz-adv-x="684" 
d="M386 913q24 0 42.5 -13.5t27.5 -29t22 -29t28 -13.5q46 0 59 79h49q-9 -57 -38.5 -92t-72.5 -35q-25 0 -43 13.5t-26.5 29t-21.5 29t-29 13.5q-47 0 -59 -78h-50q9 57 39 91.5t73 34.5zM430 748l197 -748h-77l-46 173h-345l-105 -173h-87l459 748h4zM401 574l-200 -334
h285z" />
    <glyph glyph-name="Adieresis" unicode="&#xc4;" horiz-adv-x="684" 
d="M366 881q18 0 29 -11t11 -28q0 -22 -16 -37t-38 -15q-18 0 -28.5 11t-10.5 28q0 22 15.5 37t37.5 15zM527 881q18 0 28.5 -11t10.5 -28q0 -21 -16 -36.5t-37 -15.5q-18 0 -29 11t-11 28q0 22 15.5 37t38.5 15zM430 748l197 -748h-77l-46 173h-345l-105 -173h-87l459 748
h4zM401 574l-200 -334h285z" />
    <glyph glyph-name="Aring" unicode="&#xc5;" horiz-adv-x="684" 
d="M465 984q40 0 65 -25.5t25 -63.5q0 -48 -35 -81t-84 -33q-40 0 -65 25.5t-25 63.5q0 48 35 81t84 33zM459 940q-25 0 -46 -19t-21 -48q0 -21 13.5 -34t35.5 -13q25 0 46 18.5t21 46.5q0 21 -13.5 35t-35.5 14zM430 748l197 -748h-77l-46 173h-345l-105 -173h-87l459 748
h4zM401 574l-200 -334h285z" />
    <glyph glyph-name="AE" unicode="&#xc6;" horiz-adv-x="869" 
d="M902 735l-12 -70h-428l62 -260h277l-12 -66h-250l65 -269h189l-12 -70h-242l-42 176h-346l-104 -176h-85l443 735h497zM398 597l-211 -360h296z" />
    <glyph glyph-name="Ccedilla" unicode="&#xc7;" horiz-adv-x="691" 
d="M470 748q154 0 249 -110l-51 -51q-74 91 -199 91q-144 0 -244 -106t-96 -261q1 -117 69.5 -185.5t176.5 -68.5q129 0 229 89l42 -58q-111 -101 -272 -101q-14 0 -21 1l-18 -40q35 -3 58 -24.5t22 -54.5q0 -46 -33 -72.5t-84 -26.5q-59 0 -94 42l33 32q25 -28 62 -28
q27 0 45 13t18 37q0 33 -37 41q-25 3 -48 -3l-3 4l38 84q-116 18 -186.5 102.5t-73.5 214.5q-4 180 118.5 309.5t299.5 129.5z" />
    <glyph glyph-name="Egrave" unicode="&#xc8;" horiz-adv-x="578" 
d="M327 895l120 -113h-78l-134 113h92zM611 735l-12 -70h-369l-45 -258h326l-14 -69h-325l-47 -268h377l-12 -70h-453l129 735h445z" />
    <glyph glyph-name="Eacute" unicode="&#xc9;" horiz-adv-x="578" 
d="M614 895l-169 -113h-90l152 113h107zM611 735l-12 -70h-369l-45 -258h326l-14 -69h-325l-47 -268h377l-12 -70h-453l129 735h445z" />
    <glyph glyph-name="Ecircumflex" unicode="&#xca;" horiz-adv-x="578" 
d="M427 922l126 -141h-66l-68 72l-92 -72h-76zM611 735l-12 -70h-369l-45 -258h326l-14 -69h-325l-47 -268h377l-12 -70h-453l129 735h445z" />
    <glyph glyph-name="Edieresis" unicode="&#xcb;" horiz-adv-x="578" 
d="M334 881q18 0 29 -11t11 -28q0 -22 -16 -37t-38 -15q-18 0 -28.5 11t-10.5 28q0 22 15.5 37t37.5 15zM495 881q18 0 28.5 -11t10.5 -28q0 -21 -16 -36.5t-37 -15.5q-18 0 -29 11t-11 28q0 22 15.5 37t38.5 15zM611 735l-12 -70h-369l-45 -258h326l-14 -69h-325l-47 -268
h377l-12 -70h-453l129 735h445z" />
    <glyph glyph-name="Igrave" unicode="&#xcc;" horiz-adv-x="249" 
d="M138 895l120 -113h-78l-134 113h92zM242 735l-129 -735h-76l129 735h76z" />
    <glyph glyph-name="Iacute" unicode="&#xcd;" horiz-adv-x="249" 
d="M425 895l-169 -113h-90l152 113h107zM242 735l-129 -735h-76l129 735h76z" />
    <glyph glyph-name="Icircumflex" unicode="&#xce;" horiz-adv-x="249" 
d="M238 922l126 -141h-66l-68 72l-92 -72h-76zM242 735l-129 -735h-76l129 735h76z" />
    <glyph glyph-name="Idieresis" unicode="&#xcf;" horiz-adv-x="249" 
d="M145 881q18 0 29 -11t11 -28q0 -22 -16 -37t-38 -15q-18 0 -28.5 11t-10.5 28q0 22 15.5 37t37.5 15zM306 881q18 0 28.5 -11t10.5 -28q0 -21 -16 -36.5t-37 -15.5q-18 0 -29 11t-11 28q0 22 15.5 37t38.5 15zM242 735l-129 -735h-76l129 735h76z" />
    <glyph glyph-name="Eth" unicode="&#xd0;" horiz-adv-x="753" 
d="M385 735q163 0 255.5 -83t92.5 -228q0 -188 -126 -306t-329 -118h-222l61 350h-91l10 54h91l58 331h200zM287 70q161 -3 265.5 96.5t104.5 258.5q0 115 -71 177.5t-204 62.5h-133l-46 -261h118l-10 -54h-118l-49 -280h143z" />
    <glyph glyph-name="Ntilde" unicode="&#xd1;" horiz-adv-x="725" 
d="M400 913q24 0 42.5 -13.5t27.5 -29t22 -29t28 -13.5q46 0 59 79h49q-9 -57 -38.5 -92t-72.5 -35q-25 0 -43 13.5t-26.5 29t-21.5 29t-29 13.5q-47 0 -59 -78h-50q9 57 39 91.5t73 34.5zM173 748l371 -577l98 564h76l-132 -748h-4l-369 576l-100 -563h-76l132 748h4z" />
    <glyph glyph-name="Ograve" unicode="&#xd2;" horiz-adv-x="812" 
d="M418 905l120 -113h-78l-134 113h92zM469 748q146 0 234.5 -96t88.5 -244q0 -110 -53 -206t-149.5 -155.5t-212.5 -59.5q-146 0 -234.5 95.5t-88.5 244.5q0 110 53 206t149 155.5t213 59.5zM463 678q-138 0 -235.5 -105.5t-97.5 -246.5q0 -121 69 -195t184 -74
q138 0 235 105.5t97 246.5q0 121 -68.5 195t-183.5 74z" />
    <glyph glyph-name="Oacute" unicode="&#xd3;" horiz-adv-x="812" 
d="M705 905l-169 -113h-90l152 113h107zM469 748q146 0 234.5 -96t88.5 -244q0 -110 -53 -206t-149.5 -155.5t-212.5 -59.5q-146 0 -234.5 95.5t-88.5 244.5q0 110 53 206t149 155.5t213 59.5zM463 678q-138 0 -235.5 -105.5t-97.5 -246.5q0 -121 69 -195t184 -74
q138 0 235 105.5t97 246.5q0 121 -68.5 195t-183.5 74z" />
    <glyph glyph-name="Ocircumflex" unicode="&#xd4;" horiz-adv-x="812" 
d="M517 932l126 -141h-66l-68 72l-92 -72h-76zM469 748q146 0 234.5 -96t88.5 -244q0 -110 -53 -206t-149.5 -155.5t-212.5 -59.5q-146 0 -234.5 95.5t-88.5 244.5q0 110 53 206t149 155.5t213 59.5zM463 678q-138 0 -235.5 -105.5t-97.5 -246.5q0 -121 69 -195t184 -74
q138 0 235 105.5t97 246.5q0 121 -68.5 195t-183.5 74z" />
    <glyph glyph-name="Otilde" unicode="&#xd5;" horiz-adv-x="812" 
d="M445 923q24 0 42.5 -13.5t27.5 -29t22 -29t28 -13.5q46 0 59 79h49q-9 -57 -38.5 -92t-72.5 -35q-25 0 -43 13.5t-26.5 29t-21.5 29t-29 13.5q-47 0 -59 -78h-50q9 57 39 91.5t73 34.5zM469 748q146 0 234.5 -96t88.5 -244q0 -110 -53 -206t-149.5 -155.5t-212.5 -59.5
q-146 0 -234.5 95.5t-88.5 244.5q0 110 53 206t149 155.5t213 59.5zM463 678q-138 0 -235.5 -105.5t-97.5 -246.5q0 -121 69 -195t184 -74q138 0 235 105.5t97 246.5q0 121 -68.5 195t-183.5 74z" />
    <glyph glyph-name="Odieresis" unicode="&#xd6;" horiz-adv-x="812" 
d="M425 891q18 0 29 -11t11 -28q0 -22 -16 -37t-38 -15q-18 0 -28.5 11t-10.5 28q0 22 15.5 37t37.5 15zM586 891q18 0 28.5 -11t10.5 -28q0 -21 -16 -36.5t-37 -15.5q-18 0 -29 11t-11 28q0 22 15.5 37t38.5 15zM469 748q146 0 234.5 -96t88.5 -244q0 -110 -53 -206
t-149.5 -155.5t-212.5 -59.5q-146 0 -234.5 95.5t-88.5 244.5q0 110 53 206t149 155.5t213 59.5zM463 678q-138 0 -235.5 -105.5t-97.5 -246.5q0 -121 69 -195t184 -74q138 0 235 105.5t97 246.5q0 121 -68.5 195t-183.5 74z" />
    <glyph glyph-name="multiply" unicode="&#xd7;" horiz-adv-x="436" 
d="M384 520l43 -53l-144 -120l98 -119l-56 -48l-99 122l-144 -122l-44 51l145 122l-98 120l56 47l100 -120z" />
    <glyph glyph-name="Oslash" unicode="&#xd8;" horiz-adv-x="812" 
d="M679 676q113 -97 113 -268q0 -110 -53 -206t-149.5 -155.5t-212.5 -59.5q-91 0 -164 41l-78 -108h-75l103 143q-109 95 -109 264q0 110 53 206t149 155.5t213 59.5q87 0 160 -38l75 105h75zM130 326q0 -128 77 -203l378 527q-54 28 -122 28q-138 0 -235.5 -105.5
t-97.5 -246.5zM383 57q138 0 235 105.5t97 246.5q0 132 -80 206l-379 -527q56 -31 127 -31z" />
    <glyph glyph-name="Ugrave" unicode="&#xd9;" horiz-adv-x="698" 
d="M359 895l120 -113h-78l-134 113h92zM699 735l-84 -479q-22 -127 -102.5 -198t-209.5 -71q-130 0 -191.5 73.5t-38.5 201.5l83 473h76l-83 -475q-17 -96 22.5 -149.5t136.5 -53.5q94 0 154 54.5t78 148.5l83 475h76z" />
    <glyph glyph-name="Uacute" unicode="&#xda;" horiz-adv-x="698" 
d="M645 895l-169 -113h-90l152 113h107zM699 735l-84 -479q-22 -127 -102.5 -198t-209.5 -71q-130 0 -191.5 73.5t-38.5 201.5l83 473h76l-83 -475q-17 -96 22.5 -149.5t136.5 -53.5q94 0 154 54.5t78 148.5l83 475h76z" />
    <glyph glyph-name="Ucircumflex" unicode="&#xdb;" horiz-adv-x="698" 
d="M458 922l126 -141h-66l-68 72l-92 -72h-76zM699 735l-84 -479q-22 -127 -102.5 -198t-209.5 -71q-130 0 -191.5 73.5t-38.5 201.5l83 473h76l-83 -475q-17 -96 22.5 -149.5t136.5 -53.5q94 0 154 54.5t78 148.5l83 475h76z" />
    <glyph glyph-name="Udieresis" unicode="&#xdc;" horiz-adv-x="698" 
d="M366 881q18 0 29 -11t11 -28q0 -22 -16 -37t-38 -15q-18 0 -28.5 11t-10.5 28q0 22 15.5 37t37.5 15zM527 881q18 0 28.5 -11t10.5 -28q0 -21 -16 -36.5t-37 -15.5q-18 0 -29 11t-11 28q0 22 15.5 37t38.5 15zM699 735l-84 -479q-22 -127 -102.5 -198t-209.5 -71
q-130 0 -191.5 73.5t-38.5 201.5l83 473h76l-83 -475q-17 -96 22.5 -149.5t136.5 -53.5q94 0 154 54.5t78 148.5l83 475h76z" />
    <glyph glyph-name="Yacute" unicode="&#xdd;" horiz-adv-x="630" 
d="M604 895l-169 -113h-90l152 113h107zM697 735l-348 -419l-55 -316h-76l55 315l-201 420h84l163 -343l284 343h94z" />
    <glyph glyph-name="Thorn" unicode="&#xde;" horiz-adv-x="546" 
d="M242 735l-24 -137h128q83 0 139 -47.5t56 -126.5q0 -97 -78.5 -161t-184.5 -64h-131l-34 -199h-76l129 735h76zM331 531h-125l-46 -265h125q69 0 123.5 42.5t54.5 111.5q0 52 -37 81.5t-95 29.5z" />
    <glyph glyph-name="germandbls" unicode="&#xdf;" horiz-adv-x="576" 
d="M370 748q83 0 131 -47.5t48 -120.5q0 -128 -131 -184q49 -14 85.5 -56.5t36.5 -105.5q0 -107 -75.5 -177t-183.5 -70q-68 0 -112 28l29 65q37 -25 85 -25q74 0 128.5 50t54.5 125q0 84 -80 115q-47 18 -102 18l10 56q51 0 94 23q39 18 62.5 50.5t24.5 75.5
q1 52 -30.5 82.5t-81.5 30.5q-63 0 -107.5 -37t-57.5 -110l-94 -534h-73l93 535q18 103 84.5 158t161.5 55z" />
    <glyph glyph-name="agrave" unicode="&#xe0;" horiz-adv-x="576" 
d="M262 701l124 -123h-75l-137 123h88zM302 510q111 0 162 -76l13 66h67l-88 -500h-66l10 64q-70 -74 -166 -74q-95 0 -148 64t-53 166q0 116 75 203t194 87zM306 444q-87 0 -143 -68t-56 -156q0 -74 36.5 -119t97.5 -45q40 0 75.5 16.5t49.5 29.5t44 45l38 216
q-39 81 -142 81z" />
    <glyph glyph-name="aacute" unicode="&#xe1;" horiz-adv-x="576" 
d="M550 701l-174 -123h-83l155 123h102zM302 510q111 0 162 -76l13 66h67l-88 -500h-66l10 64q-70 -74 -166 -74q-95 0 -148 64t-53 166q0 116 75 203t194 87zM306 444q-87 0 -143 -68t-56 -156q0 -74 36.5 -119t97.5 -45q40 0 75.5 16.5t49.5 29.5t44 45l38 216
q-39 81 -142 81z" />
    <glyph glyph-name="acircumflex" unicode="&#xe2;" horiz-adv-x="576" 
d="M367 732l121 -155h-65l-65 74l-91 -74h-75zM302 510q111 0 162 -76l13 66h67l-88 -500h-66l10 64q-70 -74 -166 -74q-95 0 -148 64t-53 166q0 116 75 203t194 87zM306 444q-87 0 -143 -68t-56 -156q0 -74 36.5 -119t97.5 -45q40 0 75.5 16.5t49.5 29.5t44 45l38 216
q-39 81 -142 81z" />
    <glyph glyph-name="atilde" unicode="&#xe3;" horiz-adv-x="576" 
d="M297 709q25 0 44 -13.5t28.5 -29t22.5 -29t27 -13.5q45 0 57 78h50q-7 -61 -37.5 -95.5t-72.5 -34.5q-27 0 -46 13.5t-27.5 29t-21.5 29t-28 13.5q-45 0 -57 -78h-51q4 58 36.5 94t75.5 36zM302 510q111 0 162 -76l13 66h67l-88 -500h-66l10 64q-70 -74 -166 -74
q-95 0 -148 64t-53 166q0 116 75 203t194 87zM306 444q-87 0 -143 -68t-56 -156q0 -74 36.5 -119t97.5 -45q40 0 75.5 16.5t49.5 29.5t44 45l38 216q-39 81 -142 81z" />
    <glyph glyph-name="adieresis" unicode="&#xe4;" horiz-adv-x="576" 
d="M278 683q17 0 28 -11t11 -29q0 -22 -16 -37t-38 -15q-18 0 -28.5 11t-10.5 29q0 22 15.5 37t38.5 15zM438 683q18 0 28.5 -11t10.5 -29q0 -21 -16 -36.5t-37 -15.5q-19 0 -29.5 11t-10.5 29q0 22 15.5 37t38.5 15zM302 510q111 0 162 -76l13 66h67l-88 -500h-66l10 64
q-70 -74 -166 -74q-95 0 -148 64t-53 166q0 116 75 203t194 87zM306 444q-87 0 -143 -68t-56 -156q0 -74 36.5 -119t97.5 -45q40 0 75.5 16.5t49.5 29.5t44 45l38 216q-39 81 -142 81z" />
    <glyph glyph-name="aring" unicode="&#xe5;" horiz-adv-x="576" 
d="M372 776q40 0 65.5 -26t25.5 -64q0 -48 -35.5 -81t-83.5 -33q-40 0 -65.5 26t-25.5 63q0 48 35 81.5t84 33.5zM367 731q-25 0 -46 -19t-21 -47q0 -21 13 -34.5t35 -13.5q26 0 47 19t21 47q0 21 -13.5 34.5t-35.5 13.5zM302 510q111 0 162 -76l13 66h67l-88 -500h-66
l10 64q-70 -74 -166 -74q-95 0 -148 64t-53 166q0 116 75 203t194 87zM306 444q-87 0 -143 -68t-56 -156q0 -74 36.5 -119t97.5 -45q40 0 75.5 16.5t49.5 29.5t44 45l38 216q-39 81 -142 81z" />
    <glyph glyph-name="ae" unicode="&#xe6;" horiz-adv-x="941" 
d="M708 510q107 0 159.5 -73t34.5 -183l-5 -30h-396q-4 -79 37.5 -125.5t122.5 -46.5q96 0 162 71l46 -44q-86 -89 -210 -89q-136 0 -187 102l-16 -92h-66l10 64q-70 -74 -166 -74q-95 0 -148 64t-53 166q0 116 75 203t194 87q111 0 162 -76l13 66h64l-12 -78q66 88 179 88z
M703 446q-73 0 -123 -45t-68 -118h322q9 73 -25.5 118t-105.5 45zM306 444q-87 0 -143 -68t-56 -156q0 -74 36.5 -119t97.5 -45q31 0 56 7t47.5 24t33 27.5t32.5 34.5l38 214q-39 81 -142 81z" />
    <glyph glyph-name="ccedilla" unicode="&#xe7;" horiz-adv-x="506" 
d="M258 55q94 0 158 82l48 -44q-82 -103 -210 -103h-15l-16 -35q35 -3 58 -24.5t22 -54.5q0 -46 -33 -72.5t-84 -26.5q-59 0 -94 42l33 32q25 -28 62 -28q27 0 45 13t18 37q0 33 -37 41q-25 3 -48 -3l-3 4l37 80q-81 16 -123 75.5t-42 145.5q0 125 81.5 209.5t201.5 84.5
q126 0 183 -110l-55 -37q-42 82 -132 82q-89 0 -147.5 -66t-58.5 -161q0 -76 37.5 -119.5t113.5 -43.5z" />
    <glyph glyph-name="egrave" unicode="&#xe8;" 
d="M254 701l124 -123h-75l-137 123h88zM303 510q106 0 158.5 -73.5t34.5 -182.5l-4 -30h-385q-5 -78 33 -125t115 -47q95 0 163 71l45 -44q-86 -89 -213 -89q-103 0 -159.5 60t-56.5 159q0 121 74 211t195 90zM299 446q-72 0 -120.5 -46t-62.5 -117h312q10 73 -24 118
t-105 45z" />
    <glyph glyph-name="eacute" unicode="&#xe9;" 
d="M542 701l-174 -123h-83l155 123h102zM303 510q106 0 158.5 -73.5t34.5 -182.5l-4 -30h-385q-5 -78 33 -125t115 -47q95 0 163 71l45 -44q-86 -89 -213 -89q-103 0 -159.5 60t-56.5 159q0 121 74 211t195 90zM299 446q-72 0 -120.5 -46t-62.5 -117h312q10 73 -24 118
t-105 45z" />
    <glyph glyph-name="ecircumflex" unicode="&#xea;" 
d="M359 732l121 -155h-65l-65 74l-91 -74h-75zM303 510q106 0 158.5 -73.5t34.5 -182.5l-4 -30h-385q-5 -78 33 -125t115 -47q95 0 163 71l45 -44q-86 -89 -213 -89q-103 0 -159.5 60t-56.5 159q0 121 74 211t195 90zM299 446q-72 0 -120.5 -46t-62.5 -117h312
q10 73 -24 118t-105 45z" />
    <glyph glyph-name="edieresis" unicode="&#xeb;" 
d="M271 683q17 0 28 -11t11 -29q0 -22 -16 -37t-38 -15q-18 0 -28.5 11t-10.5 29q0 22 15.5 37t38.5 15zM431 683q18 0 28.5 -11t10.5 -29q0 -21 -16 -36.5t-37 -15.5q-19 0 -29.5 11t-10.5 29q0 22 15.5 37t38.5 15zM303 510q106 0 158.5 -73.5t34.5 -182.5l-4 -30h-385
q-5 -78 33 -125t115 -47q95 0 163 71l45 -44q-86 -89 -213 -89q-103 0 -159.5 60t-56.5 159q0 121 74 211t195 90zM299 446q-72 0 -120.5 -46t-62.5 -117h312q10 73 -24 118t-105 45z" />
    <glyph glyph-name="igrave" unicode="&#xec;" horiz-adv-x="221" 
d="M88 701l124 -123h-75l-137 123h88zM190 500l-87 -500h-73l88 500h72z" />
    <glyph glyph-name="iacute" unicode="&#xed;" horiz-adv-x="221" 
d="M376 701l-174 -123h-83l155 123h102zM190 500l-87 -500h-73l88 500h72z" />
    <glyph glyph-name="icircumflex" unicode="&#xee;" horiz-adv-x="221" 
d="M193 732l121 -155h-65l-65 74l-91 -74h-75zM190 500l-87 -500h-73l88 500h72z" />
    <glyph glyph-name="idieresis" unicode="&#xef;" horiz-adv-x="221" 
d="M105 683q17 0 28 -11t11 -29q0 -22 -16 -37t-38 -15q-18 0 -28.5 11t-10.5 29q0 22 15.5 37t38.5 15zM265 683q18 0 28.5 -11t10.5 -29q0 -21 -16 -36.5t-37 -15.5q-19 0 -29.5 11t-10.5 29q0 22 15.5 37t38.5 15zM190 500l-87 -500h-73l88 500h72z" />
    <glyph glyph-name="eth" unicode="&#xf0;" horiz-adv-x="561" 
d="M538 640l-10 -57h-139l114 -214q24 -44 24 -104q0 -112 -80 -193.5t-199 -81.5q-99 0 -159.5 62t-60.5 157q0 111 80 193t198 82q33 0 65 -8l-58 107h-176l10 57h135l-64 120h77l64 -120h179zM254 52q83 0 141.5 63t58.5 149q0 70 -42 114t-111 44q-84 0 -142.5 -63
t-58.5 -149q0 -70 42.5 -114t111.5 -44z" />
    <glyph glyph-name="ntilde" unicode="&#xf1;" horiz-adv-x="571" 
d="M305 709q25 0 44 -13.5t28.5 -29t22.5 -29t27 -13.5q45 0 57 78h50q-7 -61 -37.5 -95.5t-72.5 -34.5q-27 0 -46 13.5t-27.5 29t-21.5 29t-28 13.5q-45 0 -57 -78h-51q4 58 36.5 94t75.5 36zM350 510q91 0 131.5 -62.5t24.5 -158.5l-51 -289h-73l52 295q11 66 -13.5 105.5
t-81.5 39.5q-55 0 -94.5 -23.5t-80.5 -68.5l-61 -348h-73l88 500h66l-8 -67q72 77 174 77z" />
    <glyph glyph-name="ograve" unicode="&#xf2;" horiz-adv-x="577" 
d="M268 701l124 -123h-75l-137 123h88zM318 510q101 0 163 -65t62 -165q0 -118 -81.5 -204t-202.5 -86q-101 0 -163 65t-62 165q0 117 81.5 203.5t202.5 86.5zM313 444q-85 0 -145 -66t-60 -157q0 -73 43 -119t114 -46q85 0 144.5 66t59.5 156q0 74 -42.5 120t-113.5 46z
" />
    <glyph glyph-name="oacute" unicode="&#xf3;" horiz-adv-x="577" 
d="M556 701l-174 -123h-83l155 123h102zM318 510q101 0 163 -65t62 -165q0 -118 -81.5 -204t-202.5 -86q-101 0 -163 65t-62 165q0 117 81.5 203.5t202.5 86.5zM313 444q-85 0 -145 -66t-60 -157q0 -73 43 -119t114 -46q85 0 144.5 66t59.5 156q0 74 -42.5 120t-113.5 46z
" />
    <glyph glyph-name="ocircumflex" unicode="&#xf4;" horiz-adv-x="577" 
d="M373 732l121 -155h-65l-65 74l-91 -74h-75zM318 510q101 0 163 -65t62 -165q0 -118 -81.5 -204t-202.5 -86q-101 0 -163 65t-62 165q0 117 81.5 203.5t202.5 86.5zM313 444q-85 0 -145 -66t-60 -157q0 -73 43 -119t114 -46q85 0 144.5 66t59.5 156q0 74 -42.5 120
t-113.5 46z" />
    <glyph glyph-name="otilde" unicode="&#xf5;" horiz-adv-x="577" 
d="M303 709q25 0 44 -13.5t28.5 -29t22.5 -29t27 -13.5q45 0 57 78h50q-7 -61 -37.5 -95.5t-72.5 -34.5q-27 0 -46 13.5t-27.5 29t-21.5 29t-28 13.5q-45 0 -57 -78h-51q4 58 36.5 94t75.5 36zM318 510q101 0 163 -65t62 -165q0 -118 -81.5 -204t-202.5 -86q-101 0 -163 65
t-62 165q0 117 81.5 203.5t202.5 86.5zM313 444q-85 0 -145 -66t-60 -157q0 -73 43 -119t114 -46q85 0 144.5 66t59.5 156q0 74 -42.5 120t-113.5 46z" />
    <glyph glyph-name="odieresis" unicode="&#xf6;" horiz-adv-x="577" 
d="M284 683q17 0 28 -11t11 -29q0 -22 -16 -37t-38 -15q-18 0 -28.5 11t-10.5 29q0 22 15.5 37t38.5 15zM444 683q18 0 28.5 -11t10.5 -29q0 -21 -16 -36.5t-37 -15.5q-19 0 -29.5 11t-10.5 29q0 22 15.5 37t38.5 15zM318 510q101 0 163 -65t62 -165q0 -118 -81.5 -204
t-202.5 -86q-101 0 -163 65t-62 165q0 117 81.5 203.5t202.5 86.5zM313 444q-85 0 -145 -66t-60 -157q0 -73 43 -119t114 -46q85 0 144.5 66t59.5 156q0 74 -42.5 120t-113.5 46z" />
    <glyph glyph-name="divide" unicode="&#xf7;" horiz-adv-x="473" 
d="M291 584q22 0 34.5 -14.5t8.5 -37.5q-5 -22 -22 -36.5t-39 -14.5t-34 14.5t-8 36.5t21 37t39 15zM450 384l-12 -68h-388l12 68h388zM226 219q23 0 34.5 -14.5t7.5 -36.5t-21 -37t-39 -15t-34.5 15t-8.5 37q5 22 22 36.5t39 14.5z" />
    <glyph glyph-name="oslash" unicode="&#xf8;" horiz-adv-x="578" 
d="M467 458q76 -64 76 -178q0 -118 -81.5 -204t-202.5 -86q-60 0 -110 25l-61 -85h-56l79 110q-77 66 -77 180q0 117 81.5 203.5t202.5 86.5q61 0 111 -26l62 86h56zM108 221q0 -76 46 -122l235 328q-34 17 -76 17q-85 0 -145 -66t-60 -157zM265 56q85 0 144.5 66t59.5 156
q0 75 -44 122l-235 -328q32 -16 75 -16z" />
    <glyph glyph-name="ugrave" unicode="&#xf9;" horiz-adv-x="558" 
d="M255 701l124 -123h-75l-137 123h88zM527 500l-88 -500h-67l9 66q-74 -76 -171 -76q-86 0 -126 62t-23 157l51 291h73l-53 -297q-11 -65 12.5 -104.5t77.5 -39.5t91.5 23t79.5 68l61 350h73z" />
    <glyph glyph-name="uacute" unicode="&#xfa;" horiz-adv-x="558" 
d="M543 701l-174 -123h-83l155 123h102zM527 500l-88 -500h-67l9 66q-74 -76 -171 -76q-86 0 -126 62t-23 157l51 291h73l-53 -297q-11 -65 12.5 -104.5t77.5 -39.5t91.5 23t79.5 68l61 350h73z" />
    <glyph glyph-name="ucircumflex" unicode="&#xfb;" horiz-adv-x="558" 
d="M360 732l121 -155h-65l-65 74l-91 -74h-75zM527 500l-88 -500h-67l9 66q-74 -76 -171 -76q-86 0 -126 62t-23 157l51 291h73l-53 -297q-11 -65 12.5 -104.5t77.5 -39.5t91.5 23t79.5 68l61 350h73z" />
    <glyph glyph-name="udieresis" unicode="&#xfc;" horiz-adv-x="558" 
d="M271 683q17 0 28 -11t11 -29q0 -22 -16 -37t-38 -15q-18 0 -28.5 11t-10.5 29q0 22 15.5 37t38.5 15zM431 683q18 0 28.5 -11t10.5 -29q0 -21 -16 -36.5t-37 -15.5q-19 0 -29.5 11t-10.5 29q0 22 15.5 37t38.5 15zM527 500l-88 -500h-67l9 66q-74 -76 -171 -76
q-86 0 -126 62t-23 157l51 291h73l-53 -297q-11 -65 12.5 -104.5t77.5 -39.5t91.5 23t79.5 68l61 350h73z" />
    <glyph glyph-name="yacute" unicode="&#xfd;" 
d="M521 701l-174 -123h-83l155 123h102zM554 500l-482 -730h-83l201 293l-137 437h73l110 -363l238 363h80z" />
    <glyph glyph-name="thorn" unicode="&#xfe;" horiz-adv-x="581" 
d="M238 760l-58 -322q76 72 166 72q95 0 149 -64.5t54 -166.5q0 -115 -75.5 -202t-195.5 -87q-58 0 -101 21.5t-62 50.5l-52 -292h-73l175 990h73zM336 444q-40 0 -74.5 -15.5t-51.5 -30.5t-44 -43l-38 -218q38 -81 148 -81q86 0 143 68t57 156q0 74 -38 119t-102 45z" />
    <glyph glyph-name="ydieresis" unicode="&#xff;" 
d="M250 683q17 0 28 -11t11 -29q0 -22 -16 -37t-38 -15q-18 0 -28.5 11t-10.5 29q0 22 15.5 37t38.5 15zM410 683q18 0 28.5 -11t10.5 -29q0 -21 -16 -36.5t-37 -15.5q-19 0 -29.5 11t-10.5 29q0 22 15.5 37t38.5 15zM554 500l-482 -730h-83l201 293l-137 437h73l110 -363
l238 363h80z" />
    <glyph glyph-name="Amacron" unicode="&#x100;" horiz-adv-x="684" 
d="M571 853l-9 -53h-253l11 53h251zM430 748l197 -748h-77l-46 173h-345l-105 -173h-87l459 748h4zM401 574l-200 -334h285z" />
    <glyph glyph-name="amacron" unicode="&#x101;" horiz-adv-x="576" 
d="M476 652l-10 -53h-252l10 53h252zM302 510q111 0 162 -76l13 66h67l-88 -500h-66l10 64q-70 -74 -166 -74q-95 0 -148 64t-53 166q0 116 75 203t194 87zM306 444q-87 0 -143 -68t-56 -156q0 -74 36.5 -119t97.5 -45q40 0 75.5 16.5t49.5 29.5t44 45l38 216
q-39 81 -142 81z" />
    <glyph glyph-name="Abreve" unicode="&#x102;" horiz-adv-x="684" 
d="M600 920q-9 -63 -55 -100.5t-108 -37.5q-64 0 -100 40t-28 98h55q-7 -39 14 -63.5t61 -24.5t69.5 25t36.5 63h55zM430 748l197 -748h-77l-46 173h-345l-105 -173h-87l459 748h4zM401 574l-200 -334h285z" />
    <glyph glyph-name="abreve" unicode="&#x103;" horiz-adv-x="576" 
d="M510 718q-9 -63 -52.5 -102t-106.5 -39q-65 0 -103 41t-29 100h55q-7 -37 14.5 -61t61.5 -24q41 0 69.5 23.5t35.5 61.5h55zM302 510q111 0 162 -76l13 66h67l-88 -500h-66l10 64q-70 -74 -166 -74q-95 0 -148 64t-53 166q0 116 75 203t194 87zM306 444q-87 0 -143 -68
t-56 -156q0 -74 36.5 -119t97.5 -45q40 0 75.5 16.5t49.5 29.5t44 45l38 216q-39 81 -142 81z" />
    <glyph glyph-name="Aogonek" unicode="&#x104;" horiz-adv-x="684" 
d="M623 -175l9 -46q-20 -9 -50 -9q-49 0 -79 30t-30 78q0 81 73 135l-42 160h-345l-105 -173h-87l459 748h4l197 -748h-21q-36 -18 -59 -50t-23 -71q0 -29 16.5 -45.5t43.5 -16.5q21 0 39 8zM201 240h285l-85 334z" />
    <glyph glyph-name="aogonek" unicode="&#x105;" horiz-adv-x="576" 
d="M429 -183q21 0 39 8l9 -46q-20 -9 -50 -9q-49 0 -79 30t-30 78q0 80 74 135l8 51q-70 -74 -166 -74q-95 0 -148 64t-53 166q0 116 75 203t194 87q111 0 162 -76l13 66h67l-88 -500h-5q-36 -18 -59 -50t-23 -71q0 -29 16.5 -45.5t43.5 -16.5zM241 56q40 0 75.5 16.5
t49.5 29.5t44 45l38 216q-39 81 -142 81q-87 0 -143 -68t-56 -156q0 -74 36.5 -119t97.5 -45z" />
    <glyph glyph-name="Cacute" unicode="&#x106;" horiz-adv-x="691" 
d="M702 905l-169 -113h-90l152 113h107zM470 748q154 0 249 -110l-51 -51q-74 91 -199 91q-144 0 -244 -106t-96 -261q1 -117 69.5 -185.5t176.5 -68.5q129 0 229 89l42 -58q-111 -101 -272 -101q-142 0 -230.5 88t-91.5 234q-4 180 118.5 309.5t299.5 129.5z" />
    <glyph glyph-name="cacute" unicode="&#x107;" horiz-adv-x="506" 
d="M556 701l-174 -123h-83l155 123h102zM317 510q126 0 183 -110l-55 -37q-42 82 -132 82q-89 0 -147.5 -66t-58.5 -161q0 -76 37.5 -119.5t113.5 -43.5q94 0 158 82l48 -44q-82 -103 -210 -103q-107 0 -163.5 62.5t-56.5 163.5q0 125 81.5 209.5t201.5 84.5z" />
    <glyph glyph-name="Ccircumflex" unicode="&#x108;" horiz-adv-x="691" 
d="M515 932l126 -141h-66l-68 72l-92 -72h-76zM470 748q154 0 249 -110l-51 -51q-74 91 -199 91q-144 0 -244 -106t-96 -261q1 -117 69.5 -185.5t176.5 -68.5q129 0 229 89l42 -58q-111 -101 -272 -101q-142 0 -230.5 88t-91.5 234q-4 180 118.5 309.5t299.5 129.5z" />
    <glyph glyph-name="ccircumflex" unicode="&#x109;" horiz-adv-x="506" 
d="M373 732l121 -155h-65l-65 74l-91 -74h-75zM317 510q126 0 183 -110l-55 -37q-42 82 -132 82q-89 0 -147.5 -66t-58.5 -161q0 -76 37.5 -119.5t113.5 -43.5q94 0 158 82l48 -44q-82 -103 -210 -103q-107 0 -163.5 62.5t-56.5 163.5q0 125 81.5 209.5t201.5 84.5z" />
    <glyph glyph-name="Cdotaccent" unicode="&#x10a;" horiz-adv-x="691" 
d="M508 890q18 0 29 -11.5t11 -28.5q0 -23 -17 -39.5t-39 -16.5q-18 0 -29.5 11t-11.5 28q0 23 17 40t40 17zM470 748q154 0 249 -110l-51 -51q-74 91 -199 91q-144 0 -244 -106t-96 -261q1 -117 69.5 -185.5t176.5 -68.5q129 0 229 89l42 -58q-111 -101 -272 -101
q-142 0 -230.5 88t-91.5 234q-4 180 118.5 309.5t299.5 129.5z" />
    <glyph glyph-name="cdotaccent" unicode="&#x10b;" horiz-adv-x="506" 
d="M371 706q19 0 31 -12t12 -31q0 -24 -18 -41t-42 -17q-19 0 -31 11.5t-12 29.5q0 24 18 42t42 18zM317 510q126 0 183 -110l-55 -37q-42 82 -132 82q-89 0 -147.5 -66t-58.5 -161q0 -76 37.5 -119.5t113.5 -43.5q94 0 158 82l48 -44q-82 -103 -210 -103
q-107 0 -163.5 62.5t-56.5 163.5q0 125 81.5 209.5t201.5 84.5z" />
    <glyph glyph-name="Ccaron" unicode="&#x10c;" horiz-adv-x="691" 
d="M667 924l-176 -141l-126 141h65l69 -72l92 72h76zM470 748q154 0 249 -110l-51 -51q-74 91 -199 91q-144 0 -244 -106t-96 -261q1 -117 69.5 -185.5t176.5 -68.5q129 0 229 89l42 -58q-111 -101 -272 -101q-142 0 -230.5 88t-91.5 234q-4 180 118.5 309.5t299.5 129.5z
" />
    <glyph glyph-name="ccaron" unicode="&#x10d;" horiz-adv-x="506" 
d="M526 727l-175 -156l-121 156h65l64 -74l91 74h76zM317 510q126 0 183 -110l-55 -37q-42 82 -132 82q-89 0 -147.5 -66t-58.5 -161q0 -76 37.5 -119.5t113.5 -43.5q94 0 158 82l48 -44q-82 -103 -210 -103q-107 0 -163.5 62.5t-56.5 163.5q0 125 81.5 209.5t201.5 84.5z
" />
    <glyph glyph-name="Dcaron" unicode="&#x10e;" horiz-adv-x="734" 
d="M572 914l-176 -141l-126 141h65l69 -72l92 72h76zM367 735q163 0 255 -83t92 -228q0 -188 -125.5 -306t-329.5 -118h-222l129 735h201zM363 665h-133l-105 -595h143q161 -3 265.5 96.5t104.5 258.5q0 115 -70.5 177.5t-204.5 62.5z" />
    <glyph glyph-name="dcaron" unicode="&#x10f;" horiz-adv-x="585" 
d="M686 761q21 0 33 -13t11 -34q-1 -29 -19 -53l-77 -103h-4l35 200q11 3 21 3zM597 760l-134 -760h-67l11 64q-70 -74 -170 -74q-96 0 -150 64t-54 166q0 116 76 203t196 87q57 0 100 -21.5t63 -50.5l56 322h73zM309 444q-87 0 -144.5 -68t-57.5 -156q0 -74 37.5 -119
t99.5 -45q25 0 48.5 6.5t38 12.5t35 22t26.5 21.5t25 24.5l38 220q-39 81 -146 81z" />
    <glyph glyph-name="Dcroat" unicode="&#x110;" horiz-adv-x="753" 
d="M385 735q163 0 255.5 -83t92.5 -228q0 -188 -126 -306t-329 -118h-222l61 350h-91l10 54h91l58 331h200zM287 70q161 -3 265.5 96.5t104.5 258.5q0 115 -71 177.5t-204 62.5h-133l-46 -261h118l-10 -54h-118l-49 -280h143z" />
    <glyph glyph-name="dcroat" unicode="&#x111;" horiz-adv-x="585" 
d="M659 641l-9 -54h-83l-104 -587h-67l11 64q-70 -74 -170 -74q-96 0 -150 64t-54 166q0 116 76 203t196 87q57 0 100 -21.5t63 -50.5l26 149h-130l9 54h131l20 119h73l-21 -119h83zM417 143l38 220q-39 81 -146 81q-87 0 -144.5 -68t-57.5 -156q0 -74 37.5 -119t99.5 -45
q25 0 48.5 6.5t38 12.5t35 22t26.5 21.5t25 24.5z" />
    <glyph glyph-name="Emacron" unicode="&#x112;" horiz-adv-x="578" 
d="M539 853l-9 -53h-253l11 53h251zM611 735l-12 -70h-369l-45 -258h326l-14 -69h-325l-47 -268h377l-12 -70h-453l129 735h445z" />
    <glyph glyph-name="emacron" unicode="&#x113;" 
d="M468 652l-10 -53h-252l10 53h252zM303 510q106 0 158.5 -73.5t34.5 -182.5l-4 -30h-385q-5 -78 33 -125t115 -47q95 0 163 71l45 -44q-86 -89 -213 -89q-103 0 -159.5 60t-56.5 159q0 121 74 211t195 90zM299 446q-72 0 -120.5 -46t-62.5 -117h312q10 73 -24 118t-105 45
z" />
    <glyph glyph-name="Ebreve" unicode="&#x114;" horiz-adv-x="578" 
d="M569 920q-9 -63 -55 -100.5t-108 -37.5q-64 0 -100 40t-28 98h55q-7 -39 14 -63.5t61 -24.5t69.5 25t36.5 63h55zM611 735l-12 -70h-369l-45 -258h326l-14 -69h-325l-47 -268h377l-12 -70h-453l129 735h445z" />
    <glyph glyph-name="ebreve" unicode="&#x115;" 
d="M502 718q-9 -63 -52.5 -102t-106.5 -39q-65 0 -103 41t-29 100h55q-7 -37 14.5 -61t61.5 -24q41 0 69.5 23.5t35.5 61.5h55zM303 510q106 0 158.5 -73.5t34.5 -182.5l-4 -30h-385q-5 -78 33 -125t115 -47q95 0 163 71l45 -44q-86 -89 -213 -89q-103 0 -159.5 60
t-56.5 159q0 121 74 211t195 90zM299 446q-72 0 -120.5 -46t-62.5 -117h312q10 73 -24 118t-105 45z" />
    <glyph glyph-name="Edotaccent" unicode="&#x116;" horiz-adv-x="578" 
d="M419 880q18 0 29 -11.5t11 -28.5q0 -23 -17 -39.5t-39 -16.5q-18 0 -29.5 11t-11.5 28q0 23 17 40t40 17zM611 735l-12 -70h-369l-45 -258h326l-14 -69h-325l-47 -268h377l-12 -70h-453l129 735h445z" />
    <glyph glyph-name="edotaccent" unicode="&#x117;" 
d="M357 706q19 0 31 -12t12 -31q0 -24 -18 -41t-42 -17q-19 0 -31 11.5t-12 29.5q0 24 18 42t42 18zM303 510q106 0 158.5 -73.5t34.5 -182.5l-4 -30h-385q-5 -78 33 -125t115 -47q95 0 163 71l45 -44q-86 -89 -213 -89q-103 0 -159.5 60t-56.5 159q0 121 74 211t195 90z
M299 446q-72 0 -120.5 -46t-62.5 -117h312q10 73 -24 118t-105 45z" />
    <glyph glyph-name="Eogonek" unicode="&#x118;" horiz-adv-x="578" 
d="M599 665h-369l-45 -258h326l-14 -69h-325l-47 -268h377l-12 -70h-51q-36 -18 -59 -50t-23 -71q0 -29 16.5 -45.5t43.5 -16.5q21 0 39 8l9 -46q-20 -9 -50 -9q-49 0 -79 30t-30 78q0 71 57 122h-326l129 735h445z" />
    <glyph glyph-name="eogonek" unicode="&#x119;" 
d="M303 510q106 0 158.5 -73.5t34.5 -182.5l-4 -30h-385q-5 -78 33 -125t115 -47q95 0 163 71l45 -44q-41 -42 -90 -64q-33 -19 -53.5 -49.5t-20.5 -67.5q0 -29 16.5 -45.5t43.5 -16.5q21 0 39 8l9 -46q-20 -9 -50 -9q-49 0 -79 30t-30 78q0 53 32 94q-10 -1 -30 -1
q-103 0 -159.5 60t-56.5 159q0 121 74 211t195 90zM428 283q10 73 -24 118t-105 45q-72 0 -120.5 -46t-62.5 -117h312z" />
    <glyph glyph-name="Ecaron" unicode="&#x11a;" horiz-adv-x="578" 
d="M579 914l-176 -141l-126 141h65l69 -72l92 72h76zM611 735l-12 -70h-369l-45 -258h326l-14 -69h-325l-47 -268h377l-12 -70h-453l129 735h445z" />
    <glyph glyph-name="ecaron" unicode="&#x11b;" 
d="M512 727l-175 -156l-121 156h65l64 -74l91 74h76zM303 510q106 0 158.5 -73.5t34.5 -182.5l-4 -30h-385q-5 -78 33 -125t115 -47q95 0 163 71l45 -44q-86 -89 -213 -89q-103 0 -159.5 60t-56.5 159q0 121 74 211t195 90zM299 446q-72 0 -120.5 -46t-62.5 -117h312
q10 73 -24 118t-105 45z" />
    <glyph glyph-name="Gcircumflex" unicode="&#x11c;" horiz-adv-x="740" 
d="M518 932l126 -141h-66l-68 72l-92 -72h-76zM471 748q155 0 249 -109l-52 -52q-74 91 -200 91q-140 0 -235.5 -98.5t-101.5 -245.5q-7 -124 62 -200.5t187 -76.5t197 60l34 189h-201l11 67h278l-52 -293q-107 -93 -271 -93q-153 0 -240.5 95.5t-81.5 249.5
q7 173 126.5 294.5t290.5 121.5z" />
    <glyph glyph-name="gcircumflex" unicode="&#x11d;" horiz-adv-x="583" 
d="M373 732l121 -155h-65l-65 74l-91 -74h-75zM305 510q57 0 100 -21.5t63 -50.5l17 62h67l-88 -498q-19 -112 -93.5 -177t-180.5 -65q-141 0 -211 104l53 44q55 -82 157 -82q80 0 134 48t69 132l11 61q-69 -71 -166 -71q-96 0 -150 61.5t-54 162.5q0 116 76 203t196 87z
M309 444q-87 0 -144.5 -68t-57.5 -156q0 -74 37.5 -116.5t99.5 -42.5q41 0 76 15.5t53 31.5t44 45l38 210q-39 81 -146 81z" />
    <glyph glyph-name="Gbreve" unicode="&#x11e;" horiz-adv-x="740" 
d="M660 930q-9 -63 -55 -100.5t-108 -37.5q-64 0 -100 40t-28 98h55q-7 -39 14 -63.5t61 -24.5t69.5 25t36.5 63h55zM471 748q155 0 249 -109l-52 -52q-74 91 -200 91q-140 0 -235.5 -98.5t-101.5 -245.5q-7 -124 62 -200.5t187 -76.5t197 60l34 189h-201l11 67h278
l-52 -293q-107 -93 -271 -93q-153 0 -240.5 95.5t-81.5 249.5q7 173 126.5 294.5t290.5 121.5z" />
    <glyph glyph-name="gbreve" unicode="&#x11f;" horiz-adv-x="583" 
d="M516 718q-9 -63 -52.5 -102t-106.5 -39q-65 0 -103 41t-29 100h55q-7 -37 14.5 -61t61.5 -24q41 0 69.5 23.5t35.5 61.5h55zM305 510q57 0 100 -21.5t63 -50.5l17 62h67l-88 -498q-19 -112 -93.5 -177t-180.5 -65q-141 0 -211 104l53 44q55 -82 157 -82q80 0 134 48
t69 132l11 61q-69 -71 -166 -71q-96 0 -150 61.5t-54 162.5q0 116 76 203t196 87zM309 444q-87 0 -144.5 -68t-57.5 -156q0 -74 37.5 -116.5t99.5 -42.5q41 0 76 15.5t53 31.5t44 45l38 210q-39 81 -146 81z" />
    <glyph glyph-name="Gdotaccent" unicode="&#x120;" horiz-adv-x="740" 
d="M510 890q18 0 29 -11.5t11 -28.5q0 -23 -17 -39.5t-39 -16.5q-18 0 -29.5 11t-11.5 28q0 23 17 40t40 17zM471 748q155 0 249 -109l-52 -52q-74 91 -200 91q-140 0 -235.5 -98.5t-101.5 -245.5q-7 -124 62 -200.5t187 -76.5t197 60l34 189h-201l11 67h278l-52 -293
q-107 -93 -271 -93q-153 0 -240.5 95.5t-81.5 249.5q7 173 126.5 294.5t290.5 121.5z" />
    <glyph glyph-name="gdotaccent" unicode="&#x121;" horiz-adv-x="583" 
d="M372 706q19 0 31 -12t12 -31q0 -24 -18 -41t-42 -17q-19 0 -31 11.5t-12 29.5q0 24 18 42t42 18zM305 510q57 0 100 -21.5t63 -50.5l17 62h67l-88 -498q-19 -112 -93.5 -177t-180.5 -65q-141 0 -211 104l53 44q55 -82 157 -82q80 0 134 48t69 132l11 61q-69 -71 -166 -71
q-96 0 -150 61.5t-54 162.5q0 116 76 203t196 87zM309 444q-87 0 -144.5 -68t-57.5 -156q0 -74 37.5 -116.5t99.5 -42.5q41 0 76 15.5t53 31.5t44 45l38 210q-39 81 -146 81z" />
    <glyph glyph-name="Gcommaaccent" unicode="&#x122;" horiz-adv-x="740" 
d="M471 748q155 0 249 -109l-52 -52q-74 91 -200 91q-140 0 -235.5 -98.5t-101.5 -245.5q-7 -124 62 -200.5t187 -76.5t197 60l34 189h-201l11 67h278l-52 -293q-107 -93 -271 -93q-153 0 -240.5 95.5t-81.5 249.5q7 173 126.5 294.5t290.5 121.5zM323 -57q21 0 33 -12
t11 -33q-1 -25 -25 -51l-67 -80h-4l31 173q10 3 21 3z" />
    <glyph glyph-name="gcommaaccent" unicode="&#x123;" horiz-adv-x="583" 
d="M352 581q-21 0 -33 12t-11 33q1 25 25 51l67 80h4l-31 -173q-11 -3 -21 -3zM305 510q57 0 100 -21.5t63 -50.5l17 62h67l-88 -498q-19 -112 -93.5 -177t-180.5 -65q-141 0 -211 104l53 44q55 -82 157 -82q80 0 134 48t69 132l11 61q-69 -71 -166 -71q-96 0 -150 61.5
t-54 162.5q0 116 76 203t196 87zM309 444q-87 0 -144.5 -68t-57.5 -156q0 -74 37.5 -116.5t99.5 -42.5q41 0 76 15.5t53 31.5t44 45l38 210q-39 81 -146 81z" />
    <glyph glyph-name="Hcircumflex" unicode="&#x124;" horiz-adv-x="724" 
d="M473 922l126 -141h-66l-68 72l-92 -72h-76zM717 735l-129 -735h-76l60 341h-399l-60 -341h-76l129 735h76l-57 -324h399l57 324h76z" />
    <glyph glyph-name="hcircumflex" unicode="&#x125;" horiz-adv-x="571" 
d="M226 929l126 -141h-65l-69 72l-92 -72h-76zM237 760l-56 -323q73 73 170 73q91 0 131.5 -62.5t23.5 -158.5l-50 -289h-73l52 295q11 66 -14 105.5t-82 39.5q-54 0 -93.5 -23.5t-80.5 -68.5l-62 -348h-72l134 760h72z" />
    <glyph glyph-name="Hbar" unicode="&#x126;" horiz-adv-x="748" 
d="M792 591l-10 -54h-86l-94 -537h-76l59 337h-399l-59 -337h-76l94 537h-86l10 54h85l26 144h76l-26 -144h399l26 144h76l-25 -144h86zM596 405l24 132h-399l-23 -132h398z" />
    <glyph glyph-name="hbar" unicode="&#x127;" horiz-adv-x="571" 
d="M351 510q91 0 131.5 -62.5t23.5 -158.5l-50 -289h-73l52 295q11 66 -14 105.5t-82 39.5q-54 0 -93.5 -23.5t-80.5 -68.5l-62 -348h-72l103 587h-80l10 54h80l21 119h72l-21 -119h134l-10 -54h-133l-26 -150q73 73 170 73z" />
    <glyph glyph-name="Itilde" unicode="&#x128;" horiz-adv-x="249" 
d="M165 913q24 0 42.5 -13.5t27.5 -29t22 -29t28 -13.5q46 0 59 79h49q-9 -57 -38.5 -92t-72.5 -35q-25 0 -43 13.5t-26.5 29t-21.5 29t-29 13.5q-47 0 -59 -78h-50q9 57 39 91.5t73 34.5zM242 735l-129 -735h-76l129 735h76z" />
    <glyph glyph-name="itilde" unicode="&#x129;" horiz-adv-x="221" 
d="M123 709q25 0 44 -13.5t28.5 -29t22.5 -29t27 -13.5q45 0 57 78h50q-7 -61 -37.5 -95.5t-72.5 -34.5q-27 0 -46 13.5t-27.5 29t-21.5 29t-28 13.5q-45 0 -57 -78h-51q4 58 36.5 94t75.5 36zM190 500l-87 -500h-73l88 500h72z" />
    <glyph glyph-name="Imacron" unicode="&#x12a;" horiz-adv-x="249" 
d="M350 853l-9 -53h-253l11 53h251zM242 735l-129 -735h-76l129 735h76z" />
    <glyph glyph-name="imacron" unicode="&#x12b;" horiz-adv-x="221" 
d="M302 652l-10 -53h-252l10 53h252zM190 500l-87 -500h-73l88 500h72z" />
    <glyph glyph-name="Ibreve" unicode="&#x12c;" horiz-adv-x="249" 
d="M380 920q-9 -63 -55 -100.5t-108 -37.5q-64 0 -100 40t-28 98h55q-7 -39 14 -63.5t61 -24.5t69.5 25t36.5 63h55zM242 735l-129 -735h-76l129 735h76z" />
    <glyph glyph-name="ibreve" unicode="&#x12d;" horiz-adv-x="221" 
d="M336 718q-9 -63 -52.5 -102t-106.5 -39q-65 0 -103 41t-29 100h55q-7 -37 14.5 -61t61.5 -24q41 0 69.5 23.5t35.5 61.5h55zM190 500l-87 -500h-73l88 500h72z" />
    <glyph glyph-name="Iogonek" unicode="&#x12e;" horiz-adv-x="249" 
d="M84 0q-36 -18 -59 -50t-23 -71q0 -29 16.5 -45.5t43.5 -16.5q21 0 39 8l9 -46q-20 -9 -50 -9q-49 0 -79 30t-30 78q0 91 90 146l125 711h76l-129 -735h-29z" />
    <glyph glyph-name="iogonek" unicode="&#x12f;" horiz-adv-x="221" 
d="M191 715q21 0 33 -12.5t12 -32.5q0 -25 -18.5 -42.5t-42.5 -17.5q-21 0 -33 12.5t-12 32.5q0 25 18 42.5t43 17.5zM86 0q-36 -18 -59 -50t-23 -71q0 -29 16.5 -45.5t43.5 -16.5q21 0 39 8l9 -46q-20 -9 -50 -9q-49 0 -79 30t-30 78q0 84 80 140l85 482h72l-87 -500h-17z
" />
    <glyph glyph-name="Idotaccent" unicode="&#x130;" horiz-adv-x="249" 
d="M230 880q18 0 29 -11.5t11 -28.5q0 -23 -17 -39.5t-39 -16.5q-18 0 -29.5 11t-11.5 28q0 23 17 40t40 17zM242 735l-129 -735h-76l129 735h76z" />
    <glyph glyph-name="dotlessi" unicode="&#x131;" horiz-adv-x="221" 
d="M190 500l-87 -500h-73l88 500h72z" />
    <glyph glyph-name="IJ" unicode="&#x132;" horiz-adv-x="741" 
d="M242 735l-129 -735h-76l129 735h76zM738 735l-94 -534q-18 -101 -82.5 -157.5t-160.5 -56.5q-91 0 -145 61.5t-36 166.5h73q-13 -73 18.5 -115.5t93.5 -42.5q65 0 108.5 39.5t55.5 111.5l93 527h76z" />
    <glyph glyph-name="ij" unicode="&#x133;" horiz-adv-x="437" 
d="M407 715q21 0 33 -12.5t12 -32.5q0 -25 -18.5 -42.5t-42.5 -17.5q-21 0 -33 12.5t-12 32.5q0 25 18 42.5t43 17.5zM191 715q21 0 33 -12.5t12 -32.5q0 -25 -18.5 -42.5t-42.5 -17.5q-21 0 -33 12.5t-12 32.5q0 25 18 42.5t43 17.5zM115 -240q-71 0 -116 40l44 55
q31 -29 75 -29q43 0 74.5 27t39.5 71l101 576h73l-103 -582q-11 -69 -63.5 -113.5t-124.5 -44.5zM190 500l-87 -500h-73l88 500h72z" />
    <glyph glyph-name="Jcircumflex" unicode="&#x134;" horiz-adv-x="526" 
d="M518 922l126 -141h-66l-68 72l-92 -72h-76zM523 735l-94 -534q-18 -101 -82.5 -157.5t-161.5 -56.5q-90 0 -144.5 61.5t-35.5 166.5h73q-13 -73 18.5 -115.5t93.5 -42.5q64 0 107.5 39.5t56.5 111.5l93 527h76z" />
    <glyph glyph-name="jcircumflex" unicode="&#x135;" horiz-adv-x="221" 
d="M194 732l121 -155h-64l-65 74l-91 -74h-75zM191 500l-103 -582q-12 -69 -64 -113.5t-124 -44.5q-86 0 -134 59l52 47q31 -40 84 -40q43 0 74.5 27t39.5 71l102 576h73z" />
    <glyph glyph-name="Kcommaaccent" unicode="&#x136;" horiz-adv-x="637" 
d="M671 735l-279 -360l183 -375h-85l-147 312l-242 -312h-64l129 735h76l-101 -573l439 573h91zM284 -54q21 0 33 -12t11 -33q-1 -25 -25 -51l-67 -80h-4l31 173q11 3 21 3z" />
    <glyph glyph-name="kcommaaccent" unicode="&#x137;" horiz-adv-x="517" 
d="M238 760l-110 -625l303 365h88l-193 -227l135 -273h-78l-108 213l-178 -213h-66l134 760h73zM221 -54q21 0 33 -12t11 -33q-1 -25 -25 -51l-67 -80h-4l31 173q10 3 21 3z" />
    <glyph glyph-name="Lacute" unicode="&#x139;" horiz-adv-x="545" 
d="M425 895l-169 -113h-90l152 113h107zM242 735l-118 -667h369l-12 -68h-444l129 735h76z" />
    <glyph glyph-name="lacute" unicode="&#x13a;" horiz-adv-x="228" 
d="M428 902l-169 -113h-89l152 113h106zM238 760l-135 -760h-72l134 760h73z" />
    <glyph glyph-name="Lcommaaccent" unicode="&#x13b;" horiz-adv-x="545" 
d="M242 735l-118 -667h369l-12 -68h-444l129 735h76zM231 -54q21 0 33 -12t11 -33q-1 -25 -25 -51l-67 -80h-4l31 173q10 3 21 3z" />
    <glyph glyph-name="lcommaaccent" unicode="&#x13c;" horiz-adv-x="228" 
d="M238 760l-135 -760h-72l134 760h73zM45 -54q21 0 33 -12t11 -33q-1 -25 -25 -51l-67 -80h-4l31 173q10 3 21 3z" />
    <glyph glyph-name="Lcaron" unicode="&#x13d;" horiz-adv-x="545" 
d="M356 741q22 0 34 -13t11 -34q-1 -29 -19 -53l-78 -103h-4l36 200q10 3 20 3zM242 735l-118 -667h369l-12 -68h-444l129 735h76z" />
    <glyph glyph-name="lcaron" unicode="&#x13e;" horiz-adv-x="228" 
d="M327 761q21 0 33 -13t11 -34q-1 -29 -19 -53l-77 -103h-4l35 200q10 3 21 3zM238 760l-135 -760h-72l134 760h73z" />
    <glyph glyph-name="Ldot" unicode="&#x13f;" horiz-adv-x="545" 
d="M242 735l-118 -667h369l-12 -68h-444l129 735h76zM379 376q23 0 35.5 -15.5t8.5 -38.5q-4 -22 -22 -37.5t-41 -15.5t-36 15t-8 38q4 23 22 38.5t41 15.5z" />
    <glyph glyph-name="ldot" unicode="&#x140;" horiz-adv-x="397" 
d="M238 760l-135 -760h-72l134 760h73zM323 310q23 0 35.5 -15.5t8.5 -38.5t-22 -38t-41 -15t-36 15t-8 38q4 23 22 38.5t41 15.5z" />
    <glyph glyph-name="Lslash" unicode="&#x141;" horiz-adv-x="569" 
d="M148 68h369l-12 -68h-444l43 246l-84 -43l-15 55l111 56l74 421h76l-67 -379l131 67l16 -54l-159 -81z" />
    <glyph glyph-name="lslash" unicode="&#x142;" horiz-adv-x="256" 
d="M285 390l-110 -55l-60 -335h-73l53 296l-89 -44l-14 48l113 56l72 404h73l-65 -365l87 43z" />
    <glyph glyph-name="Nacute" unicode="&#x143;" horiz-adv-x="725" 
d="M660 895l-169 -113h-90l152 113h107zM173 748l371 -577l98 564h76l-132 -748h-4l-369 576l-100 -563h-76l132 748h4z" />
    <glyph glyph-name="nacute" unicode="&#x144;" horiz-adv-x="571" 
d="M558 701l-174 -123h-83l155 123h102zM350 510q91 0 131.5 -62.5t24.5 -158.5l-51 -289h-73l52 295q11 66 -13.5 105.5t-81.5 39.5q-55 0 -94.5 -23.5t-80.5 -68.5l-61 -348h-73l88 500h66l-8 -67q72 77 174 77z" />
    <glyph glyph-name="Ncommaaccent" unicode="&#x145;" horiz-adv-x="725" 
d="M173 748l371 -577l98 564h76l-132 -748h-4l-369 576l-100 -563h-76l132 748h4zM307 -54q21 0 33 -12t11 -33q-1 -25 -25 -51l-67 -80h-4l31 173q10 3 21 3z" />
    <glyph glyph-name="ncommaaccent" unicode="&#x146;" horiz-adv-x="571" 
d="M350 510q91 0 131.5 -62.5t24.5 -158.5l-51 -289h-73l52 295q11 66 -13.5 105.5t-81.5 39.5q-55 0 -94.5 -23.5t-80.5 -68.5l-61 -348h-73l88 500h66l-8 -67q72 77 174 77zM238 -54q21 0 33 -12t11 -33q-1 -25 -25 -51l-67 -80h-4l31 173q11 3 21 3z" />
    <glyph glyph-name="Ncaron" unicode="&#x147;" horiz-adv-x="725" 
d="M625 914l-176 -141l-126 141h65l69 -72l92 72h76zM173 748l371 -577l98 564h76l-132 -748h-4l-369 576l-100 -563h-76l132 748h4z" />
    <glyph glyph-name="ncaron" unicode="&#x148;" horiz-adv-x="571" 
d="M527 727l-175 -156l-121 156h65l64 -74l91 74h76zM350 510q91 0 131.5 -62.5t24.5 -158.5l-51 -289h-73l52 295q11 66 -13.5 105.5t-81.5 39.5q-55 0 -94.5 -23.5t-80.5 -68.5l-61 -348h-73l88 500h66l-8 -67q72 77 174 77z" />
    <glyph glyph-name="Eng" unicode="&#x14a;" horiz-adv-x="725" 
d="M718 735l-132 -748l-1 -9q-18 -101 -86.5 -159.5t-166.5 -58.5l12 72q65 0 109 40t56 111l17 92l-313 488l-100 -563h-76l132 748h4l370 -575l43 239l56 323h76z" />
    <glyph glyph-name="eng" unicode="&#x14b;" horiz-adv-x="568" 
d="M352 510q90 0 130 -60.5t23 -157.5l-65 -364q-14 -72 -70.5 -120t-129.5 -48l11 66q43 0 75 27t40 70l67 372q11 65 -16.5 105t-87.5 40q-49 0 -87 -22t-79 -65l-62 -353h-73l88 500h67l-9 -71q81 81 178 81z" />
    <glyph glyph-name="Omacron" unicode="&#x14c;" horiz-adv-x="812" 
d="M630 863l-9 -53h-253l11 53h251zM469 748q146 0 234.5 -96t88.5 -244q0 -110 -53 -206t-149.5 -155.5t-212.5 -59.5q-146 0 -234.5 95.5t-88.5 244.5q0 110 53 206t149 155.5t213 59.5zM463 678q-138 0 -235.5 -105.5t-97.5 -246.5q0 -121 69 -195t184 -74
q138 0 235 105.5t97 246.5q0 121 -68.5 195t-183.5 74z" />
    <glyph glyph-name="omacron" unicode="&#x14d;" horiz-adv-x="577" 
d="M482 652l-10 -53h-252l10 53h252zM318 510q101 0 163 -65t62 -165q0 -118 -81.5 -204t-202.5 -86q-101 0 -163 65t-62 165q0 117 81.5 203.5t202.5 86.5zM313 444q-85 0 -145 -66t-60 -157q0 -73 43 -119t114 -46q85 0 144.5 66t59.5 156q0 74 -42.5 120t-113.5 46z" />
    <glyph glyph-name="Obreve" unicode="&#x14e;" horiz-adv-x="812" 
d="M659 930q-9 -63 -55 -100.5t-108 -37.5q-64 0 -100 40t-28 98h55q-7 -39 14 -63.5t61 -24.5t69.5 25t36.5 63h55zM469 748q146 0 234.5 -96t88.5 -244q0 -110 -53 -206t-149.5 -155.5t-212.5 -59.5q-146 0 -234.5 95.5t-88.5 244.5q0 110 53 206t149 155.5t213 59.5z
M463 678q-138 0 -235.5 -105.5t-97.5 -246.5q0 -121 69 -195t184 -74q138 0 235 105.5t97 246.5q0 121 -68.5 195t-183.5 74z" />
    <glyph glyph-name="obreve" unicode="&#x14f;" horiz-adv-x="577" 
d="M516 718q-9 -63 -52.5 -102t-106.5 -39q-65 0 -103 41t-29 100h55q-7 -37 14.5 -61t61.5 -24q41 0 69.5 23.5t35.5 61.5h55zM318 510q101 0 163 -65t62 -165q0 -118 -81.5 -204t-202.5 -86q-101 0 -163 65t-62 165q0 117 81.5 203.5t202.5 86.5zM313 444q-85 0 -145 -66
t-60 -157q0 -73 43 -119t114 -46q85 0 144.5 66t59.5 156q0 74 -42.5 120t-113.5 46z" />
    <glyph glyph-name="Ohungarumlaut" unicode="&#x150;" horiz-adv-x="812" 
d="M577 912l-131 -117h-69l121 117h79zM734 912l-131 -117h-69l122 117h78zM469 748q146 0 234.5 -96t88.5 -244q0 -110 -53 -206t-149.5 -155.5t-212.5 -59.5q-146 0 -234.5 95.5t-88.5 244.5q0 110 53 206t149 155.5t213 59.5zM463 678q-138 0 -235.5 -105.5t-97.5 -246.5
q0 -121 69 -195t184 -74q138 0 235 105.5t97 246.5q0 121 -68.5 195t-183.5 74z" />
    <glyph glyph-name="ohungarumlaut" unicode="&#x151;" horiz-adv-x="577" 
d="M425 712l-133 -141h-67l126 141h74zM582 712l-133 -141h-67l126 141h74zM318 510q101 0 163 -65t62 -165q0 -118 -81.5 -204t-202.5 -86q-101 0 -163 65t-62 165q0 117 81.5 203.5t202.5 86.5zM313 444q-85 0 -145 -66t-60 -157q0 -73 43 -119t114 -46q85 0 144.5 66
t59.5 156q0 74 -42.5 120t-113.5 46z" />
    <glyph glyph-name="OE" unicode="&#x152;" horiz-adv-x="1191" 
d="M1212 665h-369l-45 -258h325l-13 -69h-326l-46 -268h377l-12 -70h-453l22 128q-123 -141 -303 -141q-140 0 -226 89t-91 229q-4 113 50 215t154 165t220 63q96 0 167.5 -46.5t107.5 -127.5l28 161h445zM377 57q142 0 243 112t96 258q-4 113 -71 182t-177 69
q-143 0 -243.5 -112t-95.5 -258q4 -113 71 -182t177 -69z" />
    <glyph glyph-name="oe" unicode="&#x153;" horiz-adv-x="962" 
d="M736 510q106 0 158.5 -73.5t34.5 -182.5l-4 -30h-385q-5 -78 33 -125t115 -47q95 0 163 71l45 -44q-84 -89 -212 -89q-147 0 -197 117q-39 -54 -98 -85.5t-130 -31.5q-101 0 -163 65t-62 165q0 117 81.5 203.5t202.5 86.5q70 0 122 -32t79 -88q78 120 217 120zM862 283
q9 73 -25 118t-105 45q-72 0 -120 -46t-63 -117h313zM265 56q85 0 144.5 66t59.5 156q0 74 -42.5 120t-113.5 46q-85 0 -145 -66t-60 -157q0 -73 43 -119t114 -46z" />
    <glyph glyph-name="Racute" unicode="&#x154;" horiz-adv-x="615" 
d="M595 895l-169 -113h-90l152 113h107zM609 546q0 -92 -54 -155.5t-142 -87.5l137 -303h-82l-131 290q-5 0 -14 -0.5t-13 -0.5h-147l-50 -289h-76l129 735h213q103 0 166.5 -50.5t63.5 -138.5zM175 358h140q90 0 153.5 47.5t63.5 136.5q-1 61 -43.5 93t-118.5 32h-139z" />
    <glyph glyph-name="racute" unicode="&#x155;" horiz-adv-x="311" 
d="M456 701l-174 -123h-83l155 123h102zM340 510l-13 -73h-7q-81 0 -156 -88l-61 -349h-73l88 500h66l-7 -65q65 75 163 75z" />
    <glyph glyph-name="Rcommaaccent" unicode="&#x156;" horiz-adv-x="615" 
d="M609 546q0 -92 -54 -155.5t-142 -87.5l137 -303h-82l-131 290q-5 0 -14 -0.5t-13 -0.5h-147l-50 -289h-76l129 735h213q103 0 166.5 -50.5t63.5 -138.5zM175 358h140q90 0 153.5 47.5t63.5 136.5q-1 61 -43.5 93t-118.5 32h-139zM270 -54q21 0 33 -12t11 -33
q-1 -25 -25 -51l-67 -80h-4l31 173q11 3 21 3z" />
    <glyph glyph-name="rcommaaccent" unicode="&#x157;" horiz-adv-x="311" 
d="M340 510l-13 -73h-7q-81 0 -156 -88l-61 -349h-73l88 500h66l-7 -65q65 75 163 75zM43 -54q21 0 33 -12t11 -33q-1 -25 -25 -51l-67 -80h-4l31 173q10 3 21 3z" />
    <glyph glyph-name="Rcaron" unicode="&#x158;" horiz-adv-x="615" 
d="M559 914l-176 -141l-126 141h65l69 -72l92 72h76zM609 546q0 -92 -54 -155.5t-142 -87.5l137 -303h-82l-131 290q-5 0 -14 -0.5t-13 -0.5h-147l-50 -289h-76l129 735h213q103 0 166.5 -50.5t63.5 -138.5zM175 358h140q90 0 153.5 47.5t63.5 136.5q-1 61 -43.5 93
t-118.5 32h-139z" />
    <glyph glyph-name="rcaron" unicode="&#x159;" horiz-adv-x="311" 
d="M426 727l-175 -156l-121 156h65l64 -74l91 74h76zM340 510l-13 -73h-7q-81 0 -156 -88l-61 -349h-73l88 500h66l-7 -65q65 75 163 75z" />
    <glyph glyph-name="Sacute" unicode="&#x15a;" horiz-adv-x="580" 
d="M577 905l-169 -113h-90l152 113h107zM340 748q130 0 230 -83l-43 -56q-86 69 -187 69q-77 0 -129.5 -41.5t-50.5 -107.5q1 -50 35.5 -75.5t120.5 -44.5q109 -25 158.5 -68t52.5 -116q4 -108 -76 -173t-202 -65q-148 0 -251 94l47 57q86 -81 206 -81q88 0 144.5 44
t54.5 112q-1 49 -39 79t-119 48q-113 25 -159 66t-48 112q-4 100 69 165t186 65z" />
    <glyph glyph-name="sacute" unicode="&#x15b;" horiz-adv-x="445" 
d="M491 701l-174 -123h-83l155 123h102zM255 510q98 0 166 -57l-39 -54q-55 46 -127 46q-53 0 -85.5 -22t-31.5 -64q1 -30 21.5 -44t74.5 -27q83 -21 116.5 -50.5t35.5 -78.5q3 -77 -57.5 -123t-147.5 -46q-114 0 -180 61l41 57q62 -54 147 -54q49 0 87 24.5t37 70.5
q-1 28 -24 44t-79 30q-77 19 -110.5 47.5t-34.5 79.5q-3 71 52.5 115.5t137.5 44.5z" />
    <glyph glyph-name="Scircumflex" unicode="&#x15c;" horiz-adv-x="580" 
d="M390 932l126 -141h-66l-68 72l-92 -72h-76zM340 748q130 0 230 -83l-43 -56q-86 69 -187 69q-77 0 -129.5 -41.5t-50.5 -107.5q1 -50 35.5 -75.5t120.5 -44.5q109 -25 158.5 -68t52.5 -116q4 -108 -76 -173t-202 -65q-148 0 -251 94l47 57q86 -81 206 -81q88 0 144.5 44
t54.5 112q-1 49 -39 79t-119 48q-113 25 -159 66t-48 112q-4 100 69 165t186 65z" />
    <glyph glyph-name="scircumflex" unicode="&#x15d;" horiz-adv-x="445" 
d="M308 732l121 -155h-65l-65 74l-91 -74h-75zM255 510q98 0 166 -57l-39 -54q-55 46 -127 46q-53 0 -85.5 -22t-31.5 -64q1 -30 21.5 -44t74.5 -27q83 -21 116.5 -50.5t35.5 -78.5q3 -77 -57.5 -123t-147.5 -46q-114 0 -180 61l41 57q62 -54 147 -54q49 0 87 24.5t37 70.5
q-1 28 -24 44t-79 30q-77 19 -110.5 47.5t-34.5 79.5q-3 71 52.5 115.5t137.5 44.5z" />
    <glyph glyph-name="Scedilla" unicode="&#x15e;" horiz-adv-x="580" 
d="M316 409q109 -25 158.5 -68t52.5 -116q4 -105 -73.5 -170.5t-196.5 -67.5l-18 -39q35 -3 58 -24.5t22 -54.5q0 -46 -33 -72.5t-84 -26.5q-59 0 -94 42l33 32q25 -28 62 -28q27 0 45 13t18 37q0 33 -37 41q-25 3 -48 -3l-3 4l37 80q-126 11 -217 93l47 57q86 -81 206 -81
q88 0 144.5 44t54.5 112q-1 49 -39 79t-119 48q-113 25 -159 66t-48 112q-4 100 69 165t186 65q130 0 230 -83l-43 -56q-86 69 -187 69q-77 0 -129.5 -41.5t-50.5 -107.5q1 -50 35.5 -75.5t120.5 -44.5z" />
    <glyph glyph-name="scedilla" unicode="&#x15f;" horiz-adv-x="445" 
d="M234 288q83 -21 116.5 -50.5t35.5 -78.5q3 -76 -55.5 -121.5t-143.5 -47.5l-16 -35q35 -3 58 -24.5t22 -54.5q0 -46 -33 -72.5t-84 -26.5q-59 0 -94 42l33 32q25 -28 62 -28q27 0 45 13t18 37q0 33 -37 41q-25 3 -48 -3l-3 4l35 77q-91 9 -144 59l41 57q62 -54 147 -54
q49 0 87 24.5t37 70.5q-1 28 -24 44t-79 30q-77 19 -110.5 47.5t-34.5 79.5q-3 71 52.5 115.5t137.5 44.5q98 0 166 -57l-39 -54q-55 46 -127 46q-53 0 -85.5 -22t-31.5 -64q1 -30 21.5 -44t74.5 -27z" />
    <glyph glyph-name="Scaron" unicode="&#x160;" horiz-adv-x="580" 
d="M542 924l-176 -141l-126 141h65l69 -72l92 72h76zM340 748q130 0 230 -83l-43 -56q-86 69 -187 69q-77 0 -129.5 -41.5t-50.5 -107.5q1 -50 35.5 -75.5t120.5 -44.5q109 -25 158.5 -68t52.5 -116q4 -108 -76 -173t-202 -65q-148 0 -251 94l47 57q86 -81 206 -81
q88 0 144.5 44t54.5 112q-1 49 -39 79t-119 48q-113 25 -159 66t-48 112q-4 100 69 165t186 65z" />
    <glyph glyph-name="scaron" unicode="&#x161;" horiz-adv-x="445" 
d="M460 727l-175 -156l-121 156h65l64 -74l91 74h76zM255 510q98 0 166 -57l-39 -54q-55 46 -127 46q-53 0 -85.5 -22t-31.5 -64q1 -30 21.5 -44t74.5 -27q83 -21 116.5 -50.5t35.5 -78.5q3 -77 -57.5 -123t-147.5 -46q-114 0 -180 61l41 57q62 -54 147 -54q49 0 87 24.5
t37 70.5q-1 28 -24 44t-79 30q-77 19 -110.5 47.5t-34.5 79.5q-3 71 52.5 115.5t137.5 44.5z" />
    <glyph glyph-name="Tcedilla" unicode="&#x162;" horiz-adv-x="638" 
d="M88 735h611l-11 -68h-268l-117 -667h-15l-24 -52q35 -3 58 -24.5t22 -54.5q0 -46 -33 -72.5t-84 -26.5q-59 0 -94 42l33 32q24 -28 62 -28q27 0 45 13t18 37q0 33 -37 41q-25 3 -48 -3l-3 4l42 92h-18l117 667h-267z" />
    <glyph glyph-name="tcedilla" unicode="&#x163;" horiz-adv-x="385" 
d="M208 436l-48 -277q-18 -102 72 -102q49 0 78 17l19 -61q-36 -23 -106 -23q-14 0 -21 1l-20 -43q35 -3 58 -24.5t22 -54.5q0 -46 -33 -72.5t-84 -26.5q-59 0 -94 42l33 32q24 -28 62 -28q27 0 45 13t18 37q0 33 -37 41q-25 3 -48 -3l-3 4l42 92q-45 17 -65 59t-10 104
l47 273h-101l12 64h101l30 170h73l-30 -170h165l-12 -64h-165z" />
    <glyph glyph-name="Tcaron" unicode="&#x164;" horiz-adv-x="638" 
d="M579 914l-176 -141l-126 141h65l69 -72l92 72h76zM699 735l-11 -68h-268l-117 -667h-76l117 667h-267l11 68h611z" />
    <glyph glyph-name="tcaron" unicode="&#x165;" horiz-adv-x="385" 
d="M359 761q22 0 34 -13t11 -34q-1 -29 -19 -53l-78 -103h-4l36 200q11 3 20 3zM250 670l-30 -170h165l-12 -64h-165l-48 -277q-18 -102 72 -102q49 0 78 17l19 -61q-36 -23 -106 -23q-73 0 -111 46t-24 127l47 273h-101l12 64h101l30 170h73z" />
    <glyph glyph-name="Tbar" unicode="&#x166;" horiz-adv-x="638" 
d="M688 667h-268l-49 -283h154l-9 -54h-155l-58 -330h-76l58 330h-154l9 54h155l49 283h-267l11 68h611z" />
    <glyph glyph-name="tbar" unicode="&#x167;" horiz-adv-x="385" 
d="M376 447h-165l-21 -123h165l-10 -53h-164l-19 -112q-10 -50 11.5 -76t66.5 -26q47 0 78 17l9 -61q-38 -23 -103 -23q-73 0 -111 46t-24 127l19 108h-101l9 53h101l22 123h-102l10 53h102l30 170h72l-30 -170h165z" />
    <glyph glyph-name="Utilde" unicode="&#x168;" horiz-adv-x="698" 
d="M386 913q24 0 42.5 -13.5t27.5 -29t22 -29t28 -13.5q46 0 59 79h49q-9 -57 -38.5 -92t-72.5 -35q-25 0 -43 13.5t-26.5 29t-21.5 29t-29 13.5q-47 0 -59 -78h-50q9 57 39 91.5t73 34.5zM699 735l-84 -479q-22 -127 -102.5 -198t-209.5 -71q-130 0 -191.5 73.5
t-38.5 201.5l83 473h76l-83 -475q-17 -96 22.5 -149.5t136.5 -53.5q94 0 154 54.5t78 148.5l83 475h76z" />
    <glyph glyph-name="utilde" unicode="&#x169;" horiz-adv-x="558" 
d="M290 709q25 0 44 -13.5t28.5 -29t22.5 -29t27 -13.5q45 0 57 78h50q-7 -61 -37.5 -95.5t-72.5 -34.5q-27 0 -46 13.5t-27.5 29t-21.5 29t-28 13.5q-45 0 -57 -78h-51q4 58 36.5 94t75.5 36zM527 500l-88 -500h-67l9 66q-74 -76 -171 -76q-86 0 -126 62t-23 157l51 291h73
l-53 -297q-11 -65 12.5 -104.5t77.5 -39.5t91.5 23t79.5 68l61 350h73z" />
    <glyph glyph-name="Umacron" unicode="&#x16a;" horiz-adv-x="698" 
d="M571 853l-9 -53h-253l11 53h251zM699 735l-84 -479q-22 -127 -102.5 -198t-209.5 -71q-130 0 -191.5 73.5t-38.5 201.5l83 473h76l-83 -475q-17 -96 22.5 -149.5t136.5 -53.5q94 0 154 54.5t78 148.5l83 475h76z" />
    <glyph glyph-name="umacron" unicode="&#x16b;" horiz-adv-x="558" 
d="M469 652l-10 -53h-252l10 53h252zM527 500l-88 -500h-67l9 66q-74 -76 -171 -76q-86 0 -126 62t-23 157l51 291h73l-53 -297q-11 -65 12.5 -104.5t77.5 -39.5t91.5 23t79.5 68l61 350h73z" />
    <glyph glyph-name="Ubreve" unicode="&#x16c;" horiz-adv-x="698" 
d="M600 920q-9 -63 -55 -100.5t-108 -37.5q-64 0 -100 40t-28 98h55q-7 -39 14 -63.5t61 -24.5t69.5 25t36.5 63h55zM699 735l-84 -479q-22 -127 -102.5 -198t-209.5 -71q-130 0 -191.5 73.5t-38.5 201.5l83 473h76l-83 -475q-17 -96 22.5 -149.5t136.5 -53.5q94 0 154 54.5
t78 148.5l83 475h76z" />
    <glyph glyph-name="ubreve" unicode="&#x16d;" horiz-adv-x="558" 
d="M503 718q-9 -63 -52.5 -102t-106.5 -39q-65 0 -103 41t-29 100h55q-7 -37 14.5 -61t61.5 -24q41 0 69.5 23.5t35.5 61.5h55zM527 500l-88 -500h-67l9 66q-74 -76 -171 -76q-86 0 -126 62t-23 157l51 291h73l-53 -297q-11 -65 12.5 -104.5t77.5 -39.5t91.5 23t79.5 68
l61 350h73z" />
    <glyph glyph-name="Uring" unicode="&#x16e;" horiz-adv-x="698" 
d="M465 984q40 0 65 -25.5t25 -63.5q0 -48 -35 -81t-84 -33q-40 0 -65 25.5t-25 63.5q0 48 35 81t84 33zM459 940q-25 0 -46 -19t-21 -48q0 -21 13.5 -34t35.5 -13q25 0 46 18.5t21 46.5q0 21 -13.5 35t-35.5 14zM699 735l-84 -479q-22 -127 -102.5 -198t-209.5 -71
q-130 0 -191.5 73.5t-38.5 201.5l83 473h76l-83 -475q-17 -96 22.5 -149.5t136.5 -53.5q94 0 154 54.5t78 148.5l83 475h76z" />
    <glyph glyph-name="uring" unicode="&#x16f;" horiz-adv-x="558" 
d="M365 776q40 0 65.5 -26t25.5 -64q0 -48 -35.5 -81t-83.5 -33q-40 0 -65.5 26t-25.5 63q0 48 35 81.5t84 33.5zM360 731q-25 0 -46 -19t-21 -47q0 -21 13 -34.5t35 -13.5q26 0 47 19t21 47q0 21 -13.5 34.5t-35.5 13.5zM527 500l-88 -500h-67l9 66q-74 -76 -171 -76
q-86 0 -126 62t-23 157l51 291h73l-53 -297q-11 -65 12.5 -104.5t77.5 -39.5t91.5 23t79.5 68l61 350h73z" />
    <glyph glyph-name="Uhungarumlaut" unicode="&#x170;" horiz-adv-x="698" 
d="M518 902l-131 -117h-69l121 117h79zM675 902l-131 -117h-69l122 117h78zM699 735l-84 -479q-22 -127 -102.5 -198t-209.5 -71q-130 0 -191.5 73.5t-38.5 201.5l83 473h76l-83 -475q-17 -96 22.5 -149.5t136.5 -53.5q94 0 154 54.5t78 148.5l83 475h76z" />
    <glyph glyph-name="uhungarumlaut" unicode="&#x171;" horiz-adv-x="558" 
d="M412 712l-133 -141h-67l126 141h74zM569 712l-133 -141h-67l126 141h74zM527 500l-88 -500h-67l9 66q-74 -76 -171 -76q-86 0 -126 62t-23 157l51 291h73l-53 -297q-11 -65 12.5 -104.5t77.5 -39.5t91.5 23t79.5 68l61 350h73z" />
    <glyph glyph-name="Uogonek" unicode="&#x172;" horiz-adv-x="698" 
d="M623 735h76l-84 -479q-17 -95 -67 -160t-130 -91q-62 -43 -62 -110q0 -29 16.5 -45.5t43.5 -16.5q21 0 39 8l9 -46q-20 -9 -50 -9q-49 0 -79 30t-30 78q0 53 32 94q-11 -1 -34 -1q-130 0 -191.5 73.5t-38.5 201.5l83 473h76l-83 -475q-17 -96 22.5 -149.5t136.5 -53.5
q94 0 154 54.5t78 148.5z" />
    <glyph glyph-name="uogonek" unicode="&#x173;" horiz-adv-x="558" 
d="M408 -183q21 0 39 8l9 -46q-20 -9 -50 -9q-49 0 -79 30t-30 78q0 83 77 138l7 50q-74 -76 -171 -76q-86 0 -126 62t-23 157l51 291h73l-53 -297q-11 -65 12.5 -104.5t77.5 -39.5t91.5 23t79.5 68l61 350h73l-88 -500h-9q-36 -18 -59 -50t-23 -71q0 -29 16.5 -45.5
t43.5 -16.5z" />
    <glyph glyph-name="Wcircumflex" unicode="&#x174;" horiz-adv-x="969" 
d="M587 922l126 -141h-66l-68 72l-92 -72h-76zM1023 735l-406 -747h-4l-92 549l-286 -549h-4l-144 747h76l101 -551l284 551h4l93 -548l289 548h89z" />
    <glyph glyph-name="wcircumflex" unicode="&#x175;" horiz-adv-x="755" 
d="M450 732l121 -155h-65l-65 74l-91 -74h-75zM782 500l-303 -510h-4l-87 350l-213 -350h-4l-123 510h71l80 -352l210 352h4l84 -352l206 352h79z" />
    <glyph glyph-name="Ycircumflex" unicode="&#x176;" horiz-adv-x="630" 
d="M417 922l126 -141h-66l-68 72l-92 -72h-76zM697 735l-348 -419l-55 -316h-76l55 315l-201 420h84l163 -343l284 343h94z" />
    <glyph glyph-name="ycircumflex" unicode="&#x177;" 
d="M338 732l121 -155h-65l-65 74l-91 -74h-75zM554 500l-482 -730h-83l201 293l-137 437h73l110 -363l238 363h80z" />
    <glyph glyph-name="Ydieresis" unicode="&#x178;" horiz-adv-x="630" 
d="M324 881q18 0 29 -11t11 -28q0 -22 -16 -37t-38 -15q-18 0 -28.5 11t-10.5 28q0 22 15.5 37t37.5 15zM485 881q18 0 28.5 -11t10.5 -28q0 -21 -16 -36.5t-37 -15.5q-18 0 -29 11t-11 28q0 22 15.5 37t38.5 15zM697 735l-348 -419l-55 -316h-76l55 315l-201 420h84
l163 -343l284 343h94z" />
    <glyph glyph-name="Zacute" unicode="&#x179;" horiz-adv-x="573" 
d="M585 895l-169 -113h-90l152 113h107zM613 735v-4l-497 -661h392l-13 -70h-515v4l497 661h-365l12 70h489z" />
    <glyph glyph-name="zacute" unicode="&#x17a;" horiz-adv-x="440" 
d="M496 701l-174 -123h-83l155 123h102zM461 500l-1 -4l-348 -433h272l-10 -63h-391l1 4l346 432h-255l10 64h376z" />
    <glyph glyph-name="Zdotaccent" unicode="&#x17b;" horiz-adv-x="573" 
d="M391 880q18 0 29 -11.5t11 -28.5q0 -23 -17 -39.5t-39 -16.5q-18 0 -29.5 11t-11.5 28q0 23 17 40t40 17zM613 735v-4l-497 -661h392l-13 -70h-515v4l497 661h-365l12 70h489z" />
    <glyph glyph-name="zdotaccent" unicode="&#x17c;" horiz-adv-x="440" 
d="M311 706q19 0 31 -12t12 -31q0 -24 -18 -41t-42 -17q-19 0 -31 11.5t-12 29.5q0 24 18 42t42 18zM461 500l-1 -4l-348 -433h272l-10 -63h-391l1 4l346 432h-255l10 64h376z" />
    <glyph glyph-name="Zcaron" unicode="&#x17d;" horiz-adv-x="573" 
d="M550 914l-176 -141l-126 141h65l69 -72l92 72h76zM613 735v-4l-497 -661h392l-13 -70h-515v4l497 661h-365l12 70h489z" />
    <glyph glyph-name="zcaron" unicode="&#x17e;" horiz-adv-x="440" 
d="M466 727l-175 -156l-121 156h65l64 -74l91 74h76zM461 500l-1 -4l-348 -433h272l-10 -63h-391l1 4l346 432h-255l10 64h376z" />
    <glyph glyph-name="florin" unicode="&#x192;" horiz-adv-x="387" 
d="M386 752q64 0 107 -46l-41 -53q-24 32 -69 32q-39 0 -67.5 -28t-41.5 -77l-23 -80h112l-19 -64h-111l-149 -519q-20 -70 -67.5 -113.5t-113.5 -43.5q-65 0 -108 45l41 53q25 -32 69 -32q39 0 68 28.5t41 77.5l145 504h-77l19 64h76l27 94q20 70 67.5 114t114.5 44z" />
    <glyph glyph-name="Aringacute" unicode="&#x1fa;" horiz-adv-x="684" 
d="M669 1047l-169 -113h-89l152 113h106zM542 817q0 -43 -29 -74.5t-72 -38.5l186 -704h-77l-46 173h-345l-105 -173h-87l433 706q-31 7 -49.5 31t-18.5 56q0 48 35.5 80.5t84.5 32.5q39 0 64.5 -25.5t25.5 -63.5zM379 796q0 -21 13.5 -34.5t35.5 -13.5q26 0 46.5 18.5
t20.5 47.5q0 21 -13.5 34.5t-35.5 13.5q-26 0 -46.5 -19t-20.5 -47zM201 240h285l-85 334z" />
    <glyph glyph-name="aringacute" unicode="&#x1fb;" horiz-adv-x="578" 
d="M600 901l-169 -113h-90l153 113h106zM378 750q40 0 65.5 -26t25.5 -63q0 -48 -35 -81t-84 -33q-40 0 -65.5 25.5t-25.5 63.5q0 48 35 81t84 33zM373 705q-25 0 -46 -18.5t-21 -46.5q0 -21 13 -34.5t35 -13.5q26 0 47 18.5t21 46.5q0 21 -13.5 34.5t-35.5 13.5zM302 510
q111 0 162 -76l13 66h67l-88 -500h-66l10 64q-70 -74 -166 -74q-95 0 -148 64t-53 166q0 116 75 203t194 87zM306 444q-87 0 -143 -68t-56 -156q0 -74 36.5 -119t97.5 -45q40 0 75.5 16.5t49.5 29.5t44 45l38 216q-39 81 -142 81z" />
    <glyph glyph-name="AEacute" unicode="&#x1fc;" horiz-adv-x="869" 
d="M802 895l-169 -113h-90l152 113h107zM902 735l-12 -70h-428l62 -260h277l-12 -66h-250l65 -269h189l-12 -70h-242l-42 176h-346l-104 -176h-85l443 735h497zM398 597l-211 -360h296z" />
    <glyph glyph-name="aeacute" unicode="&#x1fd;" horiz-adv-x="941" 
d="M734 701l-174 -123h-83l155 123h102zM708 510q107 0 159.5 -73t34.5 -183l-5 -30h-396q-4 -79 37.5 -125.5t122.5 -46.5q96 0 162 71l46 -44q-86 -89 -210 -89q-136 0 -187 102l-16 -92h-66l10 64q-70 -74 -166 -74q-95 0 -148 64t-53 166q0 116 75 203t194 87
q111 0 162 -76l13 66h64l-12 -78q66 88 179 88zM703 446q-73 0 -123 -45t-68 -118h322q9 73 -25.5 118t-105.5 45zM306 444q-87 0 -143 -68t-56 -156q0 -74 36.5 -119t97.5 -45q31 0 56 7t47.5 24t33 27.5t32.5 34.5l38 214q-39 81 -142 81z" />
    <glyph glyph-name="Oslashacute" unicode="&#x1fe;" horiz-adv-x="802" 
d="M691 905l-169 -113h-90l152 113h107zM679 676q113 -97 113 -268q0 -110 -53 -206t-149.5 -155.5t-212.5 -59.5q-91 0 -164 41l-78 -108h-75l103 143q-109 95 -109 264q0 110 53 206t149 155.5t213 59.5q87 0 160 -38l75 105h75zM130 326q0 -128 77 -203l378 527
q-54 28 -122 28q-138 0 -235.5 -105.5t-97.5 -246.5zM383 57q138 0 235 105.5t97 246.5q0 132 -80 206l-379 -527q56 -31 127 -31z" />
    <glyph glyph-name="oslashacute" unicode="&#x1ff;" horiz-adv-x="568" 
d="M546 701l-174 -123h-82l155 123h101zM467 458q76 -64 76 -178q0 -118 -81.5 -204t-202.5 -86q-60 0 -110 25l-61 -85h-56l79 110q-77 66 -77 180q0 117 81.5 203.5t202.5 86.5q61 0 111 -26l62 86h56zM108 221q0 -76 46 -122l235 328q-34 17 -76 17q-85 0 -145 -66
t-60 -157zM265 56q85 0 144.5 66t59.5 156q0 75 -44 122l-235 -328q32 -16 75 -16z" />
    <glyph glyph-name="Scommaaccent" unicode="&#x218;" horiz-adv-x="580" 
d="M340 748q130 0 230 -83l-43 -56q-86 69 -187 69q-77 0 -129.5 -41.5t-50.5 -107.5q1 -50 35.5 -75.5t120.5 -44.5q109 -25 158.5 -68t52.5 -116q4 -108 -76 -173t-202 -65q-148 0 -251 94l47 57q86 -81 206 -81q88 0 144.5 44t54.5 112q-1 49 -39 79t-119 48
q-113 25 -159 66t-48 112q-4 100 69 165t186 65zM231 -57q21 0 33 -12t11 -33q-1 -25 -25 -51l-67 -80h-4l31 173q10 3 21 3z" />
    <glyph glyph-name="scommaaccent" unicode="&#x219;" horiz-adv-x="445" 
d="M255 510q98 0 166 -57l-39 -54q-55 46 -127 46q-53 0 -85.5 -22t-31.5 -64q1 -30 21.5 -44t74.5 -27q83 -21 116.5 -50.5t35.5 -78.5q3 -77 -57.5 -123t-147.5 -46q-114 0 -180 61l41 57q62 -54 147 -54q49 0 87 24.5t37 70.5q-1 28 -24 44t-79 30q-77 19 -110.5 47.5
t-34.5 79.5q-3 71 52.5 115.5t137.5 44.5zM150 -57q21 0 33 -12t11 -33q-1 -25 -25 -51l-67 -80h-4l31 173q11 3 21 3z" />
    <glyph glyph-name="Tcommaaccent" unicode="&#x21a;" horiz-adv-x="638" 
d="M699 735l-11 -68h-268l-117 -667h-76l117 667h-267l11 68h611zM238 -54q21 0 33 -12t11 -33q-1 -25 -25 -51l-67 -80h-4l31 173q11 3 21 3z" />
    <glyph glyph-name="tcommaaccent" unicode="&#x21b;" horiz-adv-x="385" 
d="M250 670l-30 -170h165l-12 -64h-165l-48 -277q-18 -102 72 -102q49 0 78 17l19 -61q-36 -23 -106 -23q-73 0 -111 46t-24 127l47 273h-101l12 64h101l30 170h73zM153 -55q21 0 33 -12t11 -33q-1 -25 -25 -51l-67 -80h-4l31 173q10 3 21 3z" />
    <glyph glyph-name="circumflex" unicode="&#x2c6;" horiz-adv-x="340" 
d="M243 732l121 -155h-65l-65 74l-91 -74h-75z" />
    <glyph glyph-name="caron" unicode="&#x2c7;" horiz-adv-x="340" 
d="M392 727l-175 -156l-121 156h65l64 -74l91 74h76z" />
    <glyph glyph-name="breve" unicode="&#x2d8;" horiz-adv-x="335" 
d="M393 718q-9 -63 -52.5 -102t-106.5 -39q-65 0 -103 41t-29 100h55q-7 -37 14.5 -61t61.5 -24q41 0 69.5 23.5t35.5 61.5h55z" />
    <glyph glyph-name="dotaccent" unicode="&#x2d9;" horiz-adv-x="148" 
d="M143 706q19 0 31 -12t12 -31q0 -24 -18 -41t-42 -17q-19 0 -31 11.5t-12 29.5q0 24 18 42t42 18z" />
    <glyph glyph-name="ring" unicode="&#x2da;" horiz-adv-x="250" 
d="M204 776q40 0 65.5 -26t25.5 -64q0 -48 -35.5 -81t-83.5 -33q-40 0 -65.5 26t-25.5 63q0 48 35 81.5t84 33.5zM199 731q-25 0 -46 -19t-21 -47q0 -21 13 -34.5t35 -13.5q26 0 47 19t21 47q0 21 -13.5 34.5t-35.5 13.5z" />
    <glyph glyph-name="ogonek" unicode="&#x2db;" horiz-adv-x="221" 
d="M89 41l12 -41q-36 -18 -59 -50t-23 -71q0 -29 16.5 -45.5t43.5 -16.5q21 0 39 8l9 -46q-20 -9 -50 -9q-49 0 -79 30t-30 78q0 106 121 163z" />
    <glyph glyph-name="tilde" unicode="&#x2dc;" horiz-adv-x="358" 
d="M181 709q25 0 44 -13.5t28.5 -29t22.5 -29t27 -13.5q45 0 57 78h50q-7 -61 -37.5 -95.5t-72.5 -34.5q-27 0 -46 13.5t-27.5 29t-21.5 29t-28 13.5q-45 0 -57 -78h-51q4 58 36.5 94t75.5 36z" />
    <glyph glyph-name="hungarumlaut" unicode="&#x2dd;" horiz-adv-x="370" 
d="M280 712l-133 -141h-67l126 141h74zM437 712l-133 -141h-67l126 141h74z" />
    <glyph glyph-name="uni03A9" unicode="&#x3a9;" horiz-adv-x="858" 
d="M508 749q132 0 206.5 -77.5t73.5 -200.5q0 -119 -60.5 -214t-170.5 -179h223l-13 -78h-333l14 74q113 66 186 166t73 220q0 97 -54.5 154t-153.5 57q-128 0 -216.5 -95.5t-88.5 -232.5q0 -162 144 -269l-13 -74h-331l13 78h231q-124 116 -123 269q0 164 113.5 283
t279.5 119z" />
    <glyph glyph-name="pi" unicode="&#x3c0;" horiz-adv-x="690" 
d="M666 575l51 -32q-33 -56 -72.5 -81.5t-112.5 -25.5h-16l-89 -289q-24 -83 32 -83q37 0 78 28l18 -55q-53 -40 -117 -40q-55 0 -76.5 39.5t-1.5 103.5l90 296h-132l-81 -263q-29 -92 -76 -173h-74q56 85 87 185l78 251h-28q-46 0 -80 -16t-73 -51l-30 51q85 81 207 81h267
q65 0 93.5 15.5t57.5 58.5z" />
    <glyph glyph-name="Wgrave" unicode="&#x1e80;" horiz-adv-x="969" 
d="M487 895l120 -113h-78l-134 113h92zM1023 735l-406 -747h-4l-92 549l-286 -549h-4l-144 747h76l101 -551l284 551h4l93 -548l289 548h89z" />
    <glyph glyph-name="wgrave" unicode="&#x1e81;" horiz-adv-x="755" 
d="M345 701l124 -123h-75l-137 123h88zM782 500l-303 -510h-4l-87 350l-213 -350h-4l-123 510h71l80 -352l210 352h4l84 -352l206 352h79z" />
    <glyph glyph-name="Wacute" unicode="&#x1e82;" horiz-adv-x="969" 
d="M774 895l-169 -113h-90l152 113h107zM1023 735l-406 -747h-4l-92 549l-286 -549h-4l-144 747h76l101 -551l284 551h4l93 -548l289 548h89z" />
    <glyph glyph-name="wacute" unicode="&#x1e83;" horiz-adv-x="755" 
d="M633 701l-174 -123h-83l155 123h102zM782 500l-303 -510h-4l-87 350l-213 -350h-4l-123 510h71l80 -352l210 352h4l84 -352l206 352h79z" />
    <glyph glyph-name="Wdieresis" unicode="&#x1e84;" horiz-adv-x="969" 
d="M494 881q18 0 29 -11t11 -28q0 -22 -16 -37t-38 -15q-18 0 -28.5 11t-10.5 28q0 22 15.5 37t37.5 15zM655 881q18 0 28.5 -11t10.5 -28q0 -21 -16 -36.5t-37 -15.5q-18 0 -29 11t-11 28q0 22 15.5 37t38.5 15zM1023 735l-406 -747h-4l-92 549l-286 -549h-4l-144 747h76
l101 -551l284 551h4l93 -548l289 548h89z" />
    <glyph glyph-name="wdieresis" unicode="&#x1e85;" horiz-adv-x="755" 
d="M362 683q17 0 28 -11t11 -29q0 -22 -16 -37t-38 -15q-18 0 -28.5 11t-10.5 29q0 22 15.5 37t38.5 15zM522 683q18 0 28.5 -11t10.5 -29q0 -21 -16 -36.5t-37 -15.5q-19 0 -29.5 11t-10.5 29q0 22 15.5 37t38.5 15zM782 500l-303 -510h-4l-87 350l-213 -350h-4l-123 510
h71l80 -352l210 352h4l84 -352l206 352h79z" />
    <glyph glyph-name="Ygrave" unicode="&#x1ef2;" horiz-adv-x="630" 
d="M317 895l120 -113h-78l-134 113h92zM697 735l-348 -419l-55 -316h-76l55 315l-201 420h84l163 -343l284 343h94z" />
    <glyph glyph-name="ygrave" unicode="&#x1ef3;" 
d="M233 701l124 -123h-75l-137 123h88zM554 500l-482 -730h-83l201 293l-137 437h73l110 -363l238 363h80z" />
    <glyph glyph-name="endash" unicode="&#x2013;" horiz-adv-x="559" 
d="M522 299l-12 -68h-475l12 68h475z" />
    <glyph glyph-name="emdash" unicode="&#x2014;" horiz-adv-x="803" 
d="M766 299l-12 -68h-719l12 68h719z" />
    <glyph glyph-name="quoteleft" unicode="&#x2018;" horiz-adv-x="178" 
d="M202 739l-45 -251q-14 -4 -23 -4q-24 0 -38 14.5t-12 37.5q3 21 16 39l98 164h4z" />
    <glyph glyph-name="quoteright" unicode="&#x2019;" horiz-adv-x="178" 
d="M163 739q23 0 36.5 -14.5t12.5 -37.5q-1 -17 -15 -39l-99 -164h-4l45 251q14 4 24 4z" />
    <glyph glyph-name="quotesinglbase" unicode="&#x201a;" horiz-adv-x="178" 
d="M58 101q23 0 36.5 -14.5t12.5 -37.5q-1 -17 -15 -39l-99 -164h-4l45 251q14 4 24 4z" />
    <glyph glyph-name="quotedblleft" unicode="&#x201c;" horiz-adv-x="344" 
d="M202 739l-45 -251q-14 -4 -24 -4q-23 0 -36.5 14.5t-12.5 37.5q2 19 15 39l99 164h4zM369 739l-45 -251q-14 -4 -23 -4q-23 0 -37 14.5t-12 37.5q1 20 15 39l98 164h4z" />
    <glyph glyph-name="quotedblright" unicode="&#x201d;" horiz-adv-x="343" 
d="M162 739q23 0 36.5 -14.5t12.5 -37.5q-1 -17 -15 -39l-99 -164h-4l45 251q14 4 24 4zM329 739q23 0 36.5 -14.5t12.5 -37.5q-1 -17 -15 -39l-99 -164h-4l45 251q14 4 24 4z" />
    <glyph glyph-name="quotedblbase" unicode="&#x201e;" horiz-adv-x="344" 
d="M223 101q24 0 37.5 -14.5t11.5 -37.5q-1 -20 -15 -39l-98 -164h-4l45 251q14 4 23 4zM58 101q23 0 36.5 -14.5t12.5 -37.5q-1 -17 -15 -39l-99 -164h-4l45 251q14 4 24 4z" />
    <glyph glyph-name="dagger" unicode="&#x2020;" horiz-adv-x="490" 
d="M359 735l-32 -184h178l-12 -67h-178l-85 -484h-72l85 484h-178l12 67h178l32 184h72z" />
    <glyph glyph-name="daggerdbl" unicode="&#x2021;" horiz-adv-x="490" 
d="M360 735l-32 -184h178l-12 -67h-178l-41 -233h177l-12 -67h-177l-32 -184h-73l32 184h-178l13 67h178l40 233h-177l12 67h177l32 184h73z" />
    <glyph glyph-name="bullet" unicode="&#x2022;" horiz-adv-x="295" 
d="M166 367q43 0 68 -27.5t23 -70.5q-3 -52 -40.5 -85.5t-89.5 -33.5q-42 0 -67.5 27.5t-23.5 69.5q3 52 41 86t89 34z" />
    <glyph glyph-name="ellipsis" unicode="&#x2026;" horiz-adv-x="670" 
d="M85 106q25 0 38.5 -14.5t11.5 -38.5q-2 -26 -22 -44.5t-46 -18.5q-25 0 -38 14.5t-11 38.5q1 26 21 44.5t46 18.5zM309 106q24 0 37.5 -14.5t11.5 -38.5q-2 -26 -22 -44.5t-46 -18.5q-24 0 -37.5 14.5t-11.5 38.5q1 26 21.5 44.5t46.5 18.5zM531 106q24 0 37.5 -14.5
t11.5 -38.5q-1 -26 -21.5 -44.5t-45.5 -18.5t-38 14.5t-11 38.5q1 26 21 44.5t46 18.5z" />
    <glyph glyph-name="perthousand" unicode="&#x2030;" horiz-adv-x="1256" 
d="M286 748q68 0 108.5 -43.5t40.5 -110.5q0 -85 -59 -148.5t-148 -63.5q-68 0 -108.5 43t-40.5 110q0 84 59.5 148.5t147.5 64.5zM781 735l-611 -735h-69l612 735h68zM279 693q-58 0 -99.5 -46t-41.5 -107q0 -46 26 -74.5t70 -28.5q59 0 100.5 45.5t41.5 107.5
q0 45 -26.5 74t-70.5 29zM656 354q68 0 108.5 -43.5t40.5 -110.5q0 -84 -59.5 -148t-147.5 -64q-68 0 -109 43t-41 111q0 84 59.5 148t148.5 64zM1054 354q68 0 108.5 -43.5t40.5 -110.5q0 -85 -59 -148.5t-148 -63.5q-68 0 -108.5 43t-40.5 111q0 84 59 148t148 64z
M649 299q-58 0 -100 -46.5t-42 -107.5q0 -45 26.5 -73.5t70.5 -28.5q58 0 100 45.5t42 107.5q0 45 -26.5 74t-70.5 29zM1047 299q-58 0 -99.5 -46.5t-41.5 -107.5q0 -46 26 -74t71 -28q58 0 99.5 45.5t41.5 107.5q0 45 -26.5 74t-70.5 29z" />
    <glyph glyph-name="guilsinglleft" unicode="&#x2039;" horiz-adv-x="283" 
d="M287 458l-181 -204l109 -200h-69l-112 203v4l178 197h75z" />
    <glyph glyph-name="guilsinglright" unicode="&#x203a;" horiz-adv-x="282" 
d="M140 458l111 -203v-4l-178 -197h-75l182 204l-109 200h69z" />
    <glyph glyph-name="fraction" unicode="&#x2044;" horiz-adv-x="191" 
d="M388 734l-491 -734h-64l493 734h62z" />
    <glyph glyph-name="zero.sups" unicode="&#x2070;" horiz-adv-x="380" 
d="M286 821q60 0 92 -41.5t32 -112.5q0 -113 -54.5 -197t-142.5 -84q-60 0 -92.5 42t-32.5 112q0 72 22 134.5t68 104.5t108 42zM279 769q-59 0 -96 -69t-37 -159q0 -103 74 -103q59 0 95.5 70t36.5 157q0 104 -73 104z" />
    <glyph glyph-name="four.sups" unicode="&#x2074;" horiz-adv-x="360" 
d="M381 817l-55 -301h60l-8 -46h-59l-15 -76h-58l14 76h-204v2l322 345h3zM297 661l-134 -145h107z" />
    <glyph glyph-name="five.sups" unicode="&#x2075;" horiz-adv-x="350" 
d="M391 813l-9 -52h-172l-23 -122q23 12 59 12q56 0 88 -29.5t32 -79.5q0 -63 -47 -109.5t-115 -46.5q-107 0 -127 95l52 18q11 -62 80 -62q40 0 70 30.5t30 69.5q1 29 -18.5 47.5t-52.5 18.5q-45 0 -83 -25l-33 15l40 220h229z" />
    <glyph glyph-name="six.sups" unicode="&#x2076;" horiz-adv-x="355" 
d="M248 660q55 0 89 -32.5t34 -82.5q0 -62 -50.5 -109t-120.5 -47q-54 0 -88 32.5t-34 83.5q0 52 38 96l188 212h69l-134 -153h9zM206 438q45 0 76.5 31t31.5 73q0 31 -20 50.5t-52 19.5q-45 0 -76.5 -31t-31.5 -73q0 -31 20 -50.5t52 -19.5z" />
    <glyph glyph-name="seven.sups" unicode="&#x2077;" horiz-adv-x="350" 
d="M435 813v-4l-295 -415h-67l261 363h-206l9 56h298z" />
    <glyph glyph-name="eight.sups" unicode="&#x2078;" horiz-adv-x="354" 
d="M280 821q47 0 77.5 -26.5t30.5 -67.5q0 -70 -79 -111q26 -10 43.5 -33.5t17.5 -56.5q0 -60 -47.5 -100t-117.5 -40q-56 0 -92 29.5t-36 78.5q0 47 29.5 78.5t70.5 45.5q-42 25 -42 76t43.5 89t101.5 38zM276 773q-37 0 -63 -22.5t-26 -55.5q0 -25 16.5 -42t44.5 -17
q36 0 61.5 25.5t25.5 58.5q0 24 -16 38.5t-43 14.5zM237 592q-44 0 -74.5 -27t-30.5 -65q0 -29 21 -47.5t56 -18.5q46 0 76 26t30 65q0 29 -22 48t-56 19z" />
    <glyph glyph-name="nine.sups" unicode="&#x2079;" horiz-adv-x="355" 
d="M284 818q54 0 88 -32.5t34 -83.5q0 -52 -38 -96l-188 -212h-70l135 153h-9q-55 0 -89 32.5t-34 82.5q0 62 50.5 109t120.5 47zM241 595q45 0 76.5 31t31.5 73q0 31 -19.5 50.5t-51.5 19.5q-45 0 -76.5 -31t-31.5 -73q0 -31 19.5 -50.5t51.5 -19.5z" />
    <glyph glyph-name="n.sups" unicode="&#x207f;" horiz-adv-x="419" 
d="M315 746q64 0 93.5 -42.5t18.5 -107.5l-36 -208h-62l37 206q8 44 -10 69t-53 25t-59.5 -14.5t-53.5 -44.5l-42 -241h-61l62 351h55l-5 -44q47 51 116 51z" />
    <glyph glyph-name="Euro" unicode="&#x20ac;" horiz-adv-x="656" 
d="M472 748q131 0 201 -89l-55 -52q-55 73 -158 73q-80 0 -144 -52.5t-102 -147.5h236l-10 -53h-244q-6 -21 -14 -60q-4 -17 -8 -58h245l-9 -53h-237q5 -95 51.5 -148.5t127.5 -53.5q101 0 187 75l39 -57q-103 -86 -239 -86q-111 0 -175 72t-68 198h-73l10 53h65q1 26 8 65
q5 28 12 53h-64l9 53h71q46 127 135 197.5t203 70.5z" />
    <glyph glyph-name="afii61289" unicode="&#x2113;" horiz-adv-x="584" 
d="M398 750q59 0 93.5 -36.5t29.5 -96.5q-2 -31 -14 -63t-26 -57.5t-43 -58.5t-47.5 -52t-56.5 -51t-52.5 -44t-53.5 -42l-15 -86q-19 -112 62 -112q52 0 93 33t85 91l39 -33q-113 -152 -239 -152q-68 0 -94 42.5t-15 106.5l11 63q-57 -47 -112 -83l-27 51q77 55 151 112
l54 303q28 165 177 165zM387 695q-85 0 -105 -106l-46 -264q101 83 139 123q83 90 85 167q1 37 -19 58.5t-54 21.5z" />
    <glyph glyph-name="trademark" unicode="&#x2122;" horiz-adv-x="823" 
d="M849 742l-67 -383h-57l38 211l-170 -213h-4l-96 218l-36 -216h-57l67 383h2l134 -295l244 295h2zM408 735l-9 -55h-133l-57 -321h-57l57 321h-133l9 55h323z" />
    <glyph glyph-name="Omega" unicode="&#x2126;" horiz-adv-x="858" 
d="M508 749q132 0 206.5 -77.5t73.5 -200.5q0 -119 -60.5 -214t-170.5 -179h223l-13 -78h-333l14 74q113 66 186 166t73 220q0 97 -54.5 154t-153.5 57q-128 0 -216.5 -95.5t-88.5 -232.5q0 -162 144 -269l-13 -74h-331l13 78h231q-124 116 -123 269q0 164 113.5 283
t279.5 119z" />
    <glyph glyph-name="estimated" unicode="&#x212e;" horiz-adv-x="591" 
d="M308 537q108 0 178 -68.5t70 -188.5h-419v-162q0 -38 29 -56q60 -48 142 -48q139 0 224 129l22 -13q-89 -141 -246 -141q-116 0 -194.5 76.5t-78.5 197.5q0 120 78.5 197t194.5 77zM308 511q-89 0 -140 -46q-31 -21 -31 -55v-105h321v109q0 44 -26 60q-51 37 -124 37z
" />
    <glyph glyph-name="partialdiff" unicode="&#x2202;" horiz-adv-x="545" 
d="M319 748q196 0 196 -258q0 -180 -51 -306q-33 -82 -98 -136.5t-152 -54.5q-90 0 -143.5 54t-53.5 141q0 113 80.5 194t187.5 81t152 -90q7 47 7 114q1 91 -32 141.5t-101 50.5q-93 0 -158 -79l-45 49q85 99 211 99zM278 397q-78 0 -134 -60.5t-56 -141.5q0 -60 37 -98
t98 -38q76 0 132 62.5t56 145.5q0 58 -36 94t-97 36z" />
    <glyph glyph-name="uni2206" unicode="&#x2206;" horiz-adv-x="721" 
d="M420 646l212 -646h-650zM399 515l-312 -458h461z" />
    <glyph glyph-name="product" unicode="&#x220f;" horiz-adv-x="706" 
d="M755 740l-12 -68h-137l-137 -773h-68l138 773h-227l-137 -773h-68l137 773h-137l12 68h636z" />
    <glyph glyph-name="summation" unicode="&#x2211;" horiz-adv-x="610" 
d="M641 740l-13 -72h-428l152 -291l-255 -305h437l-12 -72h-539l8 50l276 336l-160 304l9 50h525z" />
    <glyph glyph-name="minus" unicode="&#x2212;" horiz-adv-x="472" 
d="M451 384l-12 -68h-388l12 68h388z" />
    <glyph glyph-name="radical" unicode="&#x221a;" horiz-adv-x="697" 
d="M671 694l55 -26l-422 -740l-113 341l-140 -73l-24 53l209 114l87 -276z" />
    <glyph glyph-name="infinity" unicode="&#x221e;" horiz-adv-x="739" 
d="M570 455q68 0 106 -44t34 -110q-5 -79 -61 -135.5t-134 -56.5q-27 0 -50.5 8.5t-44 26.5t-30.5 29.5t-27 33.5l-17 23l-24 -25q-88 -81 -160 -81q-63 0 -96.5 40.5t-28.5 101.5q5 71 54 122t121 51q43 0 73.5 -22t60.5 -63l16 -24l19 20q51 50 95 77.5t94 27.5zM563 393
q-26 0 -54 -14.5t-46 -30.5t-49 -47l-21 -22l16 -24q19 -27 30.5 -40.5t35.5 -28.5t50 -15q48 0 84.5 38.5t37.5 91.5q2 40 -21 66t-63 26zM203 380q-43 0 -73.5 -34.5t-32.5 -80.5q-2 -35 17.5 -58t55.5 -23q56 0 123 72l24 25l-16 24q-48 75 -98 75z" />
    <glyph glyph-name="integral" unicode="&#x222b;" horiz-adv-x="434" 
d="M387 750q65 0 104 -24l-25 -56q-32 19 -73 19q-72 0 -91 -102l-107 -609q-15 -89 -53.5 -128.5t-102.5 -39.5q-70 0 -105 25l24 56q27 -20 76 -20q78 0 95 107l108 609q15 86 52 124.5t98 38.5z" />
    <glyph glyph-name="approxequal" unicode="&#x2248;" horiz-adv-x="623" 
d="M255 533q36 0 64 -14t43 -31t38.5 -31t52.5 -14q75 0 123 84l47 -34q-31 -55 -77 -86.5t-100 -31.5q-37 0 -65 14t-42 31t-37 31t-51 14q-71 0 -118 -85l-51 34q68 119 173 119zM202 325q36 0 64 -14t43 -31t38.5 -31t52.5 -14q75 0 122 85l48 -34q-31 -55 -77 -87
t-100 -32q-37 0 -65 14t-42 31.5t-37 31.5t-51 14q-70 0 -118 -85l-51 34q68 118 173 118z" />
    <glyph glyph-name="notequal" unicode="&#x2260;" horiz-adv-x="472" 
d="M457 428h-134l-87 -157h193l-11 -68h-219l-55 -99h-66l55 99h-104l11 68h130l87 157h-189l12 68h214l63 115h66l-63 -115h109z" />
    <glyph glyph-name="lessequal" unicode="&#x2264;" horiz-adv-x="378" 
d="M394 587l-231 -171l166 -167h-92l-170 169v4l223 165h104zM322 192l-11 -67h-293l11 67h293z" />
    <glyph glyph-name="greaterequal" unicode="&#x2265;" horiz-adv-x="378" 
d="M194 587l169 -170v-4l-222 -164h-105l232 171l-167 167h93zM324 192l-11 -67h-293l11 67h293z" />
    <glyph glyph-name="lozenge" unicode="&#x25ca;" horiz-adv-x="569" 
d="M385 738l157 -402l-298 -401h-46l-159 401l300 402h46zM349 633l-237 -305l123 -291l234 307z" />
    <glyph glyph-name="commaaccent" unicode="&#xf6c3;" horiz-adv-x="0" 
d="M-131 -54q21 0 33 -12t11 -33q-1 -25 -25 -51l-67 -80h-4l31 173q10 3 21 3z" />
    <glyph glyph-name="CR" horiz-adv-x="250" 
 />
    <glyph glyph-name="germandbls.cap" horiz-adv-x="654" 
d="M401 748q148 0 232 -116l-177 -205q68 -13 112 -58t44 -125q0 -107 -80 -182t-196 -75q-84 0 -139 35l30 66q45 -30 108 -30q83 0 139.5 53.5t56.5 132.5q0 71 -52.5 104.5t-141.5 33.5l-2 5l204 241q-49 49 -140 49q-76 0 -133 -47.5t-72 -132.5l-87 -497h-74l89 506
q20 114 97.5 178t181.5 64z" />
    <glyph glyph-name="endash_guilsinglright" horiz-adv-x="659" 
d="M385 535l238 -257l-329 -257l-32 47l232 179h-449l12 61h462l-175 187z" />
    <glyph glyph-name="emdash_guilsinglright" horiz-adv-x="987" 
d="M712 535l239 -257l-329 -257l-32 47l232 179h-777l12 61h789l-174 187z" />
    <glyph glyph-name="guilsinglleft_endash" horiz-adv-x="659" 
d="M368 534l32 -46l-232 -180h449l-11 -61h-463l175 -187l-40 -39l-238 256z" />
    <glyph glyph-name="guilsinglleft_emdash" horiz-adv-x="987" 
d="M369 534l31 -46l-231 -180h776l-11 -61h-790l174 -187l-39 -39l-239 256z" />
    <glyph glyph-name="at.cap" horiz-adv-x="833" 
d="M492 751q149 0 238 -88.5t89 -226.5q0 -46 -11 -93.5t-32.5 -92.5t-61.5 -73.5t-91 -28.5q-73 0 -78 61l-1 6q-59 -67 -151 -67q-78 0 -126 49.5t-48 126.5q0 101 65 179.5t167 78.5q98 0 134 -66l14 58h57l-58 -328q-7 -44 34 -44q44 0 75 39t43 89t12 104
q1 119 -72 191t-200 72q-158 0 -276 -115.5t-118 -276.5q-1 -121 71.5 -195t194.5 -74q76 0 141 24l9 -49q-75 -28 -151 -28q-147 0 -234 89t-87 233q1 180 134 313t318 133zM456 526q-75 0 -124.5 -58t-49.5 -138q-1 -57 31 -91.5t86 -34.5q82 0 142 74l32 180
q-39 68 -117 68z" />
    <glyph glyph-name="grave.cap" horiz-adv-x="275" 
d="M208 895l120 -113h-78l-134 113h92z" />
    <glyph glyph-name="acute.cap" horiz-adv-x="275" 
d="M377 895l-169 -113h-90l152 113h107z" />
    <glyph glyph-name="circumflex.cap" horiz-adv-x="346" 
d="M283 922l126 -141h-66l-68 72l-92 -72h-76z" />
    <glyph glyph-name="caron.cap" horiz-adv-x="346" 
d="M434 914l-176 -141l-126 141h65l69 -72l92 72h76z" />
    <glyph glyph-name="tilde.cap" horiz-adv-x="358" 
d="M219 913q24 0 42.5 -13.5t27.5 -29t22 -29t28 -13.5q46 0 59 79h49q-9 -57 -38.5 -92t-72.5 -35q-25 0 -43 13.5t-26.5 29t-21.5 29t-29 13.5q-47 0 -59 -78h-50q9 57 39 91.5t73 34.5z" />
    <glyph glyph-name="dieresis.cap" horiz-adv-x="296" 
d="M172 881q18 0 29 -11t11 -28q0 -22 -16 -37t-38 -15q-18 0 -28.5 11t-10.5 28q0 22 15.5 37t37.5 15zM333 881q18 0 28.5 -11t10.5 -28q0 -21 -16 -36.5t-37 -15.5q-18 0 -29 11t-11 28q0 22 15.5 37t38.5 15z" />
    <glyph glyph-name="macron.cap" horiz-adv-x="296" 
d="M371 853l-9 -53h-253l11 53h251z" />
    <glyph glyph-name="breve.cap" horiz-adv-x="335" 
d="M415 920q-9 -63 -55 -100.5t-108 -37.5q-64 0 -100 40t-28 98h55q-7 -39 14 -63.5t61 -24.5t69.5 25t36.5 63h55z" />
    <glyph glyph-name="ring.cap" horiz-adv-x="250" 
d="M234 984q40 0 65 -25.5t25 -63.5q0 -48 -35 -81t-84 -33q-40 0 -65 25.5t-25 63.5q0 48 35 81t84 33zM228 940q-25 0 -46 -19t-21 -48q0 -21 13.5 -34t35.5 -13q25 0 46 18.5t21 46.5q0 21 -13.5 35t-35.5 14z" />
    <glyph glyph-name="hungarumlaut.cap" horiz-adv-x="370" 
d="M352 902l-131 -117h-69l121 117h79zM509 902l-131 -117h-69l122 117h78z" />
    <glyph glyph-name="dotaccent.cap" horiz-adv-x="143" 
d="M167 880q18 0 29 -11.5t11 -28.5q0 -23 -17 -39.5t-39 -16.5q-18 0 -29.5 11t-11.5 28q0 23 17 40t40 17z" />
    <glyph glyph-name="parenleft.cap" horiz-adv-x="286" 
d="M279 788l51 -44q-80 -83 -133 -179t-69 -228q-27 -205 69 -353l-58 -38q-109 166 -81 389q30 254 221 453z" />
    <glyph glyph-name="parenright.cap" horiz-adv-x="286" 
d="M172 788q109 -165 82 -389q-30 -255 -220 -453l-51 44q80 82 132.5 178.5t68.5 228.5q26 205 -70 353z" />
    <glyph glyph-name="bracketleft.cap" horiz-adv-x="305" 
d="M354 797l-11 -62h-144l-127 -736h144l-11 -62h-214l148 860h215z" />
    <glyph glyph-name="bracketright.cap" horiz-adv-x="313" 
d="M342 797l-149 -860h-222l11 62h151l126 736h-151l11 62h223z" />
    <glyph glyph-name="braceleft.cap" horiz-adv-x="342" 
d="M395 797l-11 -62q-60 0 -101 -35.5t-46 -111.5l-6 -98q-6 -97 -80 -126q32 -14 41 -42t-5 -83l-25 -98q-36 -142 94 -142l-10 -62q-208 0 -150 223l25 97q13 48 -7 73.5t-72 37.5l1 4q113 26 118 112l6 96q6 110 67 163.5t161 53.5z" />
    <glyph glyph-name="braceright.cap" horiz-adv-x="342" 
d="M123 797q209 0 149 -223l-26 -97q-13 -48 7.5 -73.5t72.5 -37.5l-1 -4q-114 -26 -118 -112l-5 -96q-6 -110 -67 -163.5t-161 -53.5l11 62q59 0 99.5 35.5t45.5 111.5l7 98q6 97 81 126q-33 14 -42 42t5 83l25 98q37 142 -95 142z" />
    <glyph glyph-name="guilsinglleft.cap" horiz-adv-x="299" 
d="M324 576l-201 -226l118 -218h-68l-122 222v4l198 218h75z" />
    <glyph glyph-name="guilsinglright.cap" horiz-adv-x="298" 
d="M163 576l122 -222l-1 -4l-197 -218h-76l202 226l-119 218h69z" />
    <glyph glyph-name="guillemotleft.cap" horiz-adv-x="504" 
d="M311 576l-190 -224l111 -220h-69l-113 223l1 4l185 217h75zM529 576l-190 -224l111 -220h-70l-112 223l1 4l185 217h75z" />
    <glyph glyph-name="guillemotright.cap" horiz-adv-x="503" 
d="M159 576l113 -223l-1 -4l-184 -217h-76l191 224l-112 220h69zM377 576l113 -223l-1 -4l-185 -217h-75l191 224l-112 220h69z" />
    <glyph glyph-name="exclamdown.cap" horiz-adv-x="246" 
d="M185 636q-23 0 -35.5 14t-10.5 36q1 25 20 42t43 17q23 0 35.5 -13.5t10.5 -35.5q-1 -24 -20 -42t-43 -18zM36 0l95 541h73l-95 -541h-73z" />
    <glyph glyph-name="questiondown.cap" horiz-adv-x="473" 
d="M309 636q-22 0 -35 13.5t-11 36.5q1 25 20.5 42t42.5 17t36 -13.5t11 -35.5q-1 -25 -20.5 -42.5t-43.5 -17.5zM201 -13q-82 0 -130.5 47.5t-48.5 123.5q0 50 20.5 90.5t51.5 67.5t62 50.5t56 52.5t31 60l11 62h75l-13 -69q-5 -30 -20 -56.5t-34.5 -46t-42 -37.5
t-43.5 -36t-38.5 -37t-28 -44.5t-10.5 -55.5q0 -50 29.5 -77.5t78.5 -27.5q110 0 155 117l72 -15q-31 -81 -90.5 -125t-142.5 -44z" />
    <glyph glyph-name="endash.cap" horiz-adv-x="559" 
d="M535 391l-13 -69h-475l13 69h475z" />
    <glyph glyph-name="periodcentered.cap" horiz-adv-x="191" 
d="M122 408q23 0 35.5 -15.5t8.5 -38.5q-4 -22 -22 -37.5t-41 -15.5t-36 15t-8 38q4 23 22 38.5t41 15.5z" />
    <glyph glyph-name="emdash.cap" horiz-adv-x="803" 
d="M779 391l-13 -69h-719l13 69h719z" />
    <glyph glyph-name="hyphen.cap" horiz-adv-x="387" 
d="M362 391l-12 -69h-303l13 69h302z" />
    <glyph glyph-name="zero.dnom" horiz-adv-x="386" 
d="M220 427q59 0 91 -41.5t32 -112.5q0 -113 -54 -197t-142 -84q-60 0 -92.5 42t-32.5 112q0 72 22 134.5t68 104.5t108 42zM213 375q-59 0 -96 -69t-37 -159q0 -103 73 -103q60 0 96.5 70t36.5 157q0 104 -73 104z" />
    <glyph glyph-name="one.dnom" horiz-adv-x="257" 
d="M229 427l-79 -427h-57l62 330l-88 -52l-20 49l180 100h2z" />
    <glyph glyph-name="two.dnom" horiz-adv-x="351" 
d="M210 427q54 0 85 -29t31 -76q0 -67 -80 -147l-125 -123h161l-9 -52h-263l1 4l191 200q66 62 66 113q0 26 -17 42t-44 16q-66 0 -95 -71l-52 14q41 109 150 109z" />
    <glyph glyph-name="three.dnom" horiz-adv-x="348" 
d="M212 427q51 0 80 -28.5t29 -73.5q0 -36 -20.5 -65t-54.5 -43q55 -21 55 -80t-47.5 -102t-112.5 -43q-110 0 -126 104l51 11q13 -62 78 -62q41 0 70.5 26.5t29.5 65.5q0 26 -20 42.5t-56 16.5h-48l8 45h50q35 0 60.5 23t25.5 57q0 25 -16.5 39t-43.5 14q-62 0 -92 -59
l-48 23q50 89 148 89z" />
    <glyph glyph-name="four.dnom" horiz-adv-x="366" 
d="M317 423l-55 -301h60l-8 -46h-59l-15 -76h-58l14 76h-204v2l322 345h3zM233 267l-134 -145h107z" />
    <glyph glyph-name="five.dnom" horiz-adv-x="355" 
d="M322 419l-10 -52h-172l-23 -122q23 12 59 12q56 0 88.5 -29.5t32.5 -79.5q0 -63 -47 -109.5t-115 -46.5q-106 0 -128 95l52 18q13 -62 80 -62q40 0 70.5 30.5t30.5 69.5q0 30 -19.5 48t-52.5 18q-45 0 -83 -25l-33 15l40 220h230z" />
    <glyph glyph-name="six.dnom" horiz-adv-x="360" 
d="M182 266q55 0 89 -32.5t34 -82.5q0 -62 -50.5 -109t-120.5 -47q-54 0 -88 32.5t-34 83.5q0 52 38 96l188 212h69l-135 -153h10zM140 44q45 0 76.5 31t31.5 73q0 31 -20 50.5t-52 19.5q-45 0 -76.5 -31t-31.5 -73q0 -31 20 -50.5t52 -19.5z" />
    <glyph glyph-name="seven.dnom" horiz-adv-x="356" 
d="M370 419v-4l-295 -415h-67l261 363h-207l10 56h298z" />
    <glyph glyph-name="eight.dnom" horiz-adv-x="360" 
d="M218 427q47 0 77.5 -26.5t30.5 -67.5q0 -70 -79 -111q26 -10 43.5 -33.5t17.5 -56.5q0 -60 -48 -100t-117 -40q-56 0 -92 29.5t-36 78.5q0 47 29.5 78.5t70.5 45.5q-42 24 -42 76q0 51 43.5 89t101.5 38zM213 379q-36 0 -62 -22.5t-26 -55.5q0 -25 16.5 -42t44.5 -17
q36 0 61.5 25.5t25.5 58.5q0 24 -16.5 38.5t-43.5 14.5zM175 198q-44 0 -75 -27t-31 -65q0 -29 21 -47.5t56 -18.5q47 0 77 26t30 65q0 29 -22 48t-56 19z" />
    <glyph glyph-name="nine.dnom" horiz-adv-x="360" 
d="M222 424q54 0 88 -32.5t34 -83.5q0 -52 -38 -96l-188 -212h-70l136 153h-10q-55 0 -89 32.5t-34 82.5q0 62 50.5 109t120.5 47zM180 201q44 0 75.5 31t31.5 73q0 31 -19.5 50.5t-51.5 19.5q-45 0 -76.5 -31t-31.5 -73q0 -31 20 -50.5t52 -19.5z" />
    <glyph glyph-name="zero.numr" horiz-adv-x="380" 
d="M272 741q59 0 91 -41.5t32 -112.5q0 -113 -54 -197t-142 -84q-60 0 -92.5 42t-32.5 112q0 72 22 134.5t68 104.5t108 42zM265 689q-59 0 -96 -69t-37 -159q0 -103 73 -103q60 0 96.5 70t36.5 157q0 104 -73 104z" />
    <glyph glyph-name="one.numr" horiz-adv-x="251" 
d="M276 741l-79 -427h-57l62 330l-88 -52l-20 49l180 100h2z" />
    <glyph glyph-name="two.numr" horiz-adv-x="345" 
d="M258 741q54 0 85 -29t31 -76q0 -67 -80 -147l-125 -123h161l-9 -52h-263l1 4l191 200q66 62 66 113q0 26 -17 42t-44 16q-66 0 -95 -71l-52 14q41 109 150 109z" />
    <glyph glyph-name="three.numr" horiz-adv-x="342" 
d="M262 741q51 0 80 -28.5t29 -73.5q0 -36 -20.5 -65t-54.5 -43q55 -21 55 -80t-47.5 -102t-112.5 -43q-110 0 -126 104l51 11q13 -62 78 -62q41 0 70.5 26.5t29.5 65.5q0 26 -20 42.5t-56 16.5h-48l8 45h50q35 0 60.5 23t25.5 57q0 25 -16.5 39t-43.5 14q-62 0 -92 -59
l-48 23q50 89 148 89z" />
    <glyph glyph-name="four.numr" horiz-adv-x="360" 
d="M360 737l-55 -301h60l-8 -46h-59l-15 -76h-58l14 76h-204v2l322 345h3zM276 581l-134 -145h107z" />
    <glyph glyph-name="five.numr" horiz-adv-x="350" 
d="M376 733l-9 -52h-172l-23 -122q23 12 59 12q56 0 88 -29.5t32 -79.5q0 -63 -47 -109.5t-115 -46.5q-107 0 -127 95l52 18q11 -62 80 -62q40 0 70 30.5t30 69.5q1 29 -18.5 47.5t-52.5 18.5q-45 0 -83 -25l-33 15l40 220h229z" />
    <glyph glyph-name="six.numr" horiz-adv-x="355" 
d="M231 580q54 0 88 -32.5t34 -82.5q0 -62 -50.5 -109t-120.5 -47q-54 0 -88 32.5t-34 83.5q0 52 38 96l188 212h70l-135 -153h10zM188 358q45 0 76.5 31t31.5 73q0 31 -19.5 50.5t-51.5 19.5q-45 0 -76.5 -31t-31.5 -73q0 -31 19.5 -50.5t51.5 -19.5z" />
    <glyph glyph-name="seven.numr" horiz-adv-x="350" 
d="M415 733v-4l-295 -415h-67l261 363h-207l10 56h298z" />
    <glyph glyph-name="eight.numr" horiz-adv-x="354" 
d="M264 741q47 0 77.5 -26.5t30.5 -67.5q0 -70 -79 -111q26 -10 43.5 -33.5t17.5 -56.5q0 -60 -48 -100t-117 -40q-56 0 -92 29.5t-36 78.5q0 47 29.5 78.5t70.5 45.5q-42 24 -42 76q0 51 43.5 89t101.5 38zM259 693q-36 0 -62 -22.5t-26 -55.5q0 -25 16.5 -42t44.5 -17
q36 0 61.5 25.5t25.5 58.5q0 24 -16.5 38.5t-43.5 14.5zM221 512q-44 0 -75 -27t-31 -65q0 -29 21 -47.5t56 -18.5q47 0 77 26t30 65q0 29 -22 48t-56 19z" />
    <glyph glyph-name="nine.numr" horiz-adv-x="355" 
d="M265 738q54 0 88 -32.5t34 -83.5q0 -52 -38 -96l-188 -212h-70l135 153h-9q-55 0 -89 32.5t-34 82.5q0 62 50.5 109t120.5 47zM223 515q44 0 75.5 31t31.5 73q0 31 -19.5 50.5t-51.5 19.5q-45 0 -76.5 -31t-31.5 -73q0 -31 20 -50.5t52 -19.5z" />
    <glyph glyph-name="zero.subs" horiz-adv-x="380" 
d="M207 327q60 0 92 -41.5t32 -112.5q0 -113 -54.5 -197t-142.5 -84q-60 0 -92.5 42t-32.5 112q0 72 22 134.5t68 104.5t108 42zM200 275q-59 0 -96 -69t-37 -159q0 -103 74 -103q59 0 95.5 70t36.5 157q0 104 -73 104z" />
    <glyph glyph-name="one.subs" horiz-adv-x="251" 
d="M213 327l-79 -427h-57l62 330l-88 -52l-21 49l181 100h2z" />
    <glyph glyph-name="two.subs" horiz-adv-x="345" 
d="M186 327q54 0 84.5 -29t30.5 -76q0 -68 -79 -147l-125 -123h161l-9 -52h-263l1 4l191 200q65 61 65 113q0 26 -17 42t-43 16q-68 0 -95 -71l-52 14q41 109 150 109z" />
    <glyph glyph-name="three.subs" horiz-adv-x="342" 
d="M184 327q51 0 80 -28.5t29 -73.5q0 -36 -20.5 -65t-54.5 -43q55 -21 55 -80t-47.5 -102t-112.5 -43q-110 0 -126 104l51 11q13 -62 78 -62q41 0 70.5 26.5t29.5 65.5q0 26 -20 42.5t-56 16.5h-48l8 45h50q35 0 60.5 23t25.5 57q0 25 -16.5 39t-43.5 14q-62 0 -92 -59
l-48 23q50 89 148 89z" />
    <glyph glyph-name="four.subs" horiz-adv-x="360" 
d="M294 323l-56 -301h61l-8 -46h-60l-15 -76h-57l14 76h-205v2l323 345h3zM210 167l-134 -145h106z" />
    <glyph glyph-name="five.subs" horiz-adv-x="350" 
d="M301 319l-9 -52h-173l-23 -122q22 12 60 12q55 0 87.5 -29.5t32.5 -79.5q0 -63 -47 -109.5t-115 -46.5q-106 0 -128 95l52 18q13 -62 80 -62q40 0 70.5 30.5t30.5 69.5q0 30 -19.5 48t-52.5 18q-45 0 -83 -25l-33 15l40 220h230z" />
    <glyph glyph-name="six.subs" horiz-adv-x="355" 
d="M163 166q54 0 88 -32.5t34 -82.5q0 -62 -50.5 -109t-120.5 -47q-54 0 -88 32.5t-34 83.5q0 53 39 96l187 212h70l-135 -153h10zM121 -56q44 0 75.5 31t31.5 73q0 31 -19.5 50.5t-51.5 19.5q-45 0 -76.5 -31t-31.5 -73q0 -31 20 -50.5t52 -19.5z" />
    <glyph glyph-name="seven.subs" horiz-adv-x="350" 
d="M351 319v-4l-295 -415h-67l261 363h-206l9 56h298z" />
    <glyph glyph-name="eight.subs" horiz-adv-x="354" 
d="M191 327q47 0 77.5 -26.5t30.5 -67.5q0 -70 -79 -111q26 -10 44 -33.5t18 -56.5q0 -60 -48 -100t-118 -40q-56 0 -92 29.5t-36 78.5q0 47 29.5 78.5t70.5 45.5q-42 25 -42 76t43.5 89t101.5 38zM187 279q-36 0 -62.5 -22.5t-26.5 -55.5q0 -25 16.5 -42t44.5 -17
q37 0 62 25.5t25 58.5q0 24 -16 38.5t-43 14.5zM148 98q-44 0 -74.5 -27t-30.5 -65q0 -29 21 -47.5t56 -18.5q46 0 76 26t30 65q0 29 -22 48t-56 19z" />
    <glyph glyph-name="nine.subs" horiz-adv-x="355" 
d="M192 324q54 0 88 -32.5t34 -83.5q0 -53 -39 -96l-188 -212h-69l135 153h-10q-54 0 -88 32t-34 83q0 62 50 109t121 47zM149 101q45 0 76.5 31t31.5 73q0 31 -20 50.5t-52 19.5q-45 0 -76.5 -31t-31.5 -73q0 -31 20 -50.5t52 -19.5z" />
    <glyph glyph-name="zero.lnum" horiz-adv-x="600" 
d="M375 748q100 0 151 -69.5t51 -193.5q0 -211 -91.5 -354.5t-233.5 -143.5q-100 0 -150.5 69.5t-50.5 193.5q0 211 91.5 354.5t232.5 143.5zM367 680q-71 0 -127.5 -62.5t-86 -160.5t-29.5 -209q0 -193 136 -193q71 0 128 62.5t86 160t29 208.5q0 194 -136 194z" />
    <glyph glyph-name="one.lnum" horiz-adv-x="600" 
d="M483 748l-120 -679h145l-11 -69h-370l12 69h150l98 545l-198 -124l-33 60l323 198h4z" />
    <glyph glyph-name="two.lnum" horiz-adv-x="600" 
d="M370 748q94 0 144 -59t33 -153q-11 -68 -43.5 -120t-95.5 -117l-227 -231h294l-11 -68h-427l1 6l317 335q56 60 82 101t35 95q12 66 -20 104.5t-93 38.5q-120 0 -170 -130l-65 15q71 183 246 183z" />
    <glyph glyph-name="three.lnum" horiz-adv-x="600" 
d="M382 748q81 0 129 -47.5t48 -123.5q0 -135 -138 -193q49 -18 76 -59.5t27 -96.5q0 -101 -73.5 -171t-179.5 -70q-99 0 -147 43t-67 127l68 19q14 -59 47.5 -90.5t99.5 -31.5q71 0 125 52t54 126q0 56 -37.5 90t-102.5 34h-81l11 60h83q65 0 113 44.5t48 110.5
q0 52 -30 81t-82 29q-104 0 -168 -114l-63 30q86 151 240 151z" />
    <glyph glyph-name="four.lnum" horiz-adv-x="600" 
d="M526 739l-92 -517h110l-13 -68h-108l-27 -154h-74l27 154h-330l1 4l501 581h5zM416 518l-257 -297h201z" />
    <glyph glyph-name="five.lnum" horiz-adv-x="600" 
d="M554 735l-11 -67h-297l-45 -251q60 29 120 29q88 0 140 -52.5t52 -135.5q0 -111 -75.5 -191t-189.5 -80q-90 0 -138.5 40.5t-68.5 115.5l64 27q27 -116 145 -116q77 0 133.5 59.5t56.5 138.5q0 60 -33 95.5t-95 35.5q-82 0 -156 -50l-40 18l67 384h371z" />
    <glyph glyph-name="six.lnum" horiz-adv-x="600" 
d="M328 465q89 0 144.5 -57t55.5 -145q0 -110 -82 -193t-197 -83q-89 0 -144 56.5t-55 144.5q0 96 65 175l318 372h88l-233 -273q20 3 40 3zM258 54q77 0 135.5 62t58.5 144q0 61 -37 99.5t-96 38.5q-77 0 -135.5 -62t-58.5 -144q0 -61 37 -99.5t96 -38.5z" />
    <glyph glyph-name="seven.lnum" horiz-adv-x="600" 
d="M631 735l-1 -6l-503 -729h-85l465 667h-373l12 68h485z" />
    <glyph glyph-name="eight.lnum" horiz-adv-x="600" 
d="M381 748q76 0 125 -46t49 -117q0 -65 -37 -115.5t-92 -79.5q39 -19 69.5 -59.5t30.5 -98.5q0 -103 -81.5 -174t-191.5 -71q-87 0 -144.5 51.5t-57.5 135.5q0 80 49.5 135.5t117.5 84.5q-70 41 -70 134q0 89 70 154.5t163 65.5zM375 683q-62 0 -110 -45t-48 -109
q0 -49 30.5 -80.5t78.5 -31.5q61 0 109.5 47t48.5 110q0 48 -30 78.5t-79 30.5zM314 355q-70 0 -128.5 -51.5t-58.5 -122.5q0 -56 37.5 -92.5t95.5 -36.5q74 0 132.5 51t58.5 125q0 56 -38.5 91.5t-98.5 35.5z" />
    <glyph glyph-name="nine.lnum" horiz-adv-x="600" 
d="M382 748q89 0 144 -57t55 -145q0 -97 -65 -174l-318 -372h-88l233 273q-19 -3 -40 -3q-89 0 -144.5 56.5t-55.5 144.5q0 110 82 193.5t197 83.5zM312 337q77 0 135.5 62t58.5 144q0 61 -37 99.5t-96 38.5q-77 0 -135.5 -62.5t-58.5 -143.5q0 -61 37 -99.5t96 -38.5z" />
    <glyph glyph-name="zero.tnum" horiz-adv-x="587" 
d="M346 570q99 0 157.5 -68.5t51.5 -176.5q-7 -139 -95.5 -237t-212.5 -98q-99 0 -157.5 68.5t-51.5 176.5q7 139 95.5 237t212.5 98zM337 504q-91 0 -156 -78.5t-69 -190.5q-3 -80 36.5 -129.5t107.5 -49.5q91 0 156.5 78.5t68.5 190.5q3 80 -36.5 129.5t-107.5 49.5z" />
    <glyph glyph-name="one.tnum" horiz-adv-x="362" 
d="M332 570l-101 -570h-74l79 443l-167 -114l-23 66l282 175h4z" />
    <glyph glyph-name="two.tnum" horiz-adv-x="528" 
d="M313 570q79 0 128 -45.5t49 -116.5q0 -72 -35 -120t-109 -105l-149 -116h255l-12 -67h-418l1 6l256 207q40 32 56.5 46t39 39t31 49t8.5 54q0 49 -30 75.5t-80 26.5q-85 0 -140 -83l-57 33q80 117 206 117z" />
    <glyph glyph-name="three.tnum" horiz-adv-x="524" 
d="M320 570q82 0 129.5 -46.5t47.5 -120.5q0 -131 -138 -187q49 -17 76.5 -57.5t27.5 -93.5q0 -98 -73.5 -166t-179.5 -68q-99 0 -147 41.5t-67 123.5l67 19q15 -58 48 -87.5t100 -29.5q71 0 125 49.5t54 121.5q0 55 -38 87.5t-103 32.5h-81l11 59h84q64 0 112.5 43
t48.5 107q0 50 -30.5 77.5t-82.5 27.5q-105 0 -167 -109l-63 29q85 147 239 147z" />
    <glyph glyph-name="four.tnum" horiz-adv-x="546" 
d="M480 570l-91 -502h110l-13 -66h-108l-27 -149h-74l27 149h-330l1 4l500 564h5zM370 356l-256 -288h201z" />
    <glyph glyph-name="five.tnum" horiz-adv-x="533" 
d="M506 560l-11 -66h-297l-45 -243q60 29 117 29q89 0 142 -50.5t53 -132.5q0 -108 -75.5 -186t-189.5 -78q-89 0 -137.5 39.5t-69.5 112.5l64 26q28 -112 146 -112q76 0 132 57.5t56 134.5q0 60 -33 94t-96 34q-77 0 -154 -50l-40 18l67 373h371z" />
    <glyph glyph-name="six.tnum" horiz-adv-x="539" 
d="M301 451q89 0 144 -55t55 -141q0 -107 -81.5 -187.5t-196.5 -80.5q-89 0 -144.5 55t-55.5 140q0 94 64 167l319 364h86l-233 -265q21 3 43 3zM231 52q77 0 135.5 60.5t58.5 139.5q0 59 -37 96.5t-96 37.5q-77 0 -136 -60.5t-59 -139.5q0 -60 37.5 -97t96.5 -37z" />
    <glyph glyph-name="seven.tnum" horiz-adv-x="533" 
d="M573 560l-1 -6l-502 -707h-82l461 645h-372l11 68h485z" />
    <glyph glyph-name="eight.tnum" horiz-adv-x="539" 
d="M355 726q76 0 124.5 -44.5t48.5 -112.5q0 -64 -36.5 -113.5t-91.5 -76.5q39 -19 69.5 -58.5t30.5 -95.5q0 -100 -82 -169t-192 -69q-86 0 -143.5 50t-57.5 132q0 77 49.5 131.5t116.5 82.5q-69 38 -69 130q0 86 69.5 149.5t163.5 63.5zM348 662q-62 0 -109.5 -43.5
t-47.5 -105.5q0 -48 29.5 -78.5t79.5 -30.5q60 0 108.5 45.5t48.5 107.5q0 48 -29.5 76.5t-79.5 28.5zM288 344q-70 0 -129 -49.5t-59 -118.5q0 -55 37.5 -90t95.5 -35q74 0 133 49.5t59 120.5q0 54 -38.5 88.5t-98.5 34.5z" />
    <glyph glyph-name="nine.tnum" horiz-adv-x="539" 
d="M327 570q88 0 143.5 -55t55.5 -140q0 -95 -63 -167l-320 -364h-85l233 265q-21 -3 -43 -3q-89 0 -144.5 55t-55.5 141q0 107 82 187.5t197 80.5zM257 171q77 0 135.5 60t58.5 140q0 60 -37 97t-96 37q-77 0 -136 -60.5t-59 -139.5q0 -59 37.5 -96.5t96.5 -37.5z" />
    <glyph glyph-name="a.sups" horiz-adv-x="425" 
d="M276 746q79 0 110 -51l10 44h56l-61 -351h-56l5 43q-52 -50 -120 -50q-62 0 -100 43t-37 106q0 88 56 152t137 64zM281 692q-57 0 -97 -46t-40 -110q0 -46 24.5 -73.5t65.5 -27.5q65 0 115 62l25 146q-31 49 -93 49z" />
    <glyph glyph-name="b.sups" horiz-adv-x="425" 
d="M242 920l-40 -221q53 47 117 47q62 0 99.5 -43t37.5 -106q0 -88 -56 -152t-137 -64q-79 0 -110 51l-10 -44h-56l94 532h61zM305 692q-65 0 -115 -62l-25 -146q31 -49 93 -49q57 0 97 46t40 110q0 46 -24.5 73.5t-65.5 27.5z" />
    <glyph glyph-name="c.sups" horiz-adv-x="368" 
d="M289 746q96 0 135 -77l-49 -31q-26 54 -92 54q-60 0 -99.5 -47t-39.5 -112q0 -45 24.5 -71.5t72.5 -26.5q64 0 110 56l42 -38q-60 -72 -154 -72q-74 0 -115.5 41.5t-41.5 109.5q0 87 59.5 150.5t147.5 63.5z" />
    <glyph glyph-name="d.sups" horiz-adv-x="425" 
d="M484 920l-94 -532h-56l6 43q-52 -50 -120 -50q-62 0 -100 43t-38 106q0 88 56.5 152t136.5 64q75 0 108 -48l39 222h62zM280 692q-56 0 -96 -46t-40 -110q0 -46 24.5 -73.5t65.5 -27.5q63 0 115 62l24 146q-31 49 -93 49z" />
    <glyph glyph-name="e.sups" horiz-adv-x="388" 
d="M284 746q78 0 112.5 -51.5t21.5 -126.5l-4 -23h-271q-5 -52 19.5 -82.5t78.5 -30.5q65 0 111 48l38 -38q-61 -61 -153 -61q-73 0 -114 41t-41 106q0 89 56.5 153.5t145.5 64.5zM279 700q-48 0 -83 -30t-45 -79h212q7 50 -15 79.5t-69 29.5z" />
    <glyph glyph-name="f.sups" horiz-adv-x="261" 
d="M314 920q48 0 75 -27l-31 -47q-18 20 -45 20q-28 0 -46.5 -18.5t-23.5 -50.5l-11 -58h97l-10 -52h-96l-52 -299h-62l53 299h-65l9 52h65l11 61q9 55 43.5 87.5t88.5 32.5z" />
    <glyph glyph-name="g.sups" horiz-adv-x="426" 
d="M277 746q79 0 110 -51l10 44h55l-61 -350q-13 -79 -68 -124t-131 -45q-103 0 -152 74l45 38q35 -58 108 -58q53 0 89.5 33t47.5 88l8 36q-49 -45 -120 -45q-61 0 -97.5 41.5t-36.5 104.5q0 88 56.5 151t136.5 63zM282 692q-57 0 -97 -45t-40 -109q0 -46 24.5 -72
t65.5 -26q66 0 115 60l25 143q-31 49 -93 49z" />
    <glyph glyph-name="h.sups" horiz-adv-x="419" 
d="M240 920l-39 -222q48 48 114 48q63 0 93 -42t19 -108l-37 -208h-61l37 206q8 45 -10 69.5t-55 24.5q-56 0 -111 -60l-43 -240h-60l93 532h60z" />
    <glyph glyph-name="i.sups" horiz-adv-x="184" 
d="M205 894q17 0 26.5 -11t8.5 -27q-1 -18 -15.5 -31.5t-32.5 -13.5q-17 0 -26.5 10t-8.5 27q2 19 15.5 32.5t32.5 13.5zM208 739l-61 -351h-60l61 351h60z" />
    <glyph glyph-name="j.sups" horiz-adv-x="188" 
d="M208 894q17 0 27 -10.5t9 -27.5q-2 -19 -16.5 -32t-32.5 -13q-17 0 -26.5 10.5t-7.5 26.5q1 19 14.5 32.5t32.5 13.5zM212 739l-71 -398q-21 -121 -158 -121l9 54q34 0 58 17.5t31 47.5l70 400h61z" />
    <glyph glyph-name="k.sups" horiz-adv-x="385" 
d="M240 920l-71 -409l193 228h78l-134 -155l91 -196h-68l-71 144l-122 -144h-49l92 532h61z" />
    <glyph glyph-name="l.sups" horiz-adv-x="185" 
d="M240 920l-93 -532h-60l92 532h61z" />
    <glyph glyph-name="m.sups" horiz-adv-x="648" 
d="M547 746q63 0 92.5 -43t17.5 -110l-37 -205h-61l37 206q8 45 -9.5 69.5t-54.5 24.5q-53 0 -109 -58q0 -20 -2 -30l-37 -212h-61l37 206q8 45 -9 69.5t-54 24.5q-54 0 -107 -59l-42 -241h-61l62 351h53l-4 -45q46 52 114 52q39 0 65.5 -18t36.5 -47q57 65 133 65z" />
    <glyph glyph-name="o.sups" horiz-adv-x="413" 
d="M294 746q67 0 108.5 -42.5t41.5 -108.5q0 -85 -61.5 -149.5t-150.5 -64.5q-67 0 -108.5 42.5t-41.5 107.5q0 86 61 150.5t151 64.5zM287 691q-59 0 -101 -46t-42 -109q0 -45 26.5 -73t69.5 -28q58 0 100 46.5t42 109.5q0 44 -26 72t-69 28z" />
    <glyph glyph-name="p.sups" horiz-adv-x="425" 
d="M319 746q62 0 99.5 -43t37.5 -106q0 -88 -56 -152t-137 -64q-74 0 -107 48l-37 -202h-60l90 512h55l-5 -43q52 50 120 50zM305 692q-65 0 -115 -62l-25 -146q31 -49 93 -49q57 0 97 46t40 110q0 46 -24.5 73.5t-65.5 27.5z" />
    <glyph glyph-name="q.sups" horiz-adv-x="425" 
d="M275 746q79 0 110 -51l12 44h55l-90 -512h-61l35 201q-53 -47 -117 -47q-62 0 -99.5 43t-37.5 106q0 88 56 152t137 64zM280 692q-57 0 -97 -46t-40 -110q0 -46 24.5 -73.5t65.5 -27.5q65 0 115 62l25 146q-31 49 -93 49z" />
    <glyph glyph-name="r.sups" horiz-adv-x="241" 
d="M314 746l-12 -61h-6q-53 0 -107 -65l-41 -232h-61l62 351h55l-6 -50q17 24 48 40.5t68 16.5z" />
    <glyph glyph-name="s.sups" horiz-adv-x="330" 
d="M249 746q74 0 117 -40l-33 -44q-33 31 -85 31q-34 0 -55.5 -14.5t-21.5 -39.5q0 -19 16 -28.5t56 -19.5q99 -26 99 -93q0 -52 -43.5 -84.5t-105.5 -32.5q-76 0 -128 45l33 44q39 -37 97 -37q37 0 61.5 15t24.5 43q0 19 -17 30t-56 21q-98 25 -98 91q0 52 40.5 82.5
t98.5 30.5z" />
    <glyph glyph-name="t.sups" horiz-adv-x="283" 
d="M241 858l-20 -119h112l-9 -52h-113l-32 -183q-5 -33 7.5 -50.5t40.5 -17.5q39 0 56 12l10 -50q-32 -17 -75 -17q-53 0 -81.5 33.5t-17.5 92.5l32 180h-70l9 52h70l21 119h60z" />
    <glyph glyph-name="u.sups" horiz-adv-x="412" 
d="M439 739l-62 -351h-55l6 43q-46 -50 -121 -50q-58 0 -86 41.5t-16 108.5l37 208h60l-36 -209q-7 -43 9 -67t50 -24t58 14.5t53 43.5l42 242h61z" />
    <glyph glyph-name="v.sups" horiz-adv-x="385" 
d="M453 739l-241 -358h-3l-114 358h63l72 -237l154 237h69z" />
    <glyph glyph-name="w.sups" horiz-adv-x="545" 
d="M612 739l-217 -358h-2l-60 235l-146 -235h-3l-89 358h62l50 -227l142 227h3l59 -227l132 227h69z" />
    <glyph glyph-name="x.sups" horiz-adv-x="356" 
d="M422 739l-149 -175l91 -176h-68l-70 133l-110 -133h-76l154 183l-86 168h69l64 -128l107 128h74z" />
    <glyph glyph-name="y.sups" horiz-adv-x="395" 
d="M467 739l-343 -512h-69l147 214l-94 298h64l71 -239l154 239h70z" />
    <glyph glyph-name="z.sups" horiz-adv-x="325" 
d="M392 739v-3l-236 -296h183l-9 -52h-278v3l236 295h-173l9 53h268z" />
    <glyph glyph-name="G.smcp_I.smcp" horiz-adv-x="651" 
d="M378 772q112 0 178.5 -70.5t66.5 -181.5q0 -142 -101.5 -249.5t-248.5 -107.5q-112 0 -178.5 70.5t-66.5 181.5q0 142 101.5 249.5t248.5 107.5zM370 724q-118 0 -205 -92t-87 -212q0 -96 54.5 -152t148.5 -56q118 0 204.5 91.5t86.5 211.5q0 96 -54 152.5t-148 56.5z
" />
    <glyph glyph-name="zero.slash" horiz-adv-x="586" 
d="M373 748q100 0 151 -69.5t51 -193.5q0 -128 -37 -240t-113 -185t-175 -73q-100 0 -150.5 69.5t-50.5 193.5q0 128 37 240t112.5 185t174.5 73zM367 684q-58 0 -106.5 -40.5t-77.5 -105.5t-45 -140t-16 -150q0 -45 8 -83l338 467q-35 52 -101 52zM256 51q77 0 135 70
t84 166.5t26 198.5q0 46 -8 84l-338 -467q35 -52 101 -52z" />
    <glyph glyph-name="K.alt" horiz-adv-x="637" 
d="M675 735l-300 -311l200 -424h-84l-171 369l-171 -171l-36 -198h-76l129 735h76l-74 -425l414 425h93z" />
    <glyph glyph-name="Kcommaaccent.alt" horiz-adv-x="637" 
d="M675 735l-300 -311l200 -424h-84l-171 369l-171 -171l-36 -198h-76l129 735h76l-74 -425l414 425h93zM278 -54q21 0 33 -12t11 -33q-1 -25 -25 -51l-67 -80h-4l31 173q11 3 21 3z" />
    <glyph glyph-name="M.alt" horiz-adv-x="849" 
d="M845 748l-132 -748h-76l95 541l-318 -339h-7l-195 350l-99 -552h-76l131 748h4l251 -438l418 438h4z" />
    <glyph glyph-name="idotaccent" horiz-adv-x="221" 
d="M191 715q21 0 33 -12.5t12 -32.5q0 -25 -18.5 -42.5t-42.5 -17.5q-21 0 -33 12.5t-12 32.5q0 25 18 42.5t43 17.5zM190 500l-87 -500h-73l88 500h72z" />
    <glyph glyph-name="k.alt" horiz-adv-x="517" 
d="M238 760l-92 -524l288 264h92l-215 -196l148 -304h-79l-125 254l-126 -115l-25 -139h-73l135 760h72z" />
    <glyph glyph-name="kcommaaccent.alt" horiz-adv-x="517" 
d="M238 760l-92 -524l288 264h92l-215 -196l148 -304h-79l-125 254l-126 -115l-25 -139h-73l135 760h72zM225 -54q21 0 33 -12t11 -33q-1 -25 -25 -51l-67 -80h-4l31 173q10 3 21 3z" />
    <glyph glyph-name="f_k.alt" horiz-adv-x="859" 
d="M359 760q49 0 80 -21l-30 -62q-20 17 -56 17q-41 0 -69.5 -28.5t-36.5 -74.5l-16 -91h140l-12 -64h-140l-77 -436h-73l77 436h-91l12 64h91l15 89q14 77 64 124t122 47zM581 760l-93 -524l288 264h92l-215 -196l148 -304h-78l-126 254l-126 -115l-24 -139h-74l135 760h73
z" />
    </font>
</defs>
</svg>
