<?xml version="1.0" standalone="no"?>
<!DOCTYPE svg PUBLIC "-//W3C//DTD SVG 1.1//EN" "http://www.w3.org/Graphics/SVG/1.1/DTD/svg11.dtd" >
<svg xmlns="http://www.w3.org/2000/svg" xmlns:xlink="http://www.w3.org/1999/xlink" version="1.1">
<metadata>
Created by FontForge 20170731 at Tue May  9 14:02:14 2023
 By Aleksey,,,
Copyright (c) 2013 by Nico Inosanto. All rights reserved.
</metadata>
<defs>
<font id="Radikal-Medium" horiz-adv-x="1208" >
  <font-face 
    font-family="Radikal Medium"
    font-weight="500"
    font-stretch="normal"
    units-per-em="2048"
    panose-1="0 0 6 0 0 0 0 0 0 0"
    ascent="1638"
    descent="-410"
    x-height="1032"
    cap-height="1505"
    bbox="-291 -508 2570 2208"
    underline-thickness="102"
    underline-position="-307"
    unicode-range="U+0020-FB02"
  />
<missing-glyph 
d="M1085 1432v-1432h-960v1432h960zM920 1317h-633l315 -502zM971 1186l-305 -477l305 -480v957zM240 1176v-936l295 469zM602 600l-309 -483h616z" />
    <glyph glyph-name="fi" unicode="fi" horiz-adv-x="1288" 
d="M598 1556q114 0 186 -40l-67 -205q-44 28 -107 28q-68 0 -106.5 -46.5t-38.5 -125.5v-135h252v-209h-252v-823h-248v823h-182v209h182v129q0 173 104.5 284t276.5 111zM1028 1516q66 0 110 -44t44 -110t-44 -109t-110 -43t-108.5 43t-42.5 109t42.5 110t108.5 44z
M1153 1032v-1032h-248v1032h248z" />
    <glyph glyph-name="fl" unicode="fl" horiz-adv-x="1286" 
d="M592 1556q110 0 182 -40l-57 -205q-44 28 -107 28q-68 0 -106.5 -46.5t-38.5 -125.5v-135h252v-209h-252v-823h-248v823h-182v209h182v129q0 173 103 284t272 111zM1147 1556v-1556h-246v1556h246z" />
    <glyph glyph-name="f_j" unicode="fj" horiz-adv-x="1288" 
d="M598 1556q114 0 186 -40l-67 -205q-44 28 -107 28q-68 0 -106.5 -46.5t-38.5 -125.5v-135h252v-209h-252v-823h-248v823h-182v209h182v129q0 173 104.5 284t276.5 111zM1028 1516q66 0 110 -44t44 -110t-44 -109t-110 -43t-108.5 43t-42.5 109t42.5 110t108.5 44z
M743 -492q-160 0 -276 89l129 186q67 -57 149 -57q72 0 116 46.5t44 127.5v1132h248v-1122q0 -173 -115.5 -287.5t-294.5 -114.5z" />
    <glyph glyph-name="f_b" unicode="fb" horiz-adv-x="1988" 
d="M592 1556q110 0 182 -40l-57 -205q-44 28 -107 28q-68 0 -106.5 -46.5t-38.5 -125.5v-135h252v-209h-252v-823h-248v823h-182v209h182v129q0 173 103 284t272 111zM1147 1556v-626q106 123 305 123q209 0 339 -151t130 -386q0 -234 -130 -385t-339 -151q-110 0 -190.5 39
t-126.5 102l-13 -121h-221v1556h246zM1399 836q-159 0 -252 -154v-332q92 -153 252 -153q121 0 197.5 87t76.5 232t-76.5 232.5t-197.5 87.5z" />
    <glyph glyph-name="f_h" unicode="fh" horiz-adv-x="1957" 
d="M592 1556q110 0 182 -40l-57 -205q-44 28 -107 28q-68 0 -106.5 -46.5t-38.5 -125.5v-135h252v-209h-252v-823h-248v823h-182v209h182v129q0 173 103 284t272 111zM1147 1556v-626q116 123 299 123q185 0 287 -121.5t102 -327.5v-604h-248v590q0 104 -55.5 166.5
t-151.5 62.5q-136 0 -233 -143v-676h-246v1556h246z" />
    <glyph glyph-name="f_k" unicode="fk" horiz-adv-x="1894" 
d="M592 1556q110 0 182 -40l-57 -205q-44 28 -107 28q-68 0 -106.5 -46.5t-38.5 -125.5v-135h252v-209h-252v-823h-248v823h-182v209h182v129q0 173 103 284t272 111zM1147 1556v-1136l416 612h278l-315 -444l358 -588h-285l-233 383l-268 -383h-197v1556h246z" />
    <glyph glyph-name=".notdef" 
d="M1085 1432v-1432h-960v1432h960zM920 1317h-633l315 -502zM971 1186l-305 -477l305 -480v957zM240 1176v-936l295 469zM602 600l-309 -483h616z" />
    <glyph glyph-name=".null" horiz-adv-x="0" 
 />
    <glyph glyph-name="nonmarkingreturn" horiz-adv-x="682" 
 />
    <glyph glyph-name="space" unicode=" " horiz-adv-x="475" 
 />
    <glyph glyph-name="exclam" unicode="!" horiz-adv-x="567" 
d="M406 1505v-1061h-246v1061h246zM283 295q69 0 113 -44.5t44 -113.5t-44 -113t-113 -44t-113.5 44t-44.5 113t44.5 113.5t113.5 44.5z" />
    <glyph glyph-name="quotedbl" unicode="&#x22;" horiz-adv-x="802" 
d="M184 907l-78 330q-2 10 -12 43t-15 60.5t-5 54.5q0 59 36.5 96t92.5 37q55 0 91 -37t36 -96q0 -27 -5 -54t-14.5 -61.5t-11.5 -42.5l-78 -330h-37zM582 907l-78 330q-2 8 -11.5 42.5t-14.5 61.5t-5 54q0 60 35.5 96.5t91.5 36.5q55 0 91 -37t36 -96q0 -27 -5 -54
t-14.5 -61.5t-11.5 -42.5l-78 -330h-36z" />
    <glyph glyph-name="numbersign" unicode="#" horiz-adv-x="1447" 
d="M1237 1505l-70 -393h244v-199h-278l-60 -331h242v-201h-275l-67 -381h-246l66 381h-297l-68 -381h-248l68 381h-246v201h283l57 331h-244v199h277l71 393h244l-67 -393h297l71 393h246zM887 913h-299l-58 -331h297z" />
    <glyph glyph-name="dollar" unicode="$" horiz-adv-x="1230" 
d="M1163 444q0 -186 -116 -309.5t-320 -152.5v-246h-207v241q-281 24 -475 193l141 211q77 -80 194.5 -128t237.5 -48q133 0 211 56t78 159q0 86 -73 137.5t-252 87.5q-186 40 -294 101t-151 140t-43 195q0 179 116.5 299.5t309.5 145.5v254h207v-254q234 -29 406 -156
l-123 -215q-186 145 -398 145q-118 0 -190 -52t-72 -152q0 -86 64 -132.5t241 -82.5q280 -61 394 -161.5t114 -275.5z" />
    <glyph glyph-name="percent" unicode="%" horiz-adv-x="1785" 
d="M428 1532q160 0 266.5 -109.5t106.5 -273.5t-106.5 -271.5t-266.5 -107.5q-162 0 -267.5 107t-105.5 272t105.5 274t267.5 109zM1489 1505l-977 -1505h-213l975 1505h215zM428 1352q-82 0 -133 -57t-51 -146q0 -87 51.5 -144t132.5 -57q79 0 131.5 57.5t52.5 143.5
q0 89 -52 146t-132 57zM1360 733q160 0 266.5 -108t106.5 -273q0 -164 -106.5 -270.5t-266.5 -106.5q-163 0 -269 106.5t-106 270.5q0 166 106 273.5t269 107.5zM1360 557q-81 0 -133.5 -58.5t-52.5 -146.5q0 -87 52.5 -143.5t133.5 -56.5q79 0 131.5 57t52.5 143
q0 88 -52.5 146.5t-131.5 58.5z" />
    <glyph glyph-name="ampersand" unicode="&#x26;" horiz-adv-x="1427" 
d="M1438 0h-316l-145 164q-197 -187 -442 -184q-131 0 -238.5 48t-174.5 144.5t-67 226.5q0 76 19.5 136.5t64 113.5t97.5 95t137 96q-79 88 -123.5 171.5t-44.5 176.5q0 153 105.5 248.5t281.5 95.5q174 0 280.5 -95t106.5 -245q0 -53 -17 -101t-39 -80.5t-66 -71t-73 -59
t-86 -57.5l277 -307l166 209h289l-297 -385zM594 1329q-71 0 -114.5 -40t-43.5 -111q0 -55 32.5 -105t94.5 -112q102 64 143.5 109t41.5 112q0 68 -42.5 107.5t-111.5 39.5zM549 197q144 0 276 139l-299 338q-6 8 -20 22q-106 -72 -152.5 -131.5t-46.5 -148.5
q0 -101 67.5 -160t174.5 -59z" />
    <glyph glyph-name="quotesingle" unicode="'" horiz-adv-x="403" 
d="M184 907l-78 330q-2 10 -12 43t-15 60.5t-5 54.5q0 59 36.5 96t92.5 37q55 0 91 -37t36 -96q0 -27 -5 -54t-14.5 -61.5t-11.5 -42.5l-78 -330h-37z" />
    <glyph glyph-name="parenleft" unicode="(" horiz-adv-x="657" 
d="M399 1583l189 -133q-56 -71 -98 -139.5t-82 -161t-61 -208t-21 -247.5t21 -247.5t61 -208t81.5 -160.5t98.5 -139l-189 -134q-62 79 -110.5 160t-96 191.5t-74 248t-26.5 289.5t26.5 289.5t74 248t96 191.5t110.5 160z" />
    <glyph glyph-name="parenright" unicode=")" horiz-adv-x="657" 
d="M258 1583q62 -79 110.5 -160t96 -191.5t74 -248t26.5 -289.5t-26.5 -289.5t-74 -248t-96 -191.5t-110.5 -160l-188 134q57 71 98.5 139t81.5 160.5t61 208t21 247.5t-21 247.5t-61 208t-82 161t-98 139.5z" />
    <glyph glyph-name="asterisk" unicode="*" horiz-adv-x="862" 
d="M520 1503l-12 -262l248 92l55 -166l-254 -71l162 -207l-141 -101l-146 207l-145 -207l-140 101l162 207l-256 71l56 166l247 -92l-12 262h176z" />
    <glyph glyph-name="plus" unicode="+" horiz-adv-x="1019" 
d="M621 1149v-320h321v-225h-321v-321h-226v321h-319v225h319v320h226z" />
    <glyph glyph-name="comma" unicode="," horiz-adv-x="479" 
d="M199 299q70 0 119 -46t49 -112q0 -44 -29 -104l-199 -354h-8v604q27 12 68 12z" />
    <glyph glyph-name="hyphen" unicode="-" horiz-adv-x="790" 
d="M711 659v-227h-631v227h631z" />
    <glyph glyph-name="period" unicode="." horiz-adv-x="536" 
d="M268 303q70 0 116 -45.5t46 -116.5q0 -70 -45.5 -115.5t-116.5 -45.5t-116.5 45.5t-45.5 115.5q0 71 46 116.5t116 45.5z" />
    <glyph glyph-name="slash" unicode="/" horiz-adv-x="1015" 
d="M1006 1503l-744 -1503h-252l748 1503h248z" />
    <glyph glyph-name="zero" unicode="0" horiz-adv-x="1212" 
d="M606 1532q251 0 393 -209.5t142 -568.5q0 -361 -142 -571t-393 -210t-392.5 210t-141.5 571q0 359 141.5 568.5t392.5 209.5zM606 1311q-94 0 -158 -70t-94 -193t-30 -294q0 -262 70.5 -410.5t211.5 -148.5t212 148.5t71 410.5q0 260 -71 408.5t-212 148.5z" />
    <glyph glyph-name="one" unicode="1" horiz-adv-x="788" 
d="M631 1532v-1532h-248v1098l-246 -140l-106 224l592 350h8z" />
    <glyph glyph-name="two" unicode="2" horiz-adv-x="1067" 
d="M512 1532q212 0 343.5 -128.5t131.5 -330.5q0 -126 -44 -226t-138 -220l-324 -404h523v-223h-945v12l547 740q75 98 103 167t28 158q0 107 -63 169.5t-162 62.5q-102 0 -161 -59.5t-81 -180.5l-225 53q40 203 158 306.5t309 103.5z" />
    <glyph glyph-name="three" unicode="3" horiz-adv-x="1073" 
d="M537 1532q204 0 331 -124t127 -316q0 -219 -188 -314q106 -44 167.5 -132t61.5 -210q0 -207 -132.5 -335t-352.5 -128q-388 0 -496 396l226 57q31 -113 94 -171t174 -58q106 0 171.5 65.5t65.5 175.5q0 103 -71 169.5t-183 66.5h-161v207h166q89 2 150 57.5t61 153.5
t-59.5 157.5t-153.5 59.5q-90 0 -149.5 -52.5t-86.5 -150.5l-217 92q53 157 167.5 245.5t287.5 88.5z" />
    <glyph glyph-name="four" unicode="4" horiz-adv-x="1161" 
d="M930 1522v-1063h186v-205h-186v-254h-248v254h-676v8l914 1260h10zM692 879l-303 -424h303v424z" />
    <glyph glyph-name="five" unicode="5" horiz-adv-x="1110" 
d="M965 1505v-223h-566v-377q84 35 168 35q216 0 353 -130t137 -357q0 -209 -134 -344.5t-356 -135.5q-351 0 -487 312l203 108q84 -196 274 -196q109 0 179.5 75t70.5 191q0 118 -72 190t-188 72q-75 0 -128.5 -23.5t-103.5 -64.5l-165 78v790h815z" />
    <glyph glyph-name="six" unicode="6" horiz-adv-x="1134" 
d="M567 975q137 -1 252 -65.5t183.5 -180t68.5 -256.5q0 -108 -40 -201.5t-108 -158.5t-161 -102.5t-197 -37.5q-210 0 -357 142t-147 358q0 152 95 299l473 733h278zM565 195q109 0 181.5 77.5t72.5 200.5t-72.5 202t-181.5 79q-107 0 -178.5 -79t-71.5 -202t71.5 -200.5
t178.5 -77.5z" />
    <glyph glyph-name="seven" unicode="7" horiz-adv-x="1110" 
d="M1092 1505v-12l-742 -1493h-270l645 1278h-672v227h1039z" />
    <glyph glyph-name="eight" unicode="8" horiz-adv-x="1134" 
d="M561 1532q186 0 316.5 -118t130.5 -298q0 -102 -47 -185t-127 -134q107 -55 171 -151t64 -212q0 -132 -69.5 -238.5t-185.5 -164.5t-253 -58q-210 0 -357 131t-147 330q0 116 63 211.5t169 149.5q-80 51 -126 134.5t-46 186.5q0 180 129 298t315 118zM561 1317
q-90 0 -151.5 -60.5t-61.5 -152.5q0 -94 61.5 -156.5t151.5 -62.5t152.5 62.5t62.5 156.5q0 91 -62.5 152t-152.5 61zM561 676q-106 0 -179 -70.5t-73 -175.5q0 -102 73 -171t179 -69t180 69t74 171q0 105 -73.5 175.5t-180.5 70.5z" />
    <glyph glyph-name="nine" unicode="9" horiz-adv-x="1134" 
d="M569 1532q137 0 251.5 -63t182.5 -178.5t68 -258.5q0 -154 -94 -299l-473 -733h-279l340 530q-137 1 -252 65.5t-183.5 180t-68.5 256.5q0 108 40.5 201.5t109 158.5t161.5 102.5t197 37.5zM569 752q107 0 178.5 78.5t71.5 201.5q0 124 -71.5 201.5t-178.5 77.5
q-109 0 -182.5 -77.5t-73.5 -201.5q0 -123 73.5 -201.5t182.5 -78.5z" />
    <glyph glyph-name="colon" unicode=":" horiz-adv-x="520" 
d="M260 1053q66 0 110 -44t44 -110t-44 -110t-110 -44t-110 44t-44 110t44 110t110 44zM260 287q66 0 110 -43.5t44 -110.5q0 -66 -44 -109.5t-110 -43.5t-110 43.5t-44 109.5t44 110t110 44z" />
    <glyph glyph-name="semicolon" unicode=";" horiz-adv-x="518" 
d="M260 1053q66 0 110 -44t44 -110t-44 -110t-110 -44t-110 44t-44 110t44 110t110 44zM209 287q72 0 121 -46.5t49 -115.5q0 -46 -31 -98l-198 -357h-9v606q37 11 68 11z" />
    <glyph glyph-name="less" unicode="&#x3c;" horiz-adv-x="833" 
d="M756 1102l-377 -393l377 -394h-307l-371 390v8l371 389h307z" />
    <glyph glyph-name="equal" unicode="=" horiz-adv-x="1019" 
d="M942 1083v-225h-866v225h866zM942 571v-225h-866v225h866z" />
    <glyph glyph-name="greater" unicode="&#x3e;" horiz-adv-x="833" 
d="M387 1102l369 -389v-8l-369 -390h-309l375 394l-375 393h309z" />
    <glyph glyph-name="question" unicode="?" horiz-adv-x="1038" 
d="M504 1532q203 0 333 -120t130 -300q0 -72 -19 -131t-48.5 -98.5t-66 -73t-73 -63t-66 -60.5t-48.5 -73t-19 -93v-76h-248v109q0 64 18 117.5t47.5 90t64.5 68.5t70 61t64.5 59.5t47.5 71.5t18 89q0 93 -58 146t-149 53q-92 0 -148 -51t-71 -144l-244 41q39 182 156 279.5
t309 97.5zM504 295q68 0 113 -44.5t45 -113.5t-45 -113t-113 -44q-69 0 -113.5 44t-44.5 113t44.5 113.5t113.5 44.5z" />
    <glyph glyph-name="at" unicode="@" horiz-adv-x="1777" 
d="M887 1315q182 0 336.5 -59.5t263 -165t169 -255.5t60.5 -327q0 -208 -95.5 -335.5t-264.5 -127.5q-88 0 -146.5 35.5t-83.5 91.5l-4 8q-46 -58 -120.5 -96.5t-170.5 -38.5q-169 0 -277 127t-108 320q0 195 108 321.5t277 126.5q185 0 271 -115l10 99h186v-623
q0 -88 82 -88q75 0 117.5 80.5t42.5 214.5q0 284 -179 461.5t-474 177.5q-189 0 -337.5 -84.5t-230 -233t-81.5 -335.5q0 -188 80 -336t225 -231t331 -83q141 0 265 50l47 -158q-144 -58 -312 -58q-176 0 -328 61t-259 168t-167.5 258.5t-60.5 328.5q0 176 61.5 328.5
t170 260.5t263 170t333.5 62zM883 758q-101 0 -164.5 -73t-63.5 -193t63.5 -192.5t164.5 -72.5q128 0 209 119v293q-84 119 -209 119z" />
    <glyph glyph-name="A" unicode="A" horiz-adv-x="1454" 
d="M731 1532l709 -1532h-279l-119 272h-630l-119 -272h-279l709 1532h8zM727 1006l-227 -523h454z" />
    <glyph glyph-name="B" unicode="B" horiz-adv-x="1370" 
d="M715 1505q225 0 349 -106.5t124 -294.5q0 -109 -47.5 -186.5t-116.5 -116.5q287 -87 287 -371q0 -200 -139 -315t-357 -115h-655v1505h555zM682 1272h-268v-398h282q107 0 170.5 55t63.5 144q0 95 -64 147t-184 52zM768 659h-354v-426h370q125 0 197 55t72 158t-73 158
t-212 55z" />
    <glyph glyph-name="C" unicode="C" horiz-adv-x="1421" 
d="M831 1532q174 0 304 -55.5t241 -167.5l-162 -185q-158 172 -383 172q-222 0 -360.5 -152.5t-138.5 -391.5q0 -237 139 -390t360 -153q238 0 390 180l159 -188q-206 -228 -549 -228q-162 0 -303.5 59.5t-240.5 163t-156 248t-57 308.5q0 222 97 400t270 279t390 101z" />
    <glyph glyph-name="D" unicode="D" horiz-adv-x="1513" 
d="M625 1505q385 0 600 -197.5t215 -553.5q0 -357 -214 -555.5t-601 -198.5h-465v1505h465zM618 1268h-202v-1032h202q273 0 418.5 135t145.5 383q0 246 -146 380t-418 134z" />
    <glyph glyph-name="E" unicode="E" 
d="M1110 1505v-235h-694v-396h606v-223h-606v-415h710v-236h-966v1505h950z" />
    <glyph glyph-name="F" unicode="F" horiz-adv-x="1118" 
d="M1079 1505v-235h-663v-416h557v-225h-557v-629h-256v1505h919z" />
    <glyph glyph-name="G" unicode="G" horiz-adv-x="1531" 
d="M831 1532q172 0 303 -55.5t242 -167.5l-162 -185q-158 172 -383 172q-222 0 -360.5 -152.5t-138.5 -391.5q0 -237 146 -390t380 -153q170 0 299 92v295h-356v221h612v-643q-213 -201 -555 -201q-169 0 -315.5 59.5t-249 163t-161 247.5t-58.5 309q0 222 97 400t270 279
t390 101z" />
    <glyph glyph-name="H" unicode="H" horiz-adv-x="1517" 
d="M1358 1505v-1505h-256v653h-686v-653h-256v1505h256v-618h686v618h256z" />
    <glyph glyph-name="I" unicode="I" horiz-adv-x="575" 
d="M416 1505v-1505h-256v1505h256z" />
    <glyph glyph-name="J" unicode="J" horiz-adv-x="1132" 
d="M995 1505v-1067q0 -210 -131.5 -337.5t-343.5 -127.5q-96 0 -182.5 33.5t-153.5 96t-106 161t-39 219.5h250q0 -131 59 -202.5t164 -71.5q106 0 166.5 65t60.5 179v1052h256z" />
    <glyph glyph-name="K" unicode="K" horiz-adv-x="1392" 
d="M1305 1505l-457 -731l518 -774h-309l-355 543l-346 -543h-196v1505h256v-1003l598 1003h291z" />
    <glyph glyph-name="L" unicode="L" horiz-adv-x="1124" 
d="M416 1505v-1278h682v-227h-938v1505h256z" />
    <glyph glyph-name="M" unicode="M" horiz-adv-x="1802" 
d="M1640 1532v-1532h-256v745l-475 -761h-16l-477 761v-745h-256v1532h8l733 -1120l731 1120h8z" />
    <glyph glyph-name="N" unicode="N" horiz-adv-x="1501" 
d="M168 1532l917 -959v932h256v-1532h-8l-917 961v-934h-256v1532h8z" />
    <glyph glyph-name="O" unicode="O" horiz-adv-x="1677" 
d="M838 1532q162 0 304 -59t243.5 -162t160 -248t58.5 -311t-58.5 -311.5t-160 -248t-243.5 -161t-304 -58.5q-163 0 -305 58.5t-242.5 161t-158.5 247.5t-58 312q0 166 58 311t158.5 248t242.5 162t305 59zM838 1296q-221 0 -363.5 -153t-142.5 -391q0 -237 142.5 -390
t363.5 -153q222 0 363.5 153t141.5 390q0 238 -141.5 391t-363.5 153z" />
    <glyph glyph-name="P" unicode="P" horiz-adv-x="1296" 
d="M719 1505q149 0 266.5 -55t188.5 -167t71 -265q0 -151 -71 -263t-189 -167.5t-266 -55.5h-303v-532h-256v1505h559zM694 1282h-278v-526h278q135 0 213 67.5t78 194.5q0 126 -79 195t-212 69z" />
    <glyph glyph-name="Q" unicode="Q" horiz-adv-x="1677" 
d="M1686 -172h-310l-192 221q-158 -76 -346 -76q-163 0 -305 58.5t-242.5 161t-158.5 247.5t-58 312q0 166 58 311t158.5 248t242.5 162t305 59q162 0 304 -59t243.5 -162t160 -248t58.5 -311q0 -169 -59.5 -315.5t-166.5 -250.5zM838 209q95 0 180 31l-219 254l180 153
l235 -272q129 151 129 377q0 238 -141.5 391t-363.5 153q-221 0 -363.5 -153t-142.5 -391q0 -237 142.5 -390t363.5 -153z" />
    <glyph glyph-name="R" unicode="R" horiz-adv-x="1325" 
d="M1303 0h-299l-336 553h-254v-553h-256v1505h540q150 0 269 -54t191.5 -164t72.5 -259q0 -156 -78.5 -266.5t-212.5 -165.5zM414 1282v-506h262q137 0 216 65t79 187q0 121 -80 187.5t-215 66.5h-262z" />
    <glyph glyph-name="S" unicode="S" horiz-adv-x="1230" 
d="M614 1532q150 0 283.5 -44t235.5 -118l-123 -215q-186 145 -398 145q-118 0 -190 -52t-72 -152q0 -86 64 -132.5t241 -82.5q280 -61 394 -161.5t114 -275.5q0 -213 -149.5 -342t-403.5 -129q-340 0 -565 197l141 211q77 -80 194.5 -128t237.5 -48q133 0 211 56t78 159
q0 86 -73 137.5t-252 87.5q-186 40 -294 101t-151 140t-43 195q0 201 144 326t376 125z" />
    <glyph glyph-name="T" unicode="T" horiz-adv-x="1327" 
d="M1300 1505v-227h-509v-1278h-256v1278h-508v227h1273z" />
    <glyph glyph-name="U" unicode="U" horiz-adv-x="1454" 
d="M1315 1505v-970q0 -258 -153.5 -410t-434.5 -152t-434.5 152t-153.5 410v970h256v-954q0 -157 87 -249.5t245 -92.5t245 92.5t87 249.5v954h256z" />
    <glyph glyph-name="V" unicode="V" horiz-adv-x="1464" 
d="M1450 1505l-713 -1528h-8l-715 1528h281l438 -985l436 985h281z" />
    <glyph glyph-name="W" unicode="W" horiz-adv-x="1978" 
d="M1950 1505l-592 -1528h-8l-361 910l-360 -910h-8l-594 1528h284l324 -901l350 901h8l350 -901l324 901h283z" />
    <glyph glyph-name="X" unicode="X" horiz-adv-x="1396" 
d="M1352 1505l-475 -741l495 -764h-297l-377 588l-374 -588h-297l493 764l-473 741h297l354 -559l355 559h299z" />
    <glyph glyph-name="Y" unicode="Y" horiz-adv-x="1386" 
d="M1374 1503l-553 -876v-627h-256v623l-553 880h297l383 -622l383 622h299z" />
    <glyph glyph-name="Z" unicode="Z" horiz-adv-x="1200" 
d="M1126 1505v-8l-682 -1270h705v-227h-1104v8l688 1270h-655v227h1048z" />
    <glyph glyph-name="bracketleft" unicode="[" horiz-adv-x="675" 
d="M604 1575v-197h-256v-1368h256v-196h-491v1761h491z" />
    <glyph glyph-name="backslash" unicode="\" horiz-adv-x="1015" 
d="M260 1503l746 -1503h-250l-746 1503h250z" />
    <glyph glyph-name="bracketright" unicode="]" horiz-adv-x="684" 
d="M571 1575v-1761h-499v196h264v1368h-264v197h499z" />
    <glyph glyph-name="asciicircum" unicode="^" horiz-adv-x="1085" 
d="M543 1556l506 -610h-224l-282 342l-281 -342h-223z" />
    <glyph glyph-name="underscore" unicode="_" horiz-adv-x="1632" 
d="M1554 0v-225h-1474v225h1474z" />
    <glyph glyph-name="grave" unicode="`" horiz-adv-x="641" 
d="M332 1458l278 -280h-229l-336 280h287z" />
    <glyph glyph-name="a" unicode="a" 
d="M530 1053q206 0 310 -142l12 121h221v-1032h-221l-12 121q-103 -141 -310 -141t-334.5 151t-127.5 385q0 236 127.5 386.5t334.5 150.5zM584 836q-120 0 -193.5 -87t-73.5 -233t73 -232.5t194 -86.5q83 0 140 40t103 113v332q-46 74 -103 114t-140 40z" />
    <glyph glyph-name="b" unicode="b" horiz-adv-x="1226" 
d="M385 1556v-626q106 123 305 123q209 0 340 -151t131 -386q0 -234 -131 -385t-340 -151q-110 0 -190.5 39t-126.5 102l-13 -121h-221v1556h246zM637 836q-156 0 -252 -154v-332q96 -153 252 -153q121 0 197.5 87t76.5 232t-76.5 232.5t-197.5 87.5z" />
    <glyph glyph-name="c" unicode="c" horiz-adv-x="1048" 
d="M594 1053q269 0 418 -232l-172 -129q-89 146 -244 146q-131 0 -205 -91t-74 -231t74.5 -230.5t204.5 -90.5q158 0 250 145l168 -127q-68 -110 -174.5 -171.5t-245.5 -61.5q-234 0 -380 151t-146 385q0 235 146 386t380 151z" />
    <glyph glyph-name="d" unicode="d" horiz-adv-x="1228" 
d="M1090 1556v-1556h-224l-10 121q-46 -63 -127 -102t-192 -39q-137 0 -244.5 69.5t-166 191.5t-58.5 275q0 235 130.5 386t338.5 151q203 0 305 -123v626h248zM590 836q-121 0 -197 -87.5t-76 -232.5t76 -232t197 -87q160 0 252 153v332q-93 154 -252 154z" />
    <glyph glyph-name="e" unicode="e" horiz-adv-x="1112" 
d="M573 1053q115 0 206.5 -41.5t149 -114t88 -167t30.5 -204.5v-86h-730q8 -122 81 -187t202 -65q88 0 155.5 32t106.5 85l164 -129q-157 -196 -430 -196q-237 0 -382.5 150t-145.5 384q0 235 141 387t364 152zM569 856q-108 0 -177 -66t-75 -174h486q-5 108 -66.5 174
t-167.5 66z" />
    <glyph glyph-name="f" unicode="f" horiz-adv-x="759" 
d="M598 1556q144 0 233 -67l-92 -199q-49 49 -127 49q-70 0 -108.5 -46.5t-38.5 -125.5v-135h252v-209h-252v-823h-248v823h-182v209h182v123q0 178 103.5 289.5t277.5 111.5z" />
    <glyph glyph-name="g" unicode="g" horiz-adv-x="1224" 
d="M537 1053q111 0 191.5 -39.5t125.5 -102.5l12 121h221v-997q0 -245 -144 -386t-388 -141q-299 0 -489 220l161 159q140 -161 324 -161q133 0 211 83t80 220v86q-104 -125 -305 -125q-208 0 -338.5 150t-130.5 382t130.5 381.5t338.5 149.5zM590 836q-121 0 -198 -86.5
t-77 -227.5t77 -228t198 -87q160 0 252 153v322q-93 154 -252 154z" />
    <glyph glyph-name="h" unicode="h" horiz-adv-x="1196" 
d="M385 1556v-626q116 123 299 123q185 0 287 -121.5t102 -327.5v-604h-248v590q0 104 -55 166.5t-149 62.5q-139 0 -236 -143v-676h-246v1556h246z" />
    <glyph glyph-name="i" unicode="i" horiz-adv-x="518" 
d="M258 1516q66 0 110 -44t44 -110t-44 -109t-110 -43t-109 43t-43 109t43 110t109 44zM383 1032v-1032h-248v1032h248z" />
    <glyph glyph-name="j" unicode="j" horiz-adv-x="530" 
d="M270 1516q66 0 110 -44t44 -110t-44 -109t-110 -43t-108.5 43t-42.5 109t42.5 110t108.5 44zM-14 -492q-161 0 -277 89l129 186q67 -57 150 -57q70 0 114.5 47t44.5 127v1132h248v-1122q0 -173 -115 -287.5t-294 -114.5z" />
    <glyph glyph-name="k" unicode="k" horiz-adv-x="1132" 
d="M385 1556v-1136l416 612h280l-315 -444l356 -588h-284l-234 383l-268 -383h-197v1556h246z" />
    <glyph glyph-name="l" unicode="l" horiz-adv-x="524" 
d="M385 1556v-1556h-246v1556h246z" />
    <glyph glyph-name="m" unicode="m" horiz-adv-x="1845" 
d="M1350 1053q176 0 274 -121.5t98 -327.5v-604h-249v590q0 104 -51.5 166.5t-141.5 62.5q-131 0 -231 -145q2 -16 2 -47v-627h-246v590q0 104 -52.5 166.5t-142.5 62.5q-129 0 -227 -141v-678h-248v1032h223l11 -119q47 62 125.5 101t183.5 39q218 0 315 -183
q131 183 357 183z" />
    <glyph glyph-name="n" unicode="n" horiz-adv-x="1193" 
d="M680 1053q185 0 287 -121.5t102 -327.5v-604h-246v590q0 103 -56 166t-151 63q-140 0 -233 -143v-676h-248v1032h223l11 -119q45 61 125 100.5t186 39.5z" />
    <glyph glyph-name="o" unicode="o" 
d="M602 1053q233 0 386 -153t153 -386q0 -232 -153 -383t-386 -151q-232 0 -383 151t-151 383q0 233 151 386t383 153zM602 836q-124 0 -204.5 -91t-80.5 -231q0 -138 80.5 -227.5t204.5 -89.5q126 0 207.5 89.5t81.5 227.5q0 140 -81.5 231t-207.5 91z" />
    <glyph glyph-name="p" unicode="p" horiz-adv-x="1224" 
d="M688 1053q208 0 338.5 -151t130.5 -386q0 -153 -58.5 -275t-166 -191.5t-244.5 -69.5q-203 0 -305 122v-573h-248v1503h223l11 -121q47 64 127 103t192 39zM633 836q-157 0 -250 -154v-332q92 -153 250 -153q122 0 198 87t76 232t-76 232.5t-198 87.5z" />
    <glyph glyph-name="q" unicode="q" horiz-adv-x="1224" 
d="M537 1053q110 0 191.5 -39.5t127.5 -102.5l10 121h224v-1503h-248v573q-102 -122 -305 -122q-137 0 -244.5 69.5t-166 191.5t-58.5 275q0 235 130.5 386t338.5 151zM590 836q-121 0 -197 -87.5t-76 -232.5t76 -232t197 -87q160 0 252 153v332q-93 154 -252 154z" />
    <glyph glyph-name="r" unicode="r" horiz-adv-x="702" 
d="M674 1053v-246h-23q-159 0 -268 -156v-651h-248v1032h221l15 -137q42 68 120 113t183 45z" />
    <glyph glyph-name="s" unicode="s" horiz-adv-x="944" 
d="M502 1053q102 0 198.5 -29t161.5 -76l-96 -182q-126 86 -270 86q-158 0 -158 -102q0 -49 40.5 -73t156.5 -52q176 -43 259 -119t83 -193q0 -151 -117 -242t-314 -91q-118 0 -221.5 30.5t-173.5 87.5l103 187q127 -105 295 -105q84 0 132 27.5t48 81.5q0 53 -42 81.5
t-151 55.5q-183 42 -264.5 112t-81.5 189q0 151 110 238.5t302 87.5z" />
    <glyph glyph-name="t" unicode="t" horiz-adv-x="839" 
d="M465 1378v-346h311v-209h-311v-458q0 -75 43 -118.5t113 -43.5q73 0 145 35l65 -199q-91 -59 -229 -59q-180 0 -282.5 100t-102.5 285v458h-194v209h194v346h248z" />
    <glyph glyph-name="u" unicode="u" horiz-adv-x="1179" 
d="M1044 1032v-1032h-221l-12 119q-104 -139 -315 -139q-177 0 -274 120t-97 326v606h248v-594q0 -101 50 -163t138 -62q80 0 135.5 38t102.5 105v676h245z" />
    <glyph glyph-name="v" unicode="v" horiz-adv-x="1124" 
d="M1114 1032l-547 -1052h-8l-549 1052h266l287 -594l289 594h262z" />
    <glyph glyph-name="w" unicode="w" horiz-adv-x="1558" 
d="M1548 1032l-475 -1052h-8l-285 565l-286 -565h-9l-475 1052h264l234 -569l268 569h8l267 -569l235 569h262z" />
    <glyph glyph-name="x" unicode="x" horiz-adv-x="1054" 
d="M1020 1032l-330 -508l344 -524h-284l-228 365l-225 -365h-283l342 524l-327 508h278l215 -354l217 354h281z" />
    <glyph glyph-name="y" unicode="y" horiz-adv-x="1124" 
d="M1114 1032l-776 -1503h-283l373 682l-418 821h264l285 -600l291 600h264z" />
    <glyph glyph-name="z" unicode="z" horiz-adv-x="952" 
d="M903 1032v-8l-485 -815h483v-209h-856v8l485 815h-454v209h827z" />
    <glyph glyph-name="braceleft" unicode="{" horiz-adv-x="712" 
d="M641 1575v-197q-109 0 -163.5 -64.5t-37.5 -193.5l19 -151q15 -112 -16 -181.5t-99 -93.5q144 -51 115 -274l-19 -152q-17 -129 37.5 -193.5t163.5 -64.5v-196q-248 0 -356 126.5t-74 374.5l16 146q13 94 -36 151t-144 78v8q95 21 144 78.5t36 151.5l-16 147
q-34 247 74 373.5t356 126.5z" />
    <glyph glyph-name="bar" unicode="|" horiz-adv-x="497" 
d="M367 1432v-1680h-236v1680h236z" />
    <glyph glyph-name="braceright" unicode="}" horiz-adv-x="712" 
d="M72 1575q249 0 358 -127t74 -373l-21 -147q-13 -92 37.5 -150.5t145.5 -79.5v-8q-95 -22 -145.5 -79.5t-37.5 -149.5l21 -146q35 -248 -74 -374.5t-358 -126.5v196q107 0 162 64.5t38 193.5l-18 152q-29 223 115 274q-68 24 -99 93.5t-16 181.5l18 151q17 129 -38 193.5
t-162 64.5v197z" />
    <glyph glyph-name="asciitilde" unicode="~" horiz-adv-x="1280" 
d="M430 920q59 0 110.5 -17.5t88.5 -43t71 -51t72 -43t78 -17.5q75 0 127.5 42.5t79.5 110.5l145 -113q-50 -125 -142 -196.5t-210 -71.5q-61 0 -111.5 17.5t-84.5 43t-66 51t-72 43t-86 17.5q-76 0 -128.5 -42t-78.5 -111l-145 112q52 127 143 198t209 71z" />
    <glyph glyph-name="exclamdown" unicode="&#xa1;" horiz-adv-x="567" 
d="M285 729q-68 0 -113 44.5t-45 113.5t45 113t113 44q69 0 114 -44t45 -113q0 -68 -45 -113t-114 -45zM162 -481v1061h248v-1061h-248z" />
    <glyph glyph-name="cent" unicode="&#xa2;" horiz-adv-x="1048" 
d="M1014 213q-117 -188 -324 -225v-289h-207v291q-190 35 -302.5 178t-112.5 348t112.5 348t302.5 178v269h207v-267q203 -36 322 -223l-172 -129q-89 146 -244 146q-131 0 -205 -91t-74 -231t74.5 -230.5t204.5 -90.5q158 0 250 145z" />
    <glyph glyph-name="sterling" unicode="&#xa3;" 
d="M905 424h242q0 -424 -387 -424h-729v8q4 6 38.5 61.5t44 71.5t39 70.5t39 82.5t27 81t20.5 93t2 92t-12 102h-186v194h131q-29 107 -29 195q0 222 126.5 351.5t342.5 129.5q89 0 165.5 -28t129 -75t88.5 -102.5t54 -116.5l-238 -67q-19 78 -72.5 124t-134.5 46
q-104 0 -159.5 -65.5t-55.5 -178.5q0 -73 37 -213h346v-194h-297q15 -64 15 -121q0 -169 -93 -322h312q101 0 147.5 47t46.5 158z" />
    <glyph glyph-name="currency" unicode="&#xa4;" horiz-adv-x="1347" 
d="M1126 1151l158 -158l-246 -243q58 -96 58 -211q0 -121 -58 -213l246 -242l-158 -158l-247 246q-89 -53 -205 -53q-115 0 -207 53l-246 -246l-158 158l246 242q-57 91 -57 213q0 117 57 211l-246 243l158 158l246 -246q91 56 207 56q109 0 207 -56zM674 774
q-93 0 -154 -67.5t-61 -167.5t61 -167t154 -67q92 0 153.5 67t61.5 167t-61.5 167.5t-153.5 67.5z" />
    <glyph glyph-name="yen" unicode="&#xa5;" horiz-adv-x="1380" 
d="M1372 1503l-457 -715h242v-182h-338v-164h338v-180h-338v-262h-256v262h-338v180h338v164h-338v182h238l-455 715h299l383 -622l381 622h301z" />
    <glyph glyph-name="brokenbar" unicode="&#xa6;" horiz-adv-x="497" 
d="M367 1432v-631h-236v631h236zM367 383v-631h-236v631h236z" />
    <glyph glyph-name="section" unicode="&#xa7;" horiz-adv-x="905" 
d="M489 1532q192 0 312 -127l-137 -152q-68 78 -177 78q-79 0 -125.5 -40.5t-46.5 -106.5q0 -102 117 -144q23 -7 69 -15t70 -15q124 -31 200.5 -124.5t76.5 -217.5q0 -92 -44.5 -166.5t-119.5 -116.5q133 -76 133 -227q0 -149 -115.5 -252t-302.5 -103q-105 0 -195.5 39
t-152.5 115l148 149q78 -102 202 -102q86 0 136.5 42.5t50.5 113.5q0 87 -101 131q-19 7 -39.5 11.5t-46.5 9t-41 7.5q-134 26 -216.5 122t-82.5 227q0 91 43 164.5t119 115.5q-137 75 -137 240q0 145 110 244.5t293 99.5zM455 842q-76 0 -125 -49.5t-49 -124.5t49 -123.5
t125 -48.5q75 0 125.5 48.5t50.5 123.5t-50.5 124.5t-125.5 49.5z" />
    <glyph glyph-name="dieresis" unicode="&#xa8;" horiz-adv-x="698" 
d="M164 1446q55 0 91 -35.5t36 -89.5q0 -55 -35.5 -91t-91.5 -36q-54 0 -89.5 36t-35.5 91q0 54 35.5 89.5t89.5 35.5zM532 1446q55 0 91 -35.5t36 -89.5q0 -55 -35.5 -91t-91.5 -36q-54 0 -89 36t-35 91q0 54 35 89.5t89 35.5z" />
    <glyph glyph-name="copyright" unicode="&#xa9;" horiz-adv-x="1662" 
d="M829 1532q160 0 300 -59.5t239 -163t156 -248.5t57 -311q0 -222 -97 -399.5t-269 -277.5t-386 -100q-161 0 -300 58.5t-237 161t-154 247t-56 310.5q0 222 95 400.5t266 280t386 101.5zM829 1389q-171 0 -307.5 -83t-212.5 -229t-76 -327t76 -325.5t212 -226t308 -81.5
t308.5 81t213 226t76.5 326t-76.5 327t-213.5 229t-308 83zM862 1178q182 0 295 -125l-106 -127q-71 84 -189 84q-113 0 -180.5 -70t-67.5 -186q0 -119 66.5 -187.5t181.5 -68.5q119 0 191 82l106 -127q-118 -127 -297 -127q-185 0 -305.5 120.5t-120.5 307.5
q0 183 121 303.5t305 120.5z" />
    <glyph glyph-name="ordfeminine" unicode="&#xaa;" horiz-adv-x="888" 
d="M371 1536q145 0 221 -96l8 82h180v-727h-180l-8 79q-75 -94 -221 -94q-141 0 -231.5 107t-90.5 270q0 164 91 271.5t231 107.5zM424 1360q-77 0 -124.5 -55t-47.5 -148t47.5 -149t124.5 -56q92 0 156 95v221q-60 92 -156 92z" />
    <glyph glyph-name="guillemotleft" unicode="&#xab;" horiz-adv-x="1116" 
d="M561 938l-262 -414l262 -413h-227l-271 409v8l271 410h227zM1051 938l-263 -414l263 -413h-226l-270 409v8l270 410h226z" />
    <glyph glyph-name="logicalnot" unicode="&#xac;" horiz-adv-x="1222" 
d="M1149 907v-598h-174v426h-901v172h1075z" />
    <glyph glyph-name="registered" unicode="&#xae;" horiz-adv-x="1390" 
d="M694 1610q133 0 249 -50t198.5 -136t130 -207t47.5 -259q0 -139 -47.5 -259t-130 -205.5t-198.5 -134t-249 -48.5q-271 0 -447.5 183t-176.5 464q0 184 80 333t223 234t321 85zM694 449q209 0 345.5 144t136.5 365t-137 368t-345 147q-209 0 -344 -147t-135 -368
q0 -222 134.5 -365.5t344.5 -143.5zM961 1081q0 -71 -34.5 -124t-92.5 -80l159 -265h-172l-141 236h-90v-236h-148v695h269q104 0 177 -61.5t73 -164.5zM590 1171v-188h104q117 0 117 94t-117 94h-104z" />
    <glyph glyph-name="macron" unicode="&#xaf;" horiz-adv-x="622" 
d="M584 1386v-167h-545v167h545z" />
    <glyph glyph-name="degree" unicode="&#xb0;" horiz-adv-x="722" 
d="M365 1530q127 0 213 -86t86 -213q0 -130 -85.5 -213.5t-213.5 -83.5q-134 0 -220 83.5t-86 213.5q0 128 86.5 213.5t219.5 85.5zM365 1374q-61 0 -100.5 -40.5t-39.5 -102.5t39.5 -101.5t100.5 -39.5q57 0 96 40t39 101t-39 102t-96 41z" />
    <glyph glyph-name="plusminus" unicode="&#xb1;" horiz-adv-x="1019" 
d="M621 1374v-317h321v-228h-321v-319h-226v319h-319v228h319v317h226zM942 375v-225h-866v225h866z" />
    <glyph glyph-name="two.sups" unicode="&#xb2;" horiz-adv-x="704" 
d="M352 1681q135 0 217 -76.5t82 -197.5q0 -65 -25.5 -121t-76.5 -123l-158 -194h266v-162h-575v8l313 440q41 51 56.5 84t15.5 72q0 50 -31.5 79.5t-83.5 29.5q-104 0 -125 -125l-164 39q49 247 289 247z" />
    <glyph glyph-name="three.sups" unicode="&#xb3;" horiz-adv-x="694" 
d="M356 1681q127 0 207 -76t80 -188q0 -116 -104 -172q125 -56 125 -186q0 -118 -83 -193t-221 -75q-245 0 -301 235l162 37q16 -55 48.5 -82t90.5 -27q54 0 87.5 31.5t33.5 83.5q0 48 -35.5 80.5t-91.5 32.5h-94v137h98q46 2 75.5 27.5t29.5 72.5q0 45 -31.5 73t-79.5 28
q-92 0 -119 -99l-155 68q60 192 278 192z" />
    <glyph glyph-name="acute" unicode="&#xb4;" horiz-adv-x="641" 
d="M594 1458l-334 -280h-229l276 280h287z" />
    <glyph glyph-name="mu" unicode="&#xb5;" horiz-adv-x="1218" 
d="M1069 1032v-1032h-223l-10 119q-47 -61 -122 -100t-171 -39q-92 0 -148 34v-485h-245v1503h245v-598q0 -99 51.5 -160t139.5 -61q79 0 133.5 38t101.5 105v676h248z" />
    <glyph glyph-name="paragraph" unicode="&#xb6;" horiz-adv-x="1486" 
d="M1419 1505v-192h-176v-1538h-209v1538h-213v-1538h-209v850h-4q-93 0 -175 16t-152.5 50t-121.5 84t-79.5 121.5t-28.5 158.5q0 147 73 250t197 151.5t289 48.5h809z" />
    <glyph glyph-name="periodcentered" unicode="&#xb7;" horiz-adv-x="473" 
d="M236 682q69 0 113 -44.5t44 -113.5q0 -66 -44.5 -110.5t-112.5 -44.5q-67 0 -111.5 44.5t-44.5 110.5q0 69 44 113.5t112 44.5z" />
    <glyph glyph-name="cedilla" unicode="&#xb8;" horiz-adv-x="505" 
d="M184 41l125 -8l-33 -127q82 -5 139.5 -49t57.5 -131q0 -89 -65.5 -143t-161.5 -54q-127 0 -207 80l82 100q51 -55 115 -55q40 0 61.5 18t21.5 52q0 69 -92 75q-49 3 -98 -12l-6 8z" />
    <glyph glyph-name="one.sups" unicode="&#xb9;" horiz-adv-x="536" 
d="M436 1681v-874h-180v590l-131 -78l-76 166l383 196h4z" />
    <glyph glyph-name="ordmasculine" unicode="&#xba;" horiz-adv-x="862" 
d="M432 1536q162 0 270.5 -108.5t108.5 -270.5q0 -164 -108 -270.5t-271 -106.5q-167 0 -275 106.5t-108 270.5q0 162 108.5 270.5t274.5 108.5zM432 1360q-79 0 -129.5 -57.5t-50.5 -145.5t50.5 -146.5t129.5 -58.5q76 0 127 58.5t51 146.5t-50.5 145.5t-127.5 57.5z" />
    <glyph glyph-name="guillemotright" unicode="&#xbb;" horiz-adv-x="1116" 
d="M291 938l270 -410v-8l-270 -409h-228l265 413l-265 414h228zM780 938l271 -410v-8l-271 -409h-225l262 413l-262 414h225z" />
    <glyph glyph-name="onequarter" unicode="&#xbc;" horiz-adv-x="1548" 
d="M1268 1503l-744 -1503h-200l745 1503h199zM436 1477v-875h-180v590l-131 -78l-76 166l383 197h4zM1407 877v-623h102v-139h-102v-115h-178v117h-438v4l612 756h4zM1239 471l-176 -223h176v223z" />
    <glyph glyph-name="onehalf" unicode="&#xbd;" horiz-adv-x="1671" 
d="M1245 1503l-745 -1503h-201l745 1503h201zM436 1477v-875h-180v590l-131 -78l-76 166l383 197h4zM1305 874q134 0 216.5 -76.5t82.5 -197.5q0 -65 -25.5 -120.5t-77.5 -123.5l-160 -194h269v-162h-576v8l314 441q40 52 55.5 84.5t15.5 70.5q0 50 -31 79.5t-83 29.5
q-104 0 -125 -125l-164 39q46 247 289 247z" />
    <glyph glyph-name="threequarters" unicode="&#xbe;" horiz-adv-x="1705" 
d="M1411 1503l-745 -1503h-201l745 1503h201zM356 1477q127 0 207 -76.5t80 -188.5q0 -116 -104 -172q125 -56 125 -186q0 -118 -83 -193t-221 -75q-245 0 -301 235l162 37q16 -54 48.5 -81t90.5 -27q54 0 87.5 31t33.5 83q0 48 -35.5 80.5t-91.5 32.5h-94v137h98
q46 2 75.5 27.5t29.5 72.5q0 45 -31.5 73t-79.5 28q-92 0 -119 -98l-155 67q60 193 278 193zM1563 877v-623h102v-139h-102v-115h-179v117h-436v4l611 756h4zM1397 471l-178 -223h178v223z" />
    <glyph glyph-name="questiondown" unicode="&#xbf;" horiz-adv-x="1038" 
d="M535 729q-69 0 -113.5 44.5t-44.5 113.5t44.5 113t113.5 44t113 -44t44 -113q0 -68 -44 -113t-113 -45zM535 -508q-203 0 -333 120t-130 300q0 72 19 131t48.5 98.5t66 73.5t73 63.5t66 60.5t48.5 73t19 92v76h247v-107q0 -65 -18 -118.5t-47 -90.5t-64.5 -69t-70.5 -61
t-64 -59t-47 -70.5t-18 -88.5q0 -94 58 -147.5t149 -53.5q92 0 146.5 51t72.5 144l243 -41q-39 -181 -156 -279t-308 -98z" />
    <glyph glyph-name="Agrave" unicode="&#xc0;" horiz-adv-x="1454" 
d="M588 1841l264 -239h-254l-311 239h301zM731 1532l709 -1532h-279l-119 272h-630l-119 -272h-279l709 1532h8zM727 1006l-227 -523h454z" />
    <glyph glyph-name="Aacute" unicode="&#xc1;" horiz-adv-x="1454" 
d="M1139 1841l-310 -239h-254l265 239h299zM731 1532l709 -1532h-279l-119 272h-630l-119 -272h-279l709 1532h8zM727 1006l-227 -523h454z" />
    <glyph glyph-name="Acircumflex" unicode="&#xc2;" horiz-adv-x="1454" 
d="M725 1907l340 -308h-211l-129 113l-131 -113h-209zM731 1532l709 -1532h-279l-119 272h-630l-119 -272h-279l709 1532h8zM727 1006l-227 -523h454z" />
    <glyph glyph-name="Atilde" unicode="&#xc3;" horiz-adv-x="1454" 
d="M602 1905q45 0 81 -15.5t57.5 -38t39.5 -45t38.5 -38t43.5 -15.5q64 0 64 139h145q0 -144 -62.5 -220.5t-160.5 -76.5q-47 0 -81.5 15.5t-54 38t-36 45t-37 38t-45.5 15.5q-70 0 -70 -139h-145q0 149 62.5 223t160.5 74zM731 1532l709 -1532h-279l-119 272h-630
l-119 -272h-279l709 1532h8zM727 1006l-227 -523h454z" />
    <glyph glyph-name="Adieresis" unicode="&#xc4;" horiz-adv-x="1454" 
d="M539 1851q55 0 91 -35.5t36 -91.5q0 -54 -36 -89.5t-91 -35.5q-54 0 -89.5 35.5t-35.5 89.5q0 55 35.5 91t89.5 36zM907 1851q55 0 91 -35.5t36 -91.5q0 -54 -36 -89.5t-91 -35.5q-54 0 -89.5 35.5t-35.5 89.5q0 55 35.5 91t89.5 36zM731 1532l709 -1532h-279l-119 272
h-630l-119 -272h-279l709 1532h8zM727 1006l-227 -523h454z" />
    <glyph glyph-name="Aring" unicode="&#xc5;" horiz-adv-x="1454" 
d="M725 2062q101 0 168.5 -66.5t67.5 -166.5q0 -101 -67.5 -167.5t-168.5 -66.5t-168.5 66.5t-67.5 167.5q0 100 67.5 166.5t168.5 66.5zM725 1929q-40 0 -68 -29t-28 -71t28 -70t68 -28q42 0 70 28t28 70q0 43 -28.5 71.5t-69.5 28.5zM731 1532l709 -1532h-279l-119 272
h-630l-119 -272h-279l709 1532h8zM727 1006l-227 -523h454z" />
    <glyph glyph-name="AE" unicode="&#xc6;" horiz-adv-x="1814" 
d="M1716 1505v-235h-807l164 -400h555v-215h-465l174 -419h396v-236h-580l-115 281h-624l-113 -281h-287l662 1505h1040zM727 1051l-233 -574h467z" />
    <glyph glyph-name="Ccedilla" unicode="&#xc7;" horiz-adv-x="1421" 
d="M831 -27h-2l-18 -67q82 -5 139.5 -49t57.5 -131q0 -89 -66 -143t-162 -54q-127 0 -207 80l82 100q51 -55 115 -55q40 0 62 18t22 52q0 69 -92 75q-49 3 -98 -12l-7 8l48 189q-280 43 -455.5 255.5t-175.5 512.5q0 222 97 400t270 279t390 101q174 0 304 -55.5t241 -167.5
l-162 -185q-158 172 -383 172q-222 0 -360.5 -152.5t-138.5 -391.5q0 -237 139 -390t360 -153q238 0 390 180l159 -188q-206 -228 -549 -228z" />
    <glyph glyph-name="Egrave" unicode="&#xc8;" 
d="M518 1841l264 -239h-254l-311 239h301zM1110 1505v-235h-694v-396h606v-223h-606v-415h710v-236h-966v1505h950z" />
    <glyph glyph-name="Eacute" unicode="&#xc9;" 
d="M1069 1841l-309 -239h-254l264 239h299zM1110 1505v-235h-694v-396h606v-223h-606v-415h710v-236h-966v1505h950z" />
    <glyph glyph-name="Ecircumflex" unicode="&#xca;" 
d="M655 1907l340 -308h-211l-129 113l-131 -113h-209zM1110 1505v-235h-694v-396h606v-223h-606v-415h710v-236h-966v1505h950z" />
    <glyph glyph-name="Edieresis" unicode="&#xcb;" 
d="M469 1851q55 0 91 -35.5t36 -91.5q0 -54 -36 -89.5t-91 -35.5q-54 0 -89.5 35.5t-35.5 89.5q0 55 35.5 91t89.5 36zM838 1851q56 0 91.5 -35.5t35.5 -91.5q0 -54 -36 -89.5t-91 -35.5q-54 0 -89.5 35.5t-35.5 89.5q0 55 35.5 91t89.5 36zM1110 1505v-235h-694v-396h606
v-223h-606v-415h710v-236h-966v1505h950z" />
    <glyph glyph-name="Igrave" unicode="&#xcc;" horiz-adv-x="575" 
d="M152 1841l264 -239h-254l-312 239h302zM416 1505v-1505h-256v1505h256z" />
    <glyph glyph-name="Iacute" unicode="&#xcd;" horiz-adv-x="575" 
d="M702 1841l-309 -239h-254l264 239h299zM416 1505v-1505h-256v1505h256z" />
    <glyph glyph-name="Icircumflex" unicode="&#xce;" horiz-adv-x="575" 
d="M289 1907l340 -308h-211l-129 113l-131 -113h-209zM416 1505v-1505h-256v1505h256z" />
    <glyph glyph-name="Idieresis" unicode="&#xcf;" horiz-adv-x="575" 
d="M102 1851q56 0 91.5 -35.5t35.5 -91.5q0 -54 -36 -89.5t-91 -35.5q-54 0 -89.5 35.5t-35.5 89.5q0 55 35.5 91t89.5 36zM471 1851q55 0 91 -35.5t36 -91.5q0 -54 -36 -89.5t-91 -35.5q-54 0 -89.5 35.5t-35.5 89.5q0 55 35.5 91t89.5 36zM416 1505v-1505h-256v1505h256z
" />
    <glyph glyph-name="Eth" unicode="&#xd0;" horiz-adv-x="1550" 
d="M662 1505q384 0 599.5 -198t215.5 -553q0 -356 -215 -555t-600 -199h-465v690h-177v168h177v647h465zM653 236q275 0 419.5 135t144.5 383q0 246 -146 380t-418 134h-200v-410h221v-168h-221v-454h200z" />
    <glyph glyph-name="Ntilde" unicode="&#xd1;" horiz-adv-x="1501" 
d="M618 1905q45 0 81 -15.5t57.5 -38t40 -45t39 -38t43.5 -15.5q63 0 63 139h145q0 -144 -62.5 -220.5t-160.5 -76.5q-47 0 -81.5 15.5t-54 38t-36 45t-37 38t-45.5 15.5q-38 0 -53.5 -35t-15.5 -104h-146q0 149 62.5 223t160.5 74zM168 1532l917 -959v932h256v-1532h-8
l-917 961v-934h-256v1532h8z" />
    <glyph glyph-name="Ograve" unicode="&#xd2;" horiz-adv-x="1677" 
d="M700 1862l265 -240h-254l-312 240h301zM838 1532q162 0 304 -59t243.5 -162t160 -248t58.5 -311t-58.5 -311.5t-160 -248t-243.5 -161t-304 -58.5q-163 0 -305 58.5t-242.5 161t-158.5 247.5t-58 312q0 166 58 311t158.5 248t242.5 162t305 59zM838 1296
q-221 0 -363.5 -153t-142.5 -391q0 -237 142.5 -390t363.5 -153q222 0 363.5 153t141.5 390q0 238 -141.5 391t-363.5 153z" />
    <glyph glyph-name="Oacute" unicode="&#xd3;" horiz-adv-x="1677" 
d="M1251 1862l-309 -240h-254l264 240h299zM838 1532q162 0 304 -59t243.5 -162t160 -248t58.5 -311t-58.5 -311.5t-160 -248t-243.5 -161t-304 -58.5q-163 0 -305 58.5t-242.5 161t-158.5 247.5t-58 312q0 166 58 311t158.5 248t242.5 162t305 59zM838 1296
q-221 0 -363.5 -153t-142.5 -391q0 -237 142.5 -390t363.5 -153q222 0 363.5 153t141.5 390q0 238 -141.5 391t-363.5 153z" />
    <glyph glyph-name="Ocircumflex" unicode="&#xd4;" horiz-adv-x="1677" 
d="M838 1927l340 -307h-211l-129 113l-131 -113h-209zM838 1532q162 0 304 -59t243.5 -162t160 -248t58.5 -311t-58.5 -311.5t-160 -248t-243.5 -161t-304 -58.5q-163 0 -305 58.5t-242.5 161t-158.5 247.5t-58 312q0 166 58 311t158.5 248t242.5 162t305 59zM838 1296
q-221 0 -363.5 -153t-142.5 -391q0 -237 142.5 -390t363.5 -153q222 0 363.5 153t141.5 390q0 238 -141.5 391t-363.5 153z" />
    <glyph glyph-name="Otilde" unicode="&#xd5;" horiz-adv-x="1677" 
d="M717 1925q45 0 81 -15.5t57.5 -37.5t39.5 -44.5t38.5 -38t43.5 -15.5q63 0 63 139h146q0 -144 -62.5 -220.5t-160.5 -76.5q-47 0 -81.5 15.5t-54 38t-36 44.5t-37 37.5t-45.5 15.5q-70 0 -70 -139h-145q0 149 62.5 223t160.5 74zM838 1532q162 0 304 -59t243.5 -162
t160 -248t58.5 -311t-58.5 -311.5t-160 -248t-243.5 -161t-304 -58.5q-163 0 -305 58.5t-242.5 161t-158.5 247.5t-58 312q0 166 58 311t158.5 248t242.5 162t305 59zM838 1296q-221 0 -363.5 -153t-142.5 -391q0 -237 142.5 -390t363.5 -153q222 0 363.5 153t141.5 390
q0 238 -141.5 391t-363.5 153z" />
    <glyph glyph-name="Odieresis" unicode="&#xd6;" horiz-adv-x="1677" 
d="M653 1872q55 0 91 -36t36 -91q0 -54 -36 -89.5t-91 -35.5q-54 0 -89.5 35.5t-35.5 89.5q0 55 35.5 91t89.5 36zM1022 1872q56 0 91.5 -36t35.5 -91q0 -54 -36 -89.5t-91 -35.5q-54 0 -89.5 35.5t-35.5 89.5q0 55 35.5 91t89.5 36zM838 1532q162 0 304 -59t243.5 -162
t160 -248t58.5 -311t-58.5 -311.5t-160 -248t-243.5 -161t-304 -58.5q-163 0 -305 58.5t-242.5 161t-158.5 247.5t-58 312q0 166 58 311t158.5 248t242.5 162t305 59zM838 1296q-221 0 -363.5 -153t-142.5 -391q0 -237 142.5 -390t363.5 -153q222 0 363.5 153t141.5 390
q0 238 -141.5 391t-363.5 153z" />
    <glyph glyph-name="multiply" unicode="&#xd7;" horiz-adv-x="966" 
d="M723 1116l160 -160l-242 -239l242 -242l-160 -160l-240 242l-239 -242l-160 160l240 242l-240 237l160 162l239 -239z" />
    <glyph glyph-name="Oslash" unicode="&#xd8;" horiz-adv-x="1671" 
d="M1298 1386q143 -106 224.5 -271t81.5 -363q0 -166 -58.5 -311.5t-160 -248t-243.5 -161t-304 -58.5q-151 0 -287 52l-105 -189h-223l156 281q-143 104 -224 269.5t-81 365.5q0 166 58 311t158.5 248t242.5 162t305 59q154 0 290 -53l105 190h221zM332 752q0 -127 44 -234
t124 -182l512 932q-82 28 -174 28q-221 0 -363.5 -153t-142.5 -391zM838 209q222 0 363.5 153t141.5 390q0 127 -43 234t-122 181l-512 -931q79 -27 172 -27z" />
    <glyph glyph-name="Ugrave" unicode="&#xd9;" horiz-adv-x="1454" 
d="M590 1841l264 -239h-254l-311 239h301zM1315 1505v-970q0 -258 -153.5 -410t-434.5 -152t-434.5 152t-153.5 410v970h256v-954q0 -157 87 -249.5t245 -92.5t245 92.5t87 249.5v954h256z" />
    <glyph glyph-name="Uacute" unicode="&#xda;" horiz-adv-x="1454" 
d="M1141 1841l-310 -239h-253l264 239h299zM1315 1505v-970q0 -258 -153.5 -410t-434.5 -152t-434.5 152t-153.5 410v970h256v-954q0 -157 87 -249.5t245 -92.5t245 92.5t87 249.5v954h256z" />
    <glyph glyph-name="Ucircumflex" unicode="&#xdb;" horiz-adv-x="1454" 
d="M729 1907l340 -308h-211l-129 113l-131 -113h-209zM1315 1505v-970q0 -258 -153.5 -410t-434.5 -152t-434.5 152t-153.5 410v970h256v-954q0 -157 87 -249.5t245 -92.5t245 92.5t87 249.5v954h256z" />
    <glyph glyph-name="Udieresis" unicode="&#xdc;" horiz-adv-x="1454" 
d="M543 1851q55 0 91 -35.5t36 -91.5q0 -54 -36 -89.5t-91 -35.5q-54 0 -89.5 35.5t-35.5 89.5q0 55 35.5 91t89.5 36zM911 1851q55 0 91 -35.5t36 -91.5q0 -54 -36 -89.5t-91 -35.5q-54 0 -89.5 35.5t-35.5 89.5q0 55 35.5 91t89.5 36zM1315 1505v-970q0 -258 -153.5 -410
t-434.5 -152t-434.5 152t-153.5 410v970h256v-954q0 -157 87 -249.5t245 -92.5t245 92.5t87 249.5v954h256z" />
    <glyph glyph-name="Yacute" unicode="&#xdd;" horiz-adv-x="1386" 
d="M1106 1841l-309 -239h-254l264 239h299zM1374 1503l-553 -876v-627h-256v623l-553 880h297l383 -622l383 622h299z" />
    <glyph glyph-name="Thorn" unicode="&#xde;" horiz-adv-x="1196" 
d="M416 1505v-262h241q96 0 183 -29.5t154 -83.5t107 -138t40 -185q0 -102 -40 -186t-107 -138t-154 -83t-183 -29h-241v-371h-256v1505h256zM635 1020h-219v-428h219q106 0 176 57t70 158q0 99 -70 156t-176 57z" />
    <glyph glyph-name="germandbls" unicode="&#xdf;" horiz-adv-x="1255" 
d="M627 1532q209 0 339 -120t130 -306q0 -101 -46.5 -174t-121.5 -111q50 -16 95 -45t85.5 -75t64 -115t23.5 -152q0 -208 -134 -334.5t-362 -126.5q-125 0 -208 45l47 220q74 -41 157 -41q107 0 177.5 64.5t70.5 176.5q0 85 -51 145t-141 85q-76 22 -162 22v187
q76 3 137 34q119 59 119 179q0 100 -65.5 160.5t-159.5 60.5q-106 0 -170 -62.5t-64 -185.5v-1063h-250v1049q0 145 66.5 256.5t177 169t246.5 57.5z" />
    <glyph glyph-name="agrave" unicode="&#xe0;" 
d="M453 1458l278 -280h-229l-336 280h287zM530 1053q206 0 310 -142l12 121h221v-1032h-221l-12 121q-103 -141 -310 -141t-334.5 151t-127.5 385q0 236 127.5 386.5t334.5 150.5zM584 836q-120 0 -193.5 -87t-73.5 -233t73 -232.5t194 -86.5q83 0 140 40t103 113v332
q-46 74 -103 114t-140 40z" />
    <glyph glyph-name="aacute" unicode="&#xe1;" 
d="M1034 1458l-334 -280h-229l277 280h286zM530 1053q206 0 310 -142l12 121h221v-1032h-221l-12 121q-103 -141 -310 -141t-334.5 151t-127.5 385q0 236 127.5 386.5t334.5 150.5zM584 836q-120 0 -193.5 -87t-73.5 -233t73 -232.5t194 -86.5q83 0 140 40t103 113v332
q-46 74 -103 114t-140 40z" />
    <glyph glyph-name="acircumflex" unicode="&#xe2;" 
d="M606 1544l328 -366h-205l-123 125l-125 -125h-202zM530 1053q206 0 310 -142l12 121h221v-1032h-221l-12 121q-103 -141 -310 -141t-334.5 151t-127.5 385q0 236 127.5 386.5t334.5 150.5zM584 836q-120 0 -193.5 -87t-73.5 -233t73 -232.5t194 -86.5q83 0 140 40
t103 113v332q-46 74 -103 114t-140 40z" />
    <glyph glyph-name="atilde" unicode="&#xe3;" 
d="M483 1485q45 0 81 -15.5t57.5 -38t39.5 -45t38.5 -38t43.5 -15.5q64 0 64 140h145q0 -147 -63 -225.5t-160 -78.5q-47 0 -81.5 15.5t-54 38t-36 45t-37 38t-45.5 15.5q-38 0 -53.5 -35t-15.5 -104h-146q0 151 62.5 227t160.5 76zM530 1053q206 0 310 -142l12 121h221
v-1032h-221l-12 121q-103 -141 -310 -141t-334.5 151t-127.5 385q0 236 127.5 386.5t334.5 150.5zM584 836q-120 0 -193.5 -87t-73.5 -233t73 -232.5t194 -86.5q83 0 140 40t103 113v332q-46 74 -103 114t-140 40z" />
    <glyph glyph-name="adieresis" unicode="&#xe4;" 
d="M420 1446q55 0 91 -35.5t36 -89.5q0 -55 -35.5 -91t-91.5 -36q-54 0 -89.5 36t-35.5 91q0 54 35.5 89.5t89.5 35.5zM788 1446q55 0 91 -35.5t36 -89.5q0 -55 -35.5 -91t-91.5 -36q-54 0 -89 36t-35 91q0 54 35 89.5t89 35.5zM530 1053q206 0 310 -142l12 121h221v-1032
h-221l-12 121q-103 -141 -310 -141t-334.5 151t-127.5 385q0 236 127.5 386.5t334.5 150.5zM584 836q-120 0 -193.5 -87t-73.5 -233t73 -232.5t194 -86.5q83 0 140 40t103 113v332q-46 74 -103 114t-140 40z" />
    <glyph glyph-name="aring" unicode="&#xe5;" 
d="M606 1632q101 0 168.5 -67t67.5 -168q0 -99 -67 -164.5t-169 -65.5q-101 0 -168 65t-67 165q0 101 67 168t168 67zM606 1499q-40 0 -68 -29.5t-28 -72.5q0 -41 28 -69t68 -28q41 0 70 28t29 69q0 43 -29 72.5t-70 29.5zM530 1053q206 0 310 -142l12 121h221v-1032h-221
l-12 121q-103 -141 -310 -141t-334.5 151t-127.5 385q0 236 127.5 386.5t334.5 150.5zM584 836q-120 0 -193.5 -87t-73.5 -233t73 -232.5t194 -86.5q83 0 140 40t103 113v332q-46 74 -103 114t-140 40z" />
    <glyph glyph-name="ae" unicode="&#xe6;" horiz-adv-x="1931" 
d="M1391 1053q150 0 258.5 -70.5t161.5 -189t53 -271.5v-82h-750q12 -122 88 -188t217 -66q86 0 154.5 33.5t105.5 87.5l164 -131q-154 -196 -424 -196q-121 0 -213.5 38.5t-136.5 100.5l-10 -119h-207l-12 121q-103 -141 -310 -141t-334.5 151t-127.5 385
q0 236 127.5 386.5t334.5 150.5q206 0 310 -142l12 121h209l10 -119q125 140 320 140zM1370 856q-104 0 -175 -61.5t-83 -178.5h508q-5 107 -70.5 173.5t-179.5 66.5zM584 836q-120 0 -193.5 -87t-73.5 -233t73 -232.5t194 -86.5q83 0 140 40t103 113v332q-46 74 -103 114
t-140 40z" />
    <glyph glyph-name="ccedilla" unicode="&#xe7;" horiz-adv-x="1048" 
d="M1014 213q-142 -230 -416 -233l-18 -74q82 -5 139 -49t57 -131q0 -89 -65.5 -143t-161.5 -54q-127 0 -207 80l82 100q51 -55 115 -55q40 0 62 18t22 52q0 69 -93 75q-49 3 -98 -12l-6 8l49 197q-186 37 -296.5 180t-110.5 344q0 235 146 386t380 151q269 0 418 -232
l-172 -129q-89 146 -244 146q-131 0 -205 -91t-74 -231t74.5 -230.5t204.5 -90.5q158 0 250 145z" />
    <glyph glyph-name="egrave" unicode="&#xe8;" horiz-adv-x="1112" 
d="M424 1458l278 -280h-229l-336 280h287zM573 1053q115 0 206.5 -41.5t149 -114t88 -167t30.5 -204.5v-86h-730q8 -122 81 -187t202 -65q88 0 155.5 32t106.5 85l164 -129q-157 -196 -430 -196q-237 0 -382.5 150t-145.5 384q0 235 141 387t364 152zM569 856
q-108 0 -177 -66t-75 -174h486q-5 108 -66.5 174t-167.5 66z" />
    <glyph glyph-name="eacute" unicode="&#xe9;" horiz-adv-x="1112" 
d="M1006 1458l-334 -280h-230l277 280h287zM573 1053q115 0 206.5 -41.5t149 -114t88 -167t30.5 -204.5v-86h-730q8 -122 81 -187t202 -65q88 0 155.5 32t106.5 85l164 -129q-157 -196 -430 -196q-237 0 -382.5 150t-145.5 384q0 235 141 387t364 152zM569 856
q-108 0 -177 -66t-75 -174h486q-5 108 -66.5 174t-167.5 66z" />
    <glyph glyph-name="ecircumflex" unicode="&#xea;" horiz-adv-x="1112" 
d="M578 1544l327 -366h-205l-122 125l-125 -125h-203zM573 1053q115 0 206.5 -41.5t149 -114t88 -167t30.5 -204.5v-86h-730q8 -122 81 -187t202 -65q88 0 155.5 32t106.5 85l164 -129q-157 -196 -430 -196q-237 0 -382.5 150t-145.5 384q0 235 141 387t364 152zM569 856
q-108 0 -177 -66t-75 -174h486q-5 108 -66.5 174t-167.5 66z" />
    <glyph glyph-name="edieresis" unicode="&#xeb;" horiz-adv-x="1112" 
d="M391 1446q55 0 91 -35.5t36 -89.5q0 -55 -36 -91t-91 -36q-54 0 -89.5 36t-35.5 91q0 54 35.5 89.5t89.5 35.5zM760 1446q55 0 91 -35.5t36 -89.5q0 -55 -35.5 -91t-91.5 -36q-54 0 -89.5 36t-35.5 91q0 54 35.5 89.5t89.5 35.5zM573 1053q115 0 206.5 -41.5t149 -114
t88 -167t30.5 -204.5v-86h-730q8 -122 81 -187t202 -65q88 0 155.5 32t106.5 85l164 -129q-157 -196 -430 -196q-237 0 -382.5 150t-145.5 384q0 235 141 387t364 152zM569 856q-108 0 -177 -66t-75 -174h486q-5 108 -66.5 174t-167.5 66z" />
    <glyph glyph-name="igrave" unicode="&#xec;" horiz-adv-x="544" 
d="M119 1458l276 -280h-227l-336 280h287zM383 1032v-1032h-248v1032h248z" />
    <glyph glyph-name="iacute" unicode="&#xed;" horiz-adv-x="544" 
d="M702 1458l-335 -280h-230l279 280h286zM383 1032v-1032h-248v1032h248z" />
    <glyph glyph-name="icircumflex" unicode="&#xee;" horiz-adv-x="518" 
d="M258 1544l328 -366h-205l-123 125l-125 -125h-203zM383 1032v-1032h-248v1032h248z" />
    <glyph glyph-name="idieresis" unicode="&#xef;" horiz-adv-x="544" 
d="M88 1446q55 0 91 -35.5t36 -89.5q0 -55 -35.5 -91t-91.5 -36q-54 0 -89.5 36t-35.5 91q0 54 35.5 89.5t89.5 35.5zM459 1446q54 0 90.5 -35.5t36.5 -89.5q0 -55 -36.5 -91t-90.5 -36q-55 0 -91 36t-36 91q0 54 36 89.5t91 35.5zM383 1032v-1032h-248v1032h248z" />
    <glyph glyph-name="eth" unicode="&#xf0;" horiz-adv-x="1175" 
d="M1036 762q78 -127 78 -277q0 -220 -148.5 -362.5t-375.5 -142.5q-226 0 -373 142.5t-147 362.5q0 144 66 260t184.5 182.5t265.5 67.5l-101 156h-356v182h240l-144 223h299l144 -223h358v-182h-242zM590 184q120 0 199 85.5t79 215.5q0 132 -79 219t-199 87
q-119 0 -197 -87t-78 -219q0 -130 78 -215.5t197 -85.5z" />
    <glyph glyph-name="ntilde" unicode="&#xf1;" horiz-adv-x="1193" 
d="M481 1485q45 0 81 -15.5t57.5 -38t39.5 -45t38.5 -38t43.5 -15.5q64 0 64 140h145q0 -147 -63 -225.5t-160 -78.5q-47 0 -81.5 15.5t-54 38t-36 45t-37 38t-45.5 15.5q-70 0 -70 -139h-145q0 151 62.5 227t160.5 76zM680 1053q185 0 287 -121.5t102 -327.5v-604h-246v590
q0 103 -56 166t-151 63q-140 0 -233 -143v-676h-248v1032h223l11 -119q45 61 125 100.5t186 39.5z" />
    <glyph glyph-name="ograve" unicode="&#xf2;" 
d="M449 1458l278 -280h-229l-336 280h287zM602 1053q233 0 386 -153t153 -386q0 -232 -153 -383t-386 -151q-232 0 -383 151t-151 383q0 233 151 386t383 153zM602 836q-124 0 -204.5 -91t-80.5 -231q0 -138 80.5 -227.5t204.5 -89.5q126 0 207.5 89.5t81.5 227.5
q0 140 -81.5 231t-207.5 91z" />
    <glyph glyph-name="oacute" unicode="&#xf3;" 
d="M1032 1458l-334 -280h-229l276 280h287zM602 1053q233 0 386 -153t153 -386q0 -232 -153 -383t-386 -151q-232 0 -383 151t-151 383q0 233 151 386t383 153zM602 836q-124 0 -204.5 -91t-80.5 -231q0 -138 80.5 -227.5t204.5 -89.5q126 0 207.5 89.5t81.5 227.5
q0 140 -81.5 231t-207.5 91z" />
    <glyph glyph-name="ocircumflex" unicode="&#xf4;" 
d="M602 1544l328 -366h-205l-123 125l-125 -125h-203zM602 1053q233 0 386 -153t153 -386q0 -232 -153 -383t-386 -151q-232 0 -383 151t-151 383q0 233 151 386t383 153zM602 836q-124 0 -204.5 -91t-80.5 -231q0 -138 80.5 -227.5t204.5 -89.5q126 0 207.5 89.5
t81.5 227.5q0 140 -81.5 231t-207.5 91z" />
    <glyph glyph-name="otilde" unicode="&#xf5;" 
d="M481 1485q45 0 81 -15.5t57.5 -38t39.5 -45t38.5 -38t43.5 -15.5q64 0 64 140h145q0 -147 -63 -225.5t-160 -78.5q-47 0 -81.5 15.5t-54 38t-36 45t-37 38t-45.5 15.5q-70 0 -70 -139h-145q0 151 62.5 227t160.5 76zM602 1053q233 0 386 -153t153 -386q0 -232 -153 -383
t-386 -151q-232 0 -383 151t-151 383q0 233 151 386t383 153zM602 836q-124 0 -204.5 -91t-80.5 -231q0 -138 80.5 -227.5t204.5 -89.5q126 0 207.5 89.5t81.5 227.5q0 140 -81.5 231t-207.5 91z" />
    <glyph glyph-name="odieresis" unicode="&#xf6;" 
d="M418 1446q55 0 91 -35.5t36 -89.5q0 -55 -35.5 -91t-91.5 -36q-54 0 -89.5 36t-35.5 91q0 54 35.5 89.5t89.5 35.5zM786 1446q55 0 91 -35.5t36 -89.5q0 -55 -35.5 -91t-91.5 -36q-54 0 -89 36t-35 91q0 54 35 89.5t89 35.5zM602 1053q233 0 386 -153t153 -386
q0 -232 -153 -383t-386 -151q-232 0 -383 151t-151 383q0 233 151 386t383 153zM602 836q-124 0 -204.5 -91t-80.5 -231q0 -138 80.5 -227.5t204.5 -89.5q126 0 207.5 89.5t81.5 227.5q0 140 -81.5 231t-207.5 91z" />
    <glyph glyph-name="divide" unicode="&#xf7;" horiz-adv-x="1019" 
d="M508 1276q66 0 107.5 -43t41.5 -109q0 -64 -41.5 -105.5t-107.5 -41.5q-64 0 -106 42t-42 105q0 66 42 109t106 43zM942 829v-225h-866v225h866zM508 453q66 0 107.5 -42.5t41.5 -107.5t-41.5 -107t-107.5 -42q-64 0 -106 42t-42 107t42 107.5t106 42.5z" />
    <glyph glyph-name="oslash" unicode="&#xf8;" 
d="M924 954q101 -72 159 -186.5t58 -253.5q0 -232 -153 -383t-386 -151q-102 0 -190 30l-84 -153h-160l117 219q-101 70 -159 184.5t-58 253.5q0 233 151 386t383 153q96 0 197 -33l84 156h159zM303 514q0 -149 90 -242l303 562q-46 16 -94 16q-130 0 -214.5 -95.5
t-84.5 -240.5zM602 184q130 0 215.5 93.5t85.5 236.5q0 148 -88 242l-303 -559q47 -13 90 -13z" />
    <glyph glyph-name="ugrave" unicode="&#xf9;" horiz-adv-x="1179" 
d="M438 1458l279 -280h-230l-335 280h286zM1044 1032v-1032h-221l-12 119q-104 -139 -315 -139q-177 0 -274 120t-97 326v606h248v-594q0 -101 50 -163t138 -62q80 0 135.5 38t102.5 105v676h245z" />
    <glyph glyph-name="uacute" unicode="&#xfa;" horiz-adv-x="1179" 
d="M1022 1458l-334 -280h-229l276 280h287zM1044 1032v-1032h-221l-12 119q-104 -139 -315 -139q-177 0 -274 120t-97 326v606h248v-594q0 -101 50 -163t138 -62q80 0 135.5 38t102.5 105v676h245z" />
    <glyph glyph-name="ucircumflex" unicode="&#xfb;" horiz-adv-x="1179" 
d="M592 1544l328 -366h-205l-123 125l-125 -125h-203zM1044 1032v-1032h-221l-12 119q-104 -139 -315 -139q-177 0 -274 120t-97 326v606h248v-594q0 -101 50 -163t138 -62q80 0 135.5 38t102.5 105v676h245z" />
    <glyph glyph-name="udieresis" unicode="&#xfc;" horiz-adv-x="1179" 
d="M408 1446q55 0 91 -35.5t36 -89.5q0 -55 -35.5 -91t-91.5 -36q-54 0 -89.5 36t-35.5 91q0 54 35.5 89.5t89.5 35.5zM776 1446q55 0 91 -35.5t36 -89.5q0 -55 -35.5 -91t-91.5 -36q-54 0 -89.5 36t-35.5 91q0 54 35.5 89.5t89.5 35.5zM1044 1032v-1032h-221l-12 119
q-104 -139 -315 -139q-177 0 -274 120t-97 326v606h248v-594q0 -101 50 -163t138 -62q80 0 135.5 38t102.5 105v676h245z" />
    <glyph glyph-name="yacute" unicode="&#xfd;" horiz-adv-x="1124" 
d="M969 1458l-334 -280h-229l276 280h287zM1114 1032l-776 -1503h-283l373 682l-418 821h264l285 -600l291 600h264z" />
    <glyph glyph-name="thorn" unicode="&#xfe;" horiz-adv-x="1228" 
d="M385 1556v-626q107 123 305 123q209 0 340 -151t131 -386q0 -234 -131 -385t-340 -151q-200 0 -305 122v-573h-246v2027h246zM637 836q-156 0 -252 -154v-332q96 -153 252 -153q121 0 197.5 87t76.5 232t-76.5 232.5t-197.5 87.5z" />
    <glyph glyph-name="ydieresis" unicode="&#xff;" horiz-adv-x="1124" 
d="M356 1446q55 0 91 -35.5t36 -89.5q0 -55 -35.5 -91t-91.5 -36q-54 0 -89.5 36t-35.5 91q0 54 35.5 89.5t89.5 35.5zM725 1446q55 0 91 -35.5t36 -89.5q0 -55 -36 -91t-91 -36q-54 0 -89.5 36t-35.5 91q0 54 35.5 89.5t89.5 35.5zM1114 1032l-776 -1503h-283l373 682
l-418 821h264l285 -600l291 600h264z" />
    <glyph glyph-name="Amacron" unicode="&#x100;" horiz-adv-x="1454" 
d="M997 1800v-170h-544v170h544zM731 1532l709 -1532h-279l-119 272h-630l-119 -272h-279l709 1532h8zM727 1006l-227 -523h454z" />
    <glyph glyph-name="amacron" unicode="&#x101;" 
d="M879 1386v-167h-545v167h545zM530 1053q206 0 310 -142l12 121h221v-1032h-221l-12 121q-103 -141 -310 -141t-334.5 151t-127.5 385q0 236 127.5 386.5t334.5 150.5zM584 836q-120 0 -193.5 -87t-73.5 -233t73 -232.5t194 -86.5q83 0 140 40t103 113v332
q-46 74 -103 114t-140 40z" />
    <glyph glyph-name="Abreve" unicode="&#x102;" horiz-adv-x="1454" 
d="M1047 1911q0 -135 -92 -223.5t-230 -88.5q-140 0 -233 88.5t-93 223.5h172q0 -68 42.5 -113t111.5 -45q67 0 108 45t41 113h173zM731 1532l709 -1532h-279l-119 272h-630l-119 -272h-279l709 1532h8zM727 1006l-227 -523h454z" />
    <glyph glyph-name="abreve" unicode="&#x103;" 
d="M928 1495q0 -139 -92 -231.5t-230 -92.5q-140 0 -232.5 92.5t-92.5 231.5h174q0 -68 42 -113t109 -45q64 0 107 45t43 113h172zM530 1053q206 0 310 -142l12 121h221v-1032h-221l-12 121q-103 -141 -310 -141t-334.5 151t-127.5 385q0 236 127.5 386.5t334.5 150.5z
M584 836q-120 0 -193.5 -87t-73.5 -233t73 -232.5t194 -86.5q83 0 140 40t103 113v332q-46 74 -103 114t-140 40z" />
    <glyph glyph-name="Aogonek" unicode="&#x104;" horiz-adv-x="1454" 
d="M1432 -315l45 -131q-52 -25 -127 -25q-124 0 -204.5 68t-80.5 194t90 223l-113 258h-630l-119 -272h-279l709 1532h8l709 -1532h-70q-143 -75 -143 -207q0 -58 36.5 -89.5t92.5 -31.5q37 0 76 13zM500 483h454l-227 523z" />
    <glyph glyph-name="aogonek" unicode="&#x105;" 
d="M1114 -315l45 -131q-52 -25 -127 -25q-124 0 -204 68t-80 194q0 134 100 234l-8 96q-103 -141 -310 -141t-334.5 151t-127.5 385q0 236 127.5 386.5t334.5 150.5q206 0 310 -142l12 121h221v-1032h-20q-144 -75 -144 -207q0 -58 36.5 -89.5t92.5 -31.5q37 0 76 13z
M827 350v332q-46 74 -103 114t-140 40q-120 0 -193.5 -87t-73.5 -233t73 -232.5t194 -86.5q83 0 140 40t103 113z" />
    <glyph glyph-name="Cacute" unicode="&#x106;" horiz-adv-x="1421" 
d="M1239 1862l-309 -240h-254l264 240h299zM831 1532q174 0 304 -55.5t241 -167.5l-162 -185q-158 172 -383 172q-222 0 -360.5 -152.5t-138.5 -391.5q0 -237 139 -390t360 -153q238 0 390 180l159 -188q-206 -228 -549 -228q-162 0 -303.5 59.5t-240.5 163t-156 248
t-57 308.5q0 222 97 400t270 279t390 101z" />
    <glyph glyph-name="cacute" unicode="&#x107;" horiz-adv-x="1048" 
d="M1018 1458l-334 -280h-229l276 280h287zM594 1053q269 0 418 -232l-172 -129q-89 146 -244 146q-131 0 -205 -91t-74 -231t74.5 -230.5t204.5 -90.5q158 0 250 145l168 -127q-68 -110 -174.5 -171.5t-245.5 -61.5q-234 0 -380 151t-146 385q0 235 146 386t380 151z" />
    <glyph glyph-name="Ccircumflex" unicode="&#x108;" horiz-adv-x="1421" 
d="M827 1927l340 -307h-211l-129 113l-131 -113h-209zM831 1532q174 0 304 -55.5t241 -167.5l-162 -185q-158 172 -383 172q-222 0 -360.5 -152.5t-138.5 -391.5q0 -237 139 -390t360 -153q238 0 390 180l159 -188q-206 -228 -549 -228q-162 0 -303.5 59.5t-240.5 163
t-156 248t-57 308.5q0 222 97 400t270 279t390 101z" />
    <glyph glyph-name="ccircumflex" unicode="&#x109;" horiz-adv-x="1048" 
d="M588 1544l327 -366h-204l-123 125l-125 -125h-203zM594 1053q269 0 418 -232l-172 -129q-89 146 -244 146q-131 0 -205 -91t-74 -231t74.5 -230.5t204.5 -90.5q158 0 250 145l168 -127q-68 -110 -174.5 -171.5t-245.5 -61.5q-234 0 -380 151t-146 385q0 235 146 386
t380 151z" />
    <glyph glyph-name="Cdotaccent" unicode="&#x10a;" horiz-adv-x="1421" 
d="M827 1901q60 0 100 -39.5t40 -100.5q0 -60 -40 -98.5t-100 -38.5t-99.5 38.5t-39.5 98.5q0 61 39.5 100.5t99.5 39.5zM831 1532q174 0 304 -55.5t241 -167.5l-162 -185q-158 172 -383 172q-222 0 -360.5 -152.5t-138.5 -391.5q0 -237 139 -390t360 -153q238 0 390 180
l159 -188q-206 -228 -549 -228q-162 0 -303.5 59.5t-240.5 163t-156 248t-57 308.5q0 222 97 400t270 279t390 101z" />
    <glyph glyph-name="cdotaccent" unicode="&#x10b;" horiz-adv-x="1048" 
d="M588 1487q62 0 100.5 -38.5t38.5 -100.5q0 -60 -39 -99t-100 -39q-60 0 -98.5 39t-38.5 99q0 61 38.5 100t98.5 39zM594 1053q269 0 418 -232l-172 -129q-89 146 -244 146q-131 0 -205 -91t-74 -231t74.5 -230.5t204.5 -90.5q158 0 250 145l168 -127
q-68 -110 -174.5 -171.5t-245.5 -61.5q-234 0 -380 151t-146 385q0 235 146 386t380 151z" />
    <glyph glyph-name="Ccaron" unicode="&#x10c;" horiz-adv-x="1421" 
d="M1174 1907l-340 -308l-340 308h208l132 -113l129 113h211zM831 1532q174 0 304 -55.5t241 -167.5l-162 -185q-158 172 -383 172q-222 0 -360.5 -152.5t-138.5 -391.5q0 -237 139 -390t360 -153q238 0 390 180l159 -188q-206 -228 -549 -228q-162 0 -303.5 59.5
t-240.5 163t-156 248t-57 308.5q0 222 97 400t270 279t390 101z" />
    <glyph glyph-name="ccaron" unicode="&#x10d;" horiz-adv-x="1048" 
d="M915 1528l-327 -367l-328 367h203l125 -125l123 125h204zM594 1053q269 0 418 -232l-172 -129q-89 146 -244 146q-131 0 -205 -91t-74 -231t74.5 -230.5t204.5 -90.5q158 0 250 145l168 -127q-68 -110 -174.5 -171.5t-245.5 -61.5q-234 0 -380 151t-146 385
q0 235 146 386t380 151z" />
    <glyph glyph-name="Dcaron" unicode="&#x10e;" horiz-adv-x="1513" 
d="M1034 1886l-340 -307l-340 307h209l131 -112l129 112h211zM625 1505q385 0 600 -197.5t215 -553.5q0 -357 -214 -555.5t-601 -198.5h-465v1505h465zM618 1268h-202v-1032h202q273 0 418.5 135t145.5 383q0 246 -146 380t-418 134z" />
    <glyph glyph-name="dcaron" unicode="&#x10f;" horiz-adv-x="1228" 
d="M1292 1561q67 0 108.5 -41t41.5 -103q0 -65 -49 -114l-156 -175h-8v422q33 11 63 11zM1090 1556v-1556h-224l-10 121q-46 -63 -127 -102t-192 -39q-137 0 -244.5 69.5t-166 191.5t-58.5 275q0 235 130.5 386t338.5 151q203 0 305 -123v626h248zM590 836
q-121 0 -197 -87.5t-76 -232.5t76 -232t197 -87q160 0 252 153v332q-93 154 -252 154z" />
    <glyph glyph-name="Dcroat" unicode="&#x110;" horiz-adv-x="1550" 
d="M662 1505q384 0 599.5 -198t215.5 -553q0 -356 -215 -555t-600 -199h-465v690h-177v168h177v647h465zM653 236q275 0 419.5 135t144.5 383q0 246 -146 380t-418 134h-200v-410h221v-168h-221v-454h200z" />
    <glyph glyph-name="dcroat" unicode="&#x111;" horiz-adv-x="1228" 
d="M1239 1360v-170h-149v-1190h-224l-10 121q-46 -63 -127 -102t-192 -39q-137 0 -244.5 69.5t-166 191.5t-58.5 275q0 235 130.5 386t338.5 151q203 0 305 -123v260h-258v170h258v196h248v-196h149zM842 350v332q-93 154 -252 154q-121 0 -197 -87.5t-76 -232.5t76 -232
t197 -87q160 0 252 153z" />
    <glyph glyph-name="Emacron" unicode="&#x112;" 
d="M928 1800v-170h-545v170h545zM1110 1505v-235h-694v-396h606v-223h-606v-415h710v-236h-966v1505h950z" />
    <glyph glyph-name="emacron" unicode="&#x113;" horiz-adv-x="1112" 
d="M850 1386v-167h-545v167h545zM573 1053q115 0 206.5 -41.5t149 -114t88 -167t30.5 -204.5v-86h-730q8 -122 81 -187t202 -65q88 0 155.5 32t106.5 85l164 -129q-157 -196 -430 -196q-237 0 -382.5 150t-145.5 384q0 235 141 387t364 152zM569 856q-108 0 -177 -66
t-75 -174h486q-5 108 -66.5 174t-167.5 66z" />
    <glyph glyph-name="Ebreve" unicode="&#x114;" 
d="M977 1911q0 -135 -92 -223.5t-230 -88.5q-140 0 -232.5 88.5t-92.5 223.5h172q0 -68 42 -113t111 -45q68 0 109 45t41 113h172zM1110 1505v-235h-694v-396h606v-223h-606v-415h710v-236h-966v1505h950z" />
    <glyph glyph-name="ebreve" unicode="&#x115;" horiz-adv-x="1112" 
d="M899 1495q0 -139 -91.5 -231.5t-229.5 -92.5q-140 0 -233 92.5t-93 231.5h174q0 -68 42.5 -113t109.5 -45q64 0 106.5 45t42.5 113h172zM573 1053q115 0 206.5 -41.5t149 -114t88 -167t30.5 -204.5v-86h-730q8 -122 81 -187t202 -65q88 0 155.5 32t106.5 85l164 -129
q-157 -196 -430 -196q-237 0 -382.5 150t-145.5 384q0 235 141 387t364 152zM569 856q-108 0 -177 -66t-75 -174h486q-5 108 -66.5 174t-167.5 66z" />
    <glyph glyph-name="Edotaccent" unicode="&#x116;" 
d="M655 1880q60 0 100 -39t40 -100q0 -60 -40 -98.5t-100 -38.5t-99.5 38.5t-39.5 98.5q0 61 39.5 100t99.5 39zM1110 1505v-235h-694v-396h606v-223h-606v-415h710v-236h-966v1505h950z" />
    <glyph glyph-name="edotaccent" unicode="&#x117;" horiz-adv-x="1112" 
d="M578 1487q62 0 100.5 -38.5t38.5 -100.5q0 -60 -39 -99t-100 -39q-60 0 -99 39t-39 99q0 61 39 100t99 39zM573 1053q115 0 206.5 -41.5t149 -114t88 -167t30.5 -204.5v-86h-730q8 -122 81 -187t202 -65q88 0 155.5 32t106.5 85l164 -129q-157 -196 -430 -196
q-237 0 -382.5 150t-145.5 384q0 235 141 387t364 152zM569 856q-108 0 -177 -66t-75 -174h486q-5 108 -66.5 174t-167.5 66z" />
    <glyph glyph-name="Eogonek" unicode="&#x118;" 
d="M1018 0q-144 -75 -144 -207q0 -58 36.5 -89.5t93.5 -31.5q36 0 75 13l45 -131q-52 -25 -127 -25q-124 0 -204 68t-80 194q0 118 78 209h-631v1505h950v-235h-694v-396h606v-223h-606v-415h710v-236h-108z" />
    <glyph glyph-name="eogonek" unicode="&#x119;" horiz-adv-x="1112" 
d="M1047 526v-86h-730q8 -122 81 -187t202 -65q88 0 155.5 32t106.5 85l164 -129q-69 -87 -164 -137q-143 -75 -143 -207q0 -58 36.5 -89.5t92.5 -31.5q37 0 76 13l45 -132q-50 -24 -127 -24q-124 0 -204.5 68t-80.5 194q0 81 37 150q-157 1 -277 70t-184.5 189.5
t-64.5 274.5q0 235 141 387t364 152q115 0 206.5 -41.5t149 -114t88 -167t30.5 -204.5zM317 616h486q-5 108 -66.5 174t-167.5 66q-108 0 -177 -66t-75 -174z" />
    <glyph glyph-name="Ecaron" unicode="&#x11a;" 
d="M1001 1886l-339 -307l-340 307h208l132 -112l129 112h210zM1110 1505v-235h-694v-396h606v-223h-606v-415h710v-236h-966v1505h950z" />
    <glyph glyph-name="ecaron" unicode="&#x11b;" horiz-adv-x="1112" 
d="M905 1528l-327 -367l-328 367h203l125 -125l122 125h205zM573 1053q115 0 206.5 -41.5t149 -114t88 -167t30.5 -204.5v-86h-730q8 -122 81 -187t202 -65q88 0 155.5 32t106.5 85l164 -129q-157 -196 -430 -196q-237 0 -382.5 150t-145.5 384q0 235 141 387t364 152z
M569 856q-108 0 -177 -66t-75 -174h486q-5 108 -66.5 174t-167.5 66z" />
    <glyph glyph-name="Gcircumflex" unicode="&#x11c;" horiz-adv-x="1531" 
d="M827 1927l340 -307h-211l-129 113l-131 -113h-209zM831 1532q172 0 303 -55.5t242 -167.5l-162 -185q-158 172 -383 172q-222 0 -360.5 -152.5t-138.5 -391.5q0 -237 146 -390t380 -153q170 0 299 92v295h-356v221h612v-643q-213 -201 -555 -201q-169 0 -315.5 59.5
t-249 163t-161 247.5t-58.5 309q0 222 97 400t270 279t390 101z" />
    <glyph glyph-name="gcircumflex" unicode="&#x11d;" horiz-adv-x="1224" 
d="M592 1544l328 -366h-205l-123 125l-125 -125h-203zM537 1053q111 0 191.5 -39.5t125.5 -102.5l12 121h221v-997q0 -245 -144 -386t-388 -141q-299 0 -489 220l161 159q140 -161 324 -161q133 0 211 83t80 220v86q-104 -125 -305 -125q-208 0 -338.5 150t-130.5 382
t130.5 381.5t338.5 149.5zM590 836q-121 0 -198 -86.5t-77 -227.5t77 -228t198 -87q160 0 252 153v322q-93 154 -252 154z" />
    <glyph glyph-name="Gbreve" unicode="&#x11e;" horiz-adv-x="1531" 
d="M1149 1931q0 -135 -92 -223t-230 -88q-140 0 -232.5 88t-92.5 223h172q0 -68 42 -112.5t111 -44.5q68 0 109 45t41 112h172zM831 1532q172 0 303 -55.5t242 -167.5l-162 -185q-158 172 -383 172q-222 0 -360.5 -152.5t-138.5 -391.5q0 -237 146 -390t380 -153
q170 0 299 92v295h-356v221h612v-643q-213 -201 -555 -201q-169 0 -315.5 59.5t-249 163t-161 247.5t-58.5 309q0 222 97 400t270 279t390 101z" />
    <glyph glyph-name="gbreve" unicode="&#x11f;" horiz-adv-x="1224" 
d="M913 1495q0 -139 -91.5 -231.5t-229.5 -92.5q-140 0 -233 92.5t-93 231.5h174q0 -68 42.5 -113t109.5 -45q64 0 106.5 45t42.5 113h172zM537 1053q111 0 191.5 -39.5t125.5 -102.5l12 121h221v-997q0 -245 -144 -386t-388 -141q-299 0 -489 220l161 159
q140 -161 324 -161q133 0 211 83t80 220v86q-104 -125 -305 -125q-208 0 -338.5 150t-130.5 382t130.5 381.5t338.5 149.5zM590 836q-121 0 -198 -86.5t-77 -227.5t77 -228t198 -87q160 0 252 153v322q-93 154 -252 154z" />
    <glyph glyph-name="Gdotaccent" unicode="&#x120;" horiz-adv-x="1531" 
d="M827 1901q60 0 100 -39.5t40 -100.5q0 -60 -40 -98.5t-100 -38.5t-99.5 38.5t-39.5 98.5q0 61 39.5 100.5t99.5 39.5zM831 1532q172 0 303 -55.5t242 -167.5l-162 -185q-158 172 -383 172q-222 0 -360.5 -152.5t-138.5 -391.5q0 -237 146 -390t380 -153q170 0 299 92v295
h-356v221h612v-643q-213 -201 -555 -201q-169 0 -315.5 59.5t-249 163t-161 247.5t-58.5 309q0 222 97 400t270 279t390 101z" />
    <glyph glyph-name="gdotaccent" unicode="&#x121;" horiz-adv-x="1224" 
d="M592 1487q62 0 100.5 -38.5t38.5 -100.5q0 -60 -39 -99t-100 -39q-60 0 -98.5 39t-38.5 99q0 61 38.5 100t98.5 39zM537 1053q111 0 191.5 -39.5t125.5 -102.5l12 121h221v-997q0 -245 -144 -386t-388 -141q-299 0 -489 220l161 159q140 -161 324 -161q133 0 211 83
t80 220v86q-104 -125 -305 -125q-208 0 -338.5 150t-130.5 382t130.5 381.5t338.5 149.5zM590 836q-121 0 -198 -86.5t-77 -227.5t77 -228t198 -87q160 0 252 153v322q-93 154 -252 154z" />
    <glyph glyph-name="Gcommaaccent" unicode="&#x122;" horiz-adv-x="1531" 
d="M831 1532q172 0 303 -55.5t242 -167.5l-162 -185q-158 172 -383 172q-222 0 -360.5 -152.5t-138.5 -391.5q0 -237 146 -390t380 -153q170 0 299 92v295h-356v221h612v-643q-213 -201 -555 -201q-169 0 -315.5 59.5t-249 163t-161 247.5t-58.5 309q0 222 97 400t270 279
t390 101zM788 -98q65 0 107.5 -33.5t42.5 -87.5q0 -72 -59 -119l-148 -133h-8v362q37 11 65 11z" />
    <glyph glyph-name="gcommaaccent" unicode="&#x123;" horiz-adv-x="1224" 
d="M627 1141q-65 0 -107.5 33.5t-42.5 87.5q0 70 60 118l147 133h8v-362q-33 -10 -65 -10zM537 1053q111 0 191.5 -39.5t125.5 -102.5l12 121h221v-997q0 -245 -144 -386t-388 -141q-299 0 -489 220l161 159q140 -161 324 -161q133 0 211 83t80 220v86q-104 -125 -305 -125
q-208 0 -338.5 150t-130.5 382t130.5 381.5t338.5 149.5zM590 836q-121 0 -198 -86.5t-77 -227.5t77 -228t198 -87q160 0 252 153v322q-93 154 -252 154z" />
    <glyph glyph-name="Hcircumflex" unicode="&#x124;" horiz-adv-x="1517" 
d="M758 1907l340 -308h-211l-129 113l-131 -113h-209zM1358 1505v-1505h-256v653h-686v-653h-256v1505h256v-618h686v618h256z" />
    <glyph glyph-name="hcircumflex" unicode="&#x125;" horiz-adv-x="1198" 
d="M276 1927l342 -307h-210l-132 113l-129 -113h-210zM385 1556v-626q116 123 299 123q185 0 287 -121.5t102 -327.5v-604h-248v590q0 104 -55 166.5t-149 62.5q-139 0 -236 -143v-676h-246v1556h246z" />
    <glyph glyph-name="Hbar" unicode="&#x126;" horiz-adv-x="1568" 
d="M1546 1255v-168h-164v-1087h-256v641h-684v-641h-256v1087h-161v168h161v250h256v-250h684v250h256v-250h164zM1126 864v223h-684v-223h684z" />
    <glyph glyph-name="hbar" unicode="&#x127;" horiz-adv-x="1196" 
d="M684 1053q185 0 287 -121.5t102 -327.5v-604h-248v590q0 104 -55 166.5t-149 62.5q-139 0 -236 -143v-676h-246v1190h-149v170h149v196h246v-196h260v-170h-260v-260q116 123 299 123z" />
    <glyph glyph-name="Itilde" unicode="&#x128;" horiz-adv-x="575" 
d="M166 1905q45 0 81 -15.5t57.5 -38t39.5 -45t38.5 -38t43.5 -15.5q63 0 63 139h146q0 -144 -62.5 -220.5t-160.5 -76.5q-47 0 -81.5 15.5t-54 38t-36 45t-37 38t-45.5 15.5q-70 0 -70 -139h-145q0 149 62.5 223t160.5 74zM416 1505v-1505h-256v1505h256z" />
    <glyph glyph-name="itilde" unicode="&#x129;" horiz-adv-x="544" 
d="M150 1485q45 0 81 -15.5t57.5 -38t40 -45t39 -38t44.5 -15.5q63 0 63 140h146q0 -147 -64 -225.5t-162 -78.5q-47 0 -81 15.5t-54 38t-36 45t-36.5 38t-46.5 15.5q-67 0 -67 -139h-148q0 151 63 227t161 76zM383 1032v-1032h-248v1032h248z" />
    <glyph glyph-name="Imacron" unicode="&#x12a;" horiz-adv-x="575" 
d="M561 1800v-170h-545v170h545zM416 1505v-1505h-256v1505h256z" />
    <glyph glyph-name="imacron" unicode="&#x12b;" horiz-adv-x="544" 
d="M547 1386v-167h-547v167h547zM383 1032v-1032h-248v1032h248z" />
    <glyph glyph-name="Ibreve" unicode="&#x12c;" horiz-adv-x="575" 
d="M610 1911q0 -135 -91.5 -223.5t-229.5 -88.5q-140 0 -233 88.5t-93 223.5h172q0 -68 42.5 -113t111.5 -45q67 0 108 45t41 113h172zM416 1505v-1505h-256v1505h256z" />
    <glyph glyph-name="ibreve" unicode="&#x12d;" horiz-adv-x="544" 
d="M598 1495q0 -139 -93 -231.5t-231 -92.5q-140 0 -232.5 92.5t-92.5 231.5h174q0 -68 42 -113t109 -45q64 0 107 45t43 113h174zM383 1032v-1032h-248v1032h248z" />
    <glyph glyph-name="Iogonek" unicode="&#x12e;" horiz-adv-x="575" 
d="M387 -315l45 -131q-52 -25 -127 -25q-124 0 -204.5 68t-80.5 194q0 162 140 266v1448h256v-1505h-90q-144 -75 -144 -207q0 -58 36.5 -89.5t92.5 -31.5q37 0 76 13z" />
    <glyph glyph-name="iogonek" unicode="&#x12f;" horiz-adv-x="518" 
d="M258 1210q-66 0 -109 43t-43 109t43 110t109 44t110 -44t44 -110t-44 -109t-110 -43zM403 -315l46 -131q-52 -25 -127 -25q-124 0 -204.5 68t-80.5 194q0 134 98 232v1009h248v-1032h-41q-143 -75 -143 -207q0 -58 36.5 -89.5t92.5 -31.5q36 0 75 13z" />
    <glyph glyph-name="Idotaccent" unicode="&#x130;" horiz-adv-x="575" 
d="M289 1880q60 0 99.5 -39t39.5 -100q0 -60 -39.5 -98.5t-99.5 -38.5t-99.5 38.5t-39.5 98.5q0 61 39.5 100t99.5 39zM416 1505v-1505h-256v1505h256z" />
    <glyph glyph-name="dotlessi" unicode="&#x131;" horiz-adv-x="518" 
d="M383 1032v-1032h-248v1032h248z" />
    <glyph glyph-name="IJ" unicode="&#x132;" horiz-adv-x="1652" 
d="M416 1505v-1505h-256v1505h256zM1516 1505v-1067q0 -209 -132.5 -337t-343.5 -128q-97 0 -183.5 33.5t-153.5 96t-106.5 160.5t-39.5 220h250q0 -131 60 -202.5t165 -71.5q106 0 167 65t61 179v1052h256z" />
    <glyph glyph-name="ij" unicode="&#x133;" horiz-adv-x="1028" 
d="M768 1516q66 0 109 -44t43 -110t-43 -109t-109 -43t-109 43t-43 109t43 110t109 44zM258 1516q66 0 110 -44t44 -110t-44 -109t-110 -43t-109 43t-43 109t43 110t109 44zM383 1032v-1032h-248v1032h248zM483 -492q-160 0 -276 89l129 186q67 -57 149 -57q70 0 115 47
t45 127v1132h248v-1122q0 -173 -116 -287.5t-294 -114.5z" />
    <glyph glyph-name="Jcircumflex" unicode="&#x134;" horiz-adv-x="1132" 
d="M860 1907l340 -308h-211l-129 113l-131 -113h-209zM995 1505v-1067q0 -210 -131.5 -337.5t-343.5 -127.5q-96 0 -182.5 33.5t-153.5 96t-106 161t-39 219.5h250q0 -131 59 -202.5t164 -71.5q106 0 166.5 65t60.5 179v1052h256z" />
    <glyph glyph-name="jcircumflex" unicode="&#x135;" horiz-adv-x="530" 
d="M274 1544l328 -366h-205l-123 125l-122 -125h-205zM-14 -492q-161 0 -277 89l129 186q67 -57 150 -57q70 0 114.5 47t44.5 127v1132h248v-1122q0 -173 -115 -287.5t-294 -114.5z" />
    <glyph glyph-name="Kcommaaccent" unicode="&#x136;" horiz-adv-x="1392" 
d="M1305 1505l-457 -731l518 -774h-309l-355 543l-346 -543h-196v1505h256v-1003l598 1003h291zM674 -98q65 0 107 -33.5t42 -87.5q0 -72 -59 -119l-148 -133h-8v362q37 11 66 11z" />
    <glyph glyph-name="kcommaaccent" unicode="&#x137;" horiz-adv-x="1132" 
d="M385 1556v-1136l416 612h280l-315 -444l356 -588h-284l-234 383l-268 -383h-197v1556h246zM559 -98q65 0 107.5 -33.5t42.5 -87.5q0 -71 -60 -119l-147 -133h-8v362q37 11 65 11z" />
    <glyph glyph-name="Lacute" unicode="&#x139;" horiz-adv-x="1124" 
d="M707 1841l-310 -239h-254l265 239h299zM416 1505v-1278h682v-227h-938v1505h256z" />
    <glyph glyph-name="lacute" unicode="&#x13a;" horiz-adv-x="528" 
d="M698 1874l-311 -240h-252l264 240h299zM385 1556v-1556h-246v1556h246z" />
    <glyph glyph-name="Lcommaaccent" unicode="&#x13b;" horiz-adv-x="1124" 
d="M416 1505v-1278h682v-227h-938v1505h256zM590 -98q65 0 107 -33.5t42 -87.5q0 -72 -59 -119l-148 -133h-8v362q37 11 66 11z" />
    <glyph glyph-name="lcommaaccent" unicode="&#x13c;" horiz-adv-x="524" 
d="M385 1556v-1556h-246v1556h246zM221 -98q65 0 107.5 -33.5t42.5 -87.5q0 -71 -60 -119l-147 -133h-8v362q37 11 65 11z" />
    <glyph glyph-name="Lcaron" unicode="&#x13d;" horiz-adv-x="1124" 
d="M659 1520q66 0 108 -41t42 -103q0 -65 -49 -114l-158 -175h-8v422q37 11 65 11zM416 1505v-1278h682v-227h-938v1505h256z" />
    <glyph glyph-name="lcaron" unicode="&#x13e;" horiz-adv-x="524" 
d="M588 1561q65 0 107 -41t42 -103q0 -65 -49 -114l-156 -175h-8v422q33 11 64 11zM385 1556v-1556h-246v1556h246z" />
    <glyph glyph-name="Ldot" unicode="&#x13f;" horiz-adv-x="1124" 
d="M416 1505v-1278h682v-227h-938v1505h256zM791 868q69 0 113 -44t44 -113q0 -67 -44.5 -111.5t-112.5 -44.5q-67 0 -111.5 45t-44.5 111q0 69 44 113t112 44z" />
    <glyph glyph-name="ldot" unicode="&#x140;" horiz-adv-x="942" 
d="M385 1556v-1556h-246v1556h246zM739 682q68 0 113 -44.5t45 -113.5q0 -66 -45.5 -110.5t-112.5 -44.5t-112 44.5t-45 110.5q0 69 44.5 113.5t112.5 44.5z" />
    <glyph glyph-name="Lslash" unicode="&#x141;" horiz-adv-x="1181" 
d="M473 227h682v-227h-938v498l-156 -70l-69 182l225 101v794h256v-680l197 88l67 -180l-264 -119v-387z" />
    <glyph glyph-name="lslash" unicode="&#x142;" horiz-adv-x="598" 
d="M633 768l-215 -100v-668h-248v553l-141 -64l-64 156l205 92v819h248v-704l151 70z" />
    <glyph glyph-name="Nacute" unicode="&#x143;" horiz-adv-x="1501" 
d="M1153 1841l-309 -239h-254l264 239h299zM168 1532l917 -959v932h256v-1532h-8l-917 961v-934h-256v1532h8z" />
    <glyph glyph-name="nacute" unicode="&#x144;" horiz-adv-x="1193" 
d="M1032 1458l-334 -280h-229l276 280h287zM680 1053q185 0 287 -121.5t102 -327.5v-604h-246v590q0 103 -56 166t-151 63q-140 0 -233 -143v-676h-248v1032h223l11 -119q45 61 125 100.5t186 39.5z" />
    <glyph glyph-name="Ncommaaccent" unicode="&#x145;" horiz-adv-x="1501" 
d="M168 1532l917 -959v932h256v-1532h-8l-917 961v-934h-256v1532h8zM780 -98q65 0 107.5 -33.5t42.5 -87.5q0 -71 -60 -119l-147 -133h-8v362q37 11 65 11z" />
    <glyph glyph-name="ncommaaccent" unicode="&#x146;" horiz-adv-x="1193" 
d="M680 1053q185 0 287 -121.5t102 -327.5v-604h-246v590q0 103 -56 166t-151 63q-140 0 -233 -143v-676h-248v1032h223l11 -119q45 61 125 100.5t186 39.5zM590 -98q65 0 107 -33.5t42 -87.5q0 -72 -59 -119l-148 -133h-8v362q37 11 66 11z" />
    <glyph glyph-name="Ncaron" unicode="&#x147;" horiz-adv-x="1501" 
d="M1085 1886l-340 -307l-339 307h208l131 -112l129 112h211zM168 1532l917 -959v932h256v-1532h-8l-917 961v-934h-256v1532h8z" />
    <glyph glyph-name="ncaron" unicode="&#x148;" horiz-adv-x="1193" 
d="M930 1528l-328 -367l-328 367h203l125 -125l123 125h205zM680 1053q185 0 287 -121.5t102 -327.5v-604h-246v590q0 103 -56 166t-151 63q-140 0 -233 -143v-676h-248v1032h223l11 -119q45 61 125 100.5t186 39.5z" />
    <glyph glyph-name="Eng" unicode="&#x14a;" horiz-adv-x="1501" 
d="M1085 1505h256v-1532q-1 -210 -133 -337.5t-348 -127.5v248q105 0 165 61.5t60 174.5v241l-669 701v-934h-256v1532h8l917 -959v932z" />
    <glyph glyph-name="eng" unicode="&#x14b;" horiz-adv-x="1193" 
d="M680 1053q185 0 287 -121.5t102 -327.5v-694q0 -172 -118 -287t-296 -115v224q75 0 121.5 42.5t46.5 116.5v699q0 103 -56 166t-151 63q-140 0 -233 -143v-676h-248v1032h223l11 -119q45 61 125 100.5t186 39.5z" />
    <glyph glyph-name="Omacron" unicode="&#x14c;" horiz-adv-x="1677" 
d="M1110 1821v-170h-545v170h545zM838 1532q162 0 304 -59t243.5 -162t160 -248t58.5 -311t-58.5 -311.5t-160 -248t-243.5 -161t-304 -58.5q-163 0 -305 58.5t-242.5 161t-158.5 247.5t-58 312q0 166 58 311t158.5 248t242.5 162t305 59zM838 1296q-221 0 -363.5 -153
t-142.5 -391q0 -237 142.5 -390t363.5 -153q222 0 363.5 153t141.5 390q0 238 -141.5 391t-363.5 153z" />
    <glyph glyph-name="omacron" unicode="&#x14d;" 
d="M877 1386v-167h-545v167h545zM602 1053q233 0 386 -153t153 -386q0 -232 -153 -383t-386 -151q-232 0 -383 151t-151 383q0 233 151 386t383 153zM602 836q-124 0 -204.5 -91t-80.5 -231q0 -138 80.5 -227.5t204.5 -89.5q126 0 207.5 89.5t81.5 227.5q0 140 -81.5 231
t-207.5 91z" />
    <glyph glyph-name="Obreve" unicode="&#x14e;" horiz-adv-x="1677" 
d="M1161 1931q0 -135 -91.5 -223t-229.5 -88q-140 0 -233 88t-93 223h172q0 -67 42.5 -112t111.5 -45q68 0 108.5 44.5t40.5 112.5h172zM838 1532q162 0 304 -59t243.5 -162t160 -248t58.5 -311t-58.5 -311.5t-160 -248t-243.5 -161t-304 -58.5q-163 0 -305 58.5t-242.5 161
t-158.5 247.5t-58 312q0 166 58 311t158.5 248t242.5 162t305 59zM838 1296q-221 0 -363.5 -153t-142.5 -391q0 -237 142.5 -390t363.5 -153q222 0 363.5 153t141.5 390q0 238 -141.5 391t-363.5 153z" />
    <glyph glyph-name="obreve" unicode="&#x14f;" 
d="M926 1495q0 -139 -92 -231.5t-230 -92.5q-140 0 -232.5 92.5t-92.5 231.5h174q0 -68 42 -113t109 -45q64 0 107 45t43 113h172zM602 1053q233 0 386 -153t153 -386q0 -232 -153 -383t-386 -151q-232 0 -383 151t-151 383q0 233 151 386t383 153zM602 836
q-124 0 -204.5 -91t-80.5 -231q0 -138 80.5 -227.5t204.5 -89.5q126 0 207.5 89.5t81.5 227.5q0 140 -81.5 231t-207.5 91z" />
    <glyph glyph-name="Ohungarumlaut" unicode="&#x150;" horiz-adv-x="1677" 
d="M950 1872l-202 -248h-191l182 248h211zM1307 1872l-203 -248h-193l185 248h211zM838 1532q162 0 304 -59t243.5 -162t160 -248t58.5 -311t-58.5 -311.5t-160 -248t-243.5 -161t-304 -58.5q-163 0 -305 58.5t-242.5 161t-158.5 247.5t-58 312q0 166 58 311t158.5 248
t242.5 162t305 59zM838 1296q-221 0 -363.5 -153t-142.5 -391q0 -237 142.5 -390t363.5 -153q222 0 363.5 153t141.5 390q0 238 -141.5 391t-363.5 153z" />
    <glyph glyph-name="ohungarumlaut" unicode="&#x151;" 
d="M717 1470l-215 -301h-197l201 301h211zM1081 1470l-215 -301h-196l200 301h211zM602 1053q233 0 386 -153t153 -386q0 -232 -153 -383t-386 -151q-232 0 -383 151t-151 383q0 233 151 386t383 153zM602 836q-124 0 -204.5 -91t-80.5 -231q0 -138 80.5 -227.5t204.5 -89.5
q126 0 207.5 89.5t81.5 227.5q0 140 -81.5 231t-207.5 91z" />
    <glyph glyph-name="OE" unicode="&#x152;" horiz-adv-x="2394" 
d="M1602 236h710v-236h-966v188q-96 -102 -226 -158.5t-282 -56.5q-163 0 -305 58.5t-242.5 161t-158.5 247.5t-58 312q0 166 58 311t158.5 248t242.5 162t305 59q152 0 282 -57t226 -160v190h950v-235h-694v-396h608v-223h-608v-415zM838 207q222 0 363.5 154t141.5 391
q0 238 -141.5 391t-363.5 153q-221 0 -363.5 -153t-142.5 -391q0 -237 142.5 -391t363.5 -154z" />
    <glyph glyph-name="oe" unicode="&#x153;" horiz-adv-x="1935" 
d="M1868 526v-86h-729q7 -121 81 -186.5t203 -65.5q87 0 155 32.5t105 84.5l166 -129q-157 -196 -430 -196q-129 0 -233 46t-174 130q-73 -84 -178.5 -130t-231.5 -46q-232 0 -383 151t-151 383q0 233 151 386t383 153q125 0 230 -46t178 -130q68 84 167 130t218 46
q116 0 207.5 -41.5t148.5 -114t87 -167t30 -204.5zM1139 616h485q-3 109 -64 174.5t-169 65.5t-177 -66t-75 -174zM602 197q121 0 201 84t86 215v18v18q-6 133 -86 218.5t-201 85.5q-124 0 -204.5 -91t-80.5 -231q0 -137 80.5 -227t204.5 -90z" />
    <glyph glyph-name="Racute" unicode="&#x154;" horiz-adv-x="1325" 
d="M1055 1841l-310 -239h-253l264 239h299zM1303 0h-299l-336 553h-254v-553h-256v1505h540q150 0 269 -54t191.5 -164t72.5 -259q0 -156 -78.5 -266.5t-212.5 -165.5zM414 1282v-506h262q137 0 216 65t79 187q0 121 -80 187.5t-215 66.5h-262z" />
    <glyph glyph-name="racute" unicode="&#x155;" horiz-adv-x="702" 
d="M866 1458l-334 -280h-229l277 280h286zM674 1053v-246h-23q-159 0 -268 -156v-651h-248v1032h221l15 -137q42 68 120 113t183 45z" />
    <glyph glyph-name="Rcommaaccent" unicode="&#x156;" horiz-adv-x="1325" 
d="M940 596l363 -596h-299l-336 553h-254v-553h-256v1505h540q150 0 269 -54t191.5 -164t72.5 -259q0 -156 -78.5 -266.5t-212.5 -165.5zM414 1282v-506h262q137 0 216 65t79 187q0 121 -80 187.5t-215 66.5h-262zM657 -98q65 0 107.5 -33.5t42.5 -87.5q0 -72 -59 -119
l-148 -133h-8v362q37 11 65 11z" />
    <glyph glyph-name="rcommaaccent" unicode="&#x157;" horiz-adv-x="702" 
d="M674 1053v-246h-23q-159 0 -268 -156v-651h-248v1032h221l15 -137q42 68 120 113t183 45zM225 -98q65 0 107.5 -33.5t42.5 -87.5q0 -71 -60 -119l-147 -133h-8v362q37 11 65 11z" />
    <glyph glyph-name="Rcaron" unicode="&#x158;" horiz-adv-x="1325" 
d="M987 1886l-340 -307l-340 307h209l131 -112l129 112h211zM1303 0h-299l-336 553h-254v-553h-256v1505h540q150 0 269 -54t191.5 -164t72.5 -259q0 -156 -78.5 -266.5t-212.5 -165.5zM414 1282v-506h262q137 0 216 65t79 187q0 121 -80 187.5t-215 66.5h-262z" />
    <glyph glyph-name="rcaron" unicode="&#x159;" horiz-adv-x="702" 
d="M764 1528l-328 -367l-327 367h202l125 -125l123 125h205zM674 1053v-246h-23q-159 0 -268 -156v-651h-248v1032h221l15 -137q42 68 120 113t183 45z" />
    <glyph glyph-name="Sacute" unicode="&#x15a;" horiz-adv-x="1230" 
d="M1024 1862l-309 -240h-254l264 240h299zM614 1532q150 0 283.5 -44t235.5 -118l-123 -215q-186 145 -398 145q-118 0 -190 -52t-72 -152q0 -86 64 -132.5t241 -82.5q280 -61 394 -161.5t114 -275.5q0 -213 -149.5 -342t-403.5 -129q-340 0 -565 197l141 211
q77 -80 194.5 -128t237.5 -48q133 0 211 56t78 159q0 86 -73 137.5t-252 87.5q-186 40 -294 101t-151 140t-43 195q0 201 144 326t376 125z" />
    <glyph glyph-name="sacute" unicode="&#x15b;" horiz-adv-x="944" 
d="M913 1458l-333 -280h-230l277 280h286zM502 1053q102 0 198.5 -29t161.5 -76l-96 -182q-126 86 -270 86q-158 0 -158 -102q0 -49 40.5 -73t156.5 -52q176 -43 259 -119t83 -193q0 -151 -117 -242t-314 -91q-118 0 -221.5 30.5t-173.5 87.5l103 187q127 -105 295 -105
q84 0 132 27.5t48 81.5q0 53 -42 81.5t-151 55.5q-183 42 -264.5 112t-81.5 189q0 151 110 238.5t302 87.5z" />
    <glyph glyph-name="Scircumflex" unicode="&#x15c;" horiz-adv-x="1230" 
d="M610 1927l340 -307h-211l-129 113l-131 -113h-209zM614 1532q150 0 283.5 -44t235.5 -118l-123 -215q-186 145 -398 145q-118 0 -190 -52t-72 -152q0 -86 64 -132.5t241 -82.5q280 -61 394 -161.5t114 -275.5q0 -213 -149.5 -342t-403.5 -129q-340 0 -565 197l141 211
q77 -80 194.5 -128t237.5 -48q133 0 211 56t78 159q0 86 -73 137.5t-252 87.5q-186 40 -294 101t-151 140t-43 195q0 201 144 326t376 125z" />
    <glyph glyph-name="scircumflex" unicode="&#x15d;" horiz-adv-x="944" 
d="M483 1544l328 -366h-205l-123 125l-125 -125h-202zM502 1053q102 0 198.5 -29t161.5 -76l-96 -182q-126 86 -270 86q-158 0 -158 -102q0 -49 40.5 -73t156.5 -52q176 -43 259 -119t83 -193q0 -151 -117 -242t-314 -91q-118 0 -221.5 30.5t-173.5 87.5l103 187
q127 -105 295 -105q84 0 132 27.5t48 81.5q0 53 -42 81.5t-151 55.5q-183 42 -264.5 112t-81.5 189q0 151 110 238.5t302 87.5z" />
    <glyph glyph-name="Scedilla" unicode="&#x15e;" horiz-adv-x="1230" 
d="M1163 444q0 -202 -136 -329.5t-368 -139.5l-18 -69q82 -5 139.5 -49t57.5 -131q0 -89 -66 -143t-162 -54q-127 0 -207 80l82 100q51 -55 115 -55q40 0 62 18t22 52q0 69 -92 75q-49 3 -98 -12l-7 8l45 180q-292 21 -487 195l141 211q77 -80 194.5 -128t237.5 -48
q133 0 211 56t78 159q0 86 -73 137.5t-252 87.5q-186 40 -294 101t-151 140t-43 195q0 201 144 326t376 125q150 0 283.5 -44t235.5 -118l-123 -215q-186 145 -398 145q-118 0 -190 -52t-72 -152q0 -86 64 -132.5t241 -82.5q280 -61 394 -161.5t114 -275.5z" />
    <glyph glyph-name="scedilla" unicode="&#x15f;" horiz-adv-x="944" 
d="M877 313q0 -136 -94.5 -224t-260.5 -105l-20 -78q82 -5 139 -49t57 -131q0 -89 -65.5 -143t-161.5 -54q-127 0 -207 80l82 100q51 -55 115 -55q40 0 62 18t22 52q0 69 -92 75q-50 3 -99 -12l-6 8l47 187q-216 13 -344 116l103 187q127 -105 295 -105q84 0 132 27.5
t48 81.5q0 53 -42 81.5t-151 55.5q-183 42 -264.5 112t-81.5 189q0 151 110 238.5t302 87.5q102 0 198.5 -29t161.5 -76l-96 -182q-126 86 -270 86q-158 0 -158 -102q0 -49 40.5 -73t156.5 -52q176 -43 259 -119t83 -193z" />
    <glyph glyph-name="Scaron" unicode="&#x160;" horiz-adv-x="1230" 
d="M956 1907l-340 -308l-340 308h209l131 -113l129 113h211zM614 1532q150 0 283.5 -44t235.5 -118l-123 -215q-186 145 -398 145q-118 0 -190 -52t-72 -152q0 -86 64 -132.5t241 -82.5q280 -61 394 -161.5t114 -275.5q0 -213 -149.5 -342t-403.5 -129q-340 0 -565 197
l141 211q77 -80 194.5 -128t237.5 -48q133 0 211 56t78 159q0 86 -73 137.5t-252 87.5q-186 40 -294 101t-151 140t-43 195q0 201 144 326t376 125z" />
    <glyph glyph-name="scaron" unicode="&#x161;" horiz-adv-x="944" 
d="M811 1528l-328 -367l-327 367h202l125 -125l123 125h205zM502 1053q102 0 198.5 -29t161.5 -76l-96 -182q-126 86 -270 86q-158 0 -158 -102q0 -49 40.5 -73t156.5 -52q176 -43 259 -119t83 -193q0 -151 -117 -242t-314 -91q-118 0 -221.5 30.5t-173.5 87.5l103 187
q127 -105 295 -105q84 0 132 27.5t48 81.5q0 53 -42 81.5t-151 55.5q-183 42 -264.5 112t-81.5 189q0 151 110 238.5t302 87.5z" />
    <glyph glyph-name="Tcedilla" unicode="&#x162;" horiz-adv-x="1327" 
d="M791 0h-70l-25 -94q82 -5 139.5 -49t57.5 -131q0 -89 -65.5 -143t-161.5 -54q-127 0 -207 80l82 100q51 -55 114 -55q40 0 62 18t22 52q0 69 -92 75q-49 3 -98 -12l-6 8l51 205h-59v1278h-508v227h1273v-227h-509v-1278z" />
    <glyph glyph-name="tcedilla" unicode="&#x163;" horiz-adv-x="839" 
d="M520 -94q82 -5 139.5 -49t57.5 -131q0 -89 -66 -143t-162 -54q-126 0 -206 80l82 100q51 -55 114 -55q40 0 62 18t22 52q0 69 -92 75q-49 3 -98 -12l-6 8l55 217q-98 42 -151.5 131.5t-53.5 221.5v458h-194v209h194v346h248v-346h311v-209h-311v-458q0 -75 43 -118.5
t113 -43.5q73 0 145 35l65 -199q-91 -59 -229 -59q-21 0 -61 4z" />
    <glyph glyph-name="Tcaron" unicode="&#x164;" horiz-adv-x="1327" 
d="M1010 1886l-340 -307l-340 307h209l131 -112l129 112h211zM1300 1505v-227h-509v-1278h-256v1278h-508v227h1273z" />
    <glyph glyph-name="tcaron" unicode="&#x165;" horiz-adv-x="839" 
d="M666 1561q67 0 108 -41t41 -103q0 -65 -49 -114l-156 -175h-8v422q37 11 64 11zM465 1378v-346h311v-209h-311v-458q0 -75 43 -118.5t113 -43.5q73 0 145 35l65 -199q-91 -59 -229 -59q-180 0 -282.5 100t-102.5 285v458h-194v209h194v346h248z" />
    <glyph glyph-name="Tbar" unicode="&#x166;" horiz-adv-x="1327" 
d="M1300 1278h-509v-477h296v-168h-296v-633h-256v633h-295v168h295v477h-508v227h1273v-227z" />
    <glyph glyph-name="tbar" unicode="&#x167;" horiz-adv-x="839" 
d="M766 238l65 -199q-91 -59 -229 -59q-180 0 -282.5 100t-102.5 285v141h-194v166h194v192h-194v168h194v346h248v-346h311v-168h-311v-192h311v-166h-311v-141q0 -75 43 -118.5t113 -43.5q73 0 145 35z" />
    <glyph glyph-name="Utilde" unicode="&#x168;" horiz-adv-x="1454" 
d="M606 1905q45 0 81 -15.5t57.5 -38t39.5 -45t38.5 -38t43.5 -15.5q64 0 64 139h145q0 -144 -62.5 -220.5t-160.5 -76.5q-47 0 -81.5 15.5t-54 38t-36 45t-37 38t-45.5 15.5q-70 0 -70 -139h-145q0 149 62.5 223t160.5 74zM1315 1505v-970q0 -258 -153.5 -410t-434.5 -152
t-434.5 152t-153.5 410v970h256v-954q0 -157 87 -249.5t245 -92.5t245 92.5t87 249.5v954h256z" />
    <glyph glyph-name="utilde" unicode="&#x169;" horiz-adv-x="1179" 
d="M471 1485q45 0 81 -15.5t57.5 -38t39.5 -45t38.5 -38t43.5 -15.5q64 0 64 140h145q0 -147 -63 -225.5t-160 -78.5q-47 0 -81.5 15.5t-54 38t-36 45t-37 38t-45.5 15.5q-70 0 -70 -139h-145q0 151 62.5 227t160.5 76zM1044 1032v-1032h-221l-12 119q-104 -139 -315 -139
q-177 0 -274 120t-97 326v606h248v-594q0 -101 50 -163t138 -62q80 0 135.5 38t102.5 105v676h245z" />
    <glyph glyph-name="Umacron" unicode="&#x16a;" horiz-adv-x="1454" 
d="M1001 1800v-170h-544v170h544zM1315 1505v-970q0 -258 -153.5 -410t-434.5 -152t-434.5 152t-153.5 410v970h256v-954q0 -157 87 -249.5t245 -92.5t245 92.5t87 249.5v954h256z" />
    <glyph glyph-name="umacron" unicode="&#x16b;" horiz-adv-x="1179" 
d="M864 1386v-167h-545v167h545zM1044 1032v-1032h-221l-12 119q-104 -139 -315 -139q-177 0 -274 120t-97 326v606h248v-594q0 -101 50 -163t138 -62q80 0 135.5 38t102.5 105v676h245z" />
    <glyph glyph-name="Ubreve" unicode="&#x16c;" horiz-adv-x="1454" 
d="M1051 1911q0 -135 -92 -223.5t-230 -88.5q-140 0 -233 88.5t-93 223.5h172q0 -68 42.5 -113t111.5 -45q68 0 109 45t41 113h172zM1315 1505v-970q0 -258 -153.5 -410t-434.5 -152t-434.5 152t-153.5 410v970h256v-954q0 -157 87 -249.5t245 -92.5t245 92.5t87 249.5v954
h256z" />
    <glyph glyph-name="ubreve" unicode="&#x16d;" horiz-adv-x="1179" 
d="M915 1495q0 -139 -91.5 -231.5t-229.5 -92.5q-140 0 -233 92.5t-93 231.5h174q0 -68 42.5 -113t109.5 -45q64 0 106.5 45t42.5 113h172zM1044 1032v-1032h-221l-12 119q-104 -139 -315 -139q-177 0 -274 120t-97 326v606h248v-594q0 -101 50 -163t138 -62q80 0 135.5 38
t102.5 105v676h245z" />
    <glyph glyph-name="Uring" unicode="&#x16e;" horiz-adv-x="1454" 
d="M729 2062q101 0 168.5 -66.5t67.5 -166.5q0 -101 -67.5 -167.5t-168.5 -66.5t-168 66.5t-67 167.5q0 100 67 166.5t168 66.5zM729 1929q-40 0 -68 -29t-28 -71t28 -70t68 -28q42 0 70 28t28 70q0 43 -28.5 71.5t-69.5 28.5zM1315 1505v-970q0 -258 -153.5 -410
t-434.5 -152t-434.5 152t-153.5 410v970h256v-954q0 -157 87 -249.5t245 -92.5t245 92.5t87 249.5v954h256z" />
    <glyph glyph-name="uring" unicode="&#x16f;" horiz-adv-x="1179" 
d="M594 1632q101 0 168 -67t67 -168q0 -100 -67 -165t-168 -65q-102 0 -169 65.5t-67 164.5q0 101 67.5 168t168.5 67zM594 1499q-40 0 -68 -29.5t-28 -72.5q0 -41 28 -69t68 -28q41 0 69.5 28t28.5 69q0 43 -28.5 72.5t-69.5 29.5zM1044 1032v-1032h-221l-12 119
q-104 -139 -315 -139q-177 0 -274 120t-97 326v606h248v-594q0 -101 50 -163t138 -62q80 0 135.5 38t102.5 105v676h245z" />
    <glyph glyph-name="Uhungarumlaut" unicode="&#x170;" horiz-adv-x="1454" 
d="M840 1851l-203 -247h-191l183 247h211zM1196 1851l-203 -247h-192l184 247h211zM1315 1505v-970q0 -258 -153.5 -410t-434.5 -152t-434.5 152t-153.5 410v970h256v-954q0 -157 87 -249.5t245 -92.5t245 92.5t87 249.5v954h256z" />
    <glyph glyph-name="uhungarumlaut" unicode="&#x171;" horiz-adv-x="1179" 
d="M707 1470l-215 -301h-197l201 301h211zM1071 1470l-215 -301h-197l201 301h211zM1044 1032v-1032h-221l-12 119q-104 -139 -315 -139q-177 0 -274 120t-97 326v606h248v-594q0 -101 50 -163t138 -62q80 0 135.5 38t102.5 105v676h245z" />
    <glyph glyph-name="Uogonek" unicode="&#x172;" horiz-adv-x="1454" 
d="M1059 1505h256v-970q0 -208 -101.5 -349t-291.5 -190q-105 -72 -105 -184q0 -58 36.5 -89.5t92.5 -31.5q40 0 76 12l45 -131q-52 -25 -127 -25q-124 0 -204.5 68.5t-80.5 194.5q0 90 45 163q-269 7 -415 158.5t-146 403.5v970h256v-954q0 -157 87 -249.5t245 -92.5
t245 92.5t87 249.5v954z" />
    <glyph glyph-name="uogonek" unicode="&#x173;" horiz-adv-x="1179" 
d="M1073 -315l45 -131q-52 -25 -127 -25q-124 0 -204 68t-80 194q0 147 112 244l-8 84q-104 -139 -315 -139q-177 0 -274 120t-97 326v606h248v-594q0 -101 50 -163t138 -62q80 0 135.5 38t102.5 105v676h245v-1032h-32q-144 -75 -144 -207q0 -58 36.5 -89.5t92.5 -31.5
q37 0 76 13z" />
    <glyph glyph-name="Wcircumflex" unicode="&#x174;" horiz-adv-x="1978" 
d="M989 1907l340 -308h-211l-129 113l-131 -113h-209zM1950 1505l-592 -1528h-8l-361 910l-360 -910h-8l-594 1528h284l324 -901l350 901h8l350 -901l324 901h283z" />
    <glyph glyph-name="wcircumflex" unicode="&#x175;" horiz-adv-x="1558" 
d="M780 1544l328 -366h-205l-123 125l-125 -125h-202zM1548 1032l-475 -1052h-8l-285 565l-286 -565h-9l-475 1052h264l234 -569l268 569h8l267 -569l235 569h262z" />
    <glyph glyph-name="Ycircumflex" unicode="&#x176;" horiz-adv-x="1386" 
d="M694 1907l340 -308h-211l-129 113l-131 -113h-209zM1374 1503l-553 -876v-627h-256v623l-553 880h297l383 -622l383 622h299z" />
    <glyph glyph-name="ycircumflex" unicode="&#x177;" horiz-adv-x="1124" 
d="M541 1544l327 -366h-204l-123 125l-125 -125h-203zM1114 1032l-776 -1503h-283l373 682l-418 821h264l285 -600l291 600h264z" />
    <glyph glyph-name="Ydieresis" unicode="&#x178;" horiz-adv-x="1386" 
d="M508 1851q56 0 91.5 -35.5t35.5 -91.5q0 -54 -36 -89.5t-91 -35.5q-54 0 -89.5 35.5t-35.5 89.5q0 55 35.5 91t89.5 36zM877 1851q55 0 91 -35.5t36 -91.5q0 -54 -36 -89.5t-91 -35.5q-54 0 -89.5 35.5t-35.5 89.5q0 55 35.5 91t89.5 36zM1374 1503l-553 -876v-627h-256
v623l-553 880h297l383 -622l383 622h299z" />
    <glyph glyph-name="Zacute" unicode="&#x179;" horiz-adv-x="1200" 
d="M1010 1841l-310 -239h-254l265 239h299zM1126 1505v-8l-682 -1270h705v-227h-1104v8l688 1270h-655v227h1048z" />
    <glyph glyph-name="zacute" unicode="&#x17a;" horiz-adv-x="952" 
d="M903 1458l-334 -280h-229l276 280h287zM903 1032v-8l-485 -815h483v-209h-856v8l485 815h-454v209h827z" />
    <glyph glyph-name="Zdotaccent" unicode="&#x17b;" horiz-adv-x="1200" 
d="M598 1880q60 0 99.5 -39t39.5 -100q0 -60 -39.5 -98.5t-99.5 -38.5t-99.5 38.5t-39.5 98.5q0 61 39.5 100t99.5 39zM1126 1505v-8l-682 -1270h705v-227h-1104v8l688 1270h-655v227h1048z" />
    <glyph glyph-name="zdotaccent" unicode="&#x17c;" horiz-adv-x="952" 
d="M475 1487q61 0 100 -38.5t39 -100.5q0 -60 -39 -99t-100 -39q-60 0 -98.5 39t-38.5 99q0 61 38.5 100t98.5 39zM903 1032v-8l-485 -815h483v-209h-856v8l485 815h-454v209h827z" />
    <glyph glyph-name="Zcaron" unicode="&#x17d;" horiz-adv-x="1200" 
d="M944 1886l-340 -307l-340 307h209l131 -112l129 112h211zM1126 1505v-8l-682 -1270h705v-227h-1104v8l688 1270h-655v227h1048z" />
    <glyph glyph-name="zcaron" unicode="&#x17e;" horiz-adv-x="952" 
d="M803 1528l-328 -367l-328 367h203l125 -125l123 125h205zM903 1032v-8l-485 -815h483v-209h-856v8l485 815h-454v209h827z" />
    <glyph glyph-name="florin" unicode="&#x192;" horiz-adv-x="888" 
d="M690 1548q140 0 234 -71l-93 -197q-51 51 -126 51q-67 0 -106 -46t-48 -130l-14 -123h231l-23 -209h-231l-104 -960q-19 -159 -122 -257t-263 -98q-144 0 -234 68l92 199q49 -49 127 -49q135 0 154 174l100 923h-151l22 209h154l16 160q19 159 121.5 257.5t263.5 98.5z
" />
    <glyph glyph-name="Aringacute" unicode="&#x1fa;" horiz-adv-x="1454" 
d="M1188 2208l-334 -283h-229l276 283h287zM791 1405l649 -1405h-279l-119 272h-630l-119 -272h-279l650 1405q-77 19 -124.5 79.5t-47.5 143.5q0 100 67.5 168t169.5 68q100 0 167 -68t67 -168q0 -83 -48 -143.5t-124 -79.5zM631 1628q0 -42 28 -69t70 -27q40 0 68 27
t28 69q0 43 -28 72t-68 29q-41 0 -69.5 -29t-28.5 -72zM500 483h454l-227 523z" />
    <glyph glyph-name="aringacute" unicode="&#x1fb;" 
d="M1038 1874l-311 -240h-254l264 240h301zM606 1583q101 0 168.5 -67t67.5 -168q0 -100 -67.5 -166t-168.5 -66t-168 66t-67 166q0 101 67 168t168 67zM606 1448q-40 0 -68 -29t-28 -71q0 -41 28 -69t68 -28q41 0 70 28t29 69q0 42 -28.5 71t-70.5 29zM530 1053
q206 0 310 -142l12 121h221v-1032h-221l-12 121q-103 -141 -310 -141t-334.5 151t-127.5 385q0 236 127.5 386.5t334.5 150.5zM584 836q-120 0 -193.5 -87t-73.5 -233t73 -232.5t194 -86.5q83 0 140 40t103 113v332q-46 74 -103 114t-140 40z" />
    <glyph glyph-name="AEacute" unicode="&#x1fc;" horiz-adv-x="1814" 
d="M1444 1841l-309 -239h-254l264 239h299zM1716 1505v-235h-807l164 -400h555v-215h-465l174 -419h396v-236h-580l-115 281h-624l-113 -281h-287l662 1505h1040zM727 1051l-233 -574h467z" />
    <glyph glyph-name="aeacute" unicode="&#x1fd;" horiz-adv-x="1931" 
d="M1386 1458l-333 -280h-230l277 280h286zM1391 1053q150 0 258.5 -70.5t161.5 -189t53 -271.5v-82h-750q12 -122 88 -188t217 -66q86 0 154.5 33.5t105.5 87.5l164 -131q-154 -196 -424 -196q-121 0 -213.5 38.5t-136.5 100.5l-10 -119h-207l-12 121q-103 -141 -310 -141
t-334.5 151t-127.5 385q0 236 127.5 386.5t334.5 150.5q206 0 310 -142l12 121h209l10 -119q125 140 320 140zM1370 856q-104 0 -175 -61.5t-83 -178.5h508q-5 107 -70.5 173.5t-179.5 66.5zM584 836q-120 0 -193.5 -87t-73.5 -233t73 -232.5t194 -86.5q83 0 140 40t103 113
v332q-46 74 -103 114t-140 40z" />
    <glyph glyph-name="Oslashacute" unicode="&#x1fe;" horiz-adv-x="1677" 
d="M1253 1862l-311 -240h-254l264 240h301zM1298 1386q143 -106 224.5 -271t81.5 -363q0 -166 -58.5 -311.5t-160 -248t-243.5 -161t-304 -58.5q-151 0 -287 52l-105 -189h-223l156 281q-143 104 -224 269.5t-81 365.5q0 166 58 311t158.5 248t242.5 162t305 59
q154 0 290 -53l105 190h221zM332 752q0 -127 44 -234t124 -182l512 932q-82 28 -174 28q-221 0 -363.5 -153t-142.5 -391zM838 209q222 0 363.5 153t141.5 390q0 127 -43 234t-122 181l-512 -931q79 -27 172 -27z" />
    <glyph glyph-name="oslashacute" unicode="&#x1ff;" 
d="M1038 1458l-333 -280h-230l277 280h286zM924 954q101 -72 159 -186.5t58 -253.5q0 -232 -153 -383t-386 -151q-102 0 -190 30l-84 -153h-160l117 219q-101 70 -159 184.5t-58 253.5q0 233 151 386t383 153q96 0 197 -33l84 156h159zM303 514q0 -149 90 -242l303 562
q-46 16 -94 16q-130 0 -214.5 -95.5t-84.5 -240.5zM602 184q130 0 215.5 93.5t85.5 236.5q0 148 -88 242l-303 -559q47 -13 90 -13z" />
    <glyph glyph-name="Scommaaccent" unicode="&#x218;" horiz-adv-x="1230" 
d="M614 1532q150 0 283.5 -44t235.5 -118l-123 -215q-186 145 -398 145q-118 0 -190 -52t-72 -152q0 -86 64 -132.5t241 -82.5q280 -61 394 -161.5t114 -275.5q0 -213 -149.5 -342t-403.5 -129q-340 0 -565 197l141 211q77 -80 194.5 -128t237.5 -48q133 0 211 56t78 159
q0 86 -73 137.5t-252 87.5q-186 40 -294 101t-151 140t-43 195q0 201 144 326t376 125zM602 -98q65 0 107.5 -33.5t42.5 -87.5q0 -71 -60 -119l-147 -133h-8v362q37 11 65 11z" />
    <glyph glyph-name="scommaaccent" unicode="&#x219;" horiz-adv-x="944" 
d="M502 1053q102 0 198.5 -29t161.5 -76l-96 -182q-126 86 -270 86q-158 0 -158 -102q0 -49 40.5 -73t156.5 -52q176 -43 259 -119t83 -193q0 -151 -117 -242t-314 -91q-118 0 -221.5 30.5t-173.5 87.5l103 187q127 -105 295 -105q84 0 132 27.5t48 81.5q0 53 -42 81.5
t-151 55.5q-183 42 -264.5 112t-81.5 189q0 151 110 238.5t302 87.5zM428 -98q65 0 107.5 -33.5t42.5 -87.5q0 -71 -60 -119l-147 -133h-9v362q37 11 66 11z" />
    <glyph glyph-name="Tcommaaccent" unicode="&#x21a;" horiz-adv-x="1327" 
d="M1300 1505v-227h-509v-1278h-256v1278h-508v227h1273zM627 -98q65 0 107 -33.5t42 -87.5q0 -72 -59 -119l-148 -133h-8v362q37 11 66 11z" />
    <glyph glyph-name="tcommaaccent" unicode="&#x21b;" horiz-adv-x="839" 
d="M465 1378v-346h311v-209h-311v-458q0 -75 43 -118.5t113 -43.5q73 0 145 35l65 -199q-91 -59 -229 -59q-180 0 -282.5 100t-102.5 285v458h-194v209h194v346h248zM438 -98q65 0 107.5 -33.5t42.5 -87.5q0 -71 -60 -119l-147 -133h-8v362q37 11 65 11z" />
    <glyph glyph-name="circumflex" unicode="&#x2c6;" horiz-adv-x="733" 
d="M367 1544l327 -366h-205l-122 125l-125 -125h-203z" />
    <glyph glyph-name="caron" unicode="&#x2c7;" horiz-adv-x="733" 
d="M694 1528l-327 -367l-328 367h203l125 -125l122 125h205z" />
    <glyph glyph-name="breve" unicode="&#x2d8;" horiz-adv-x="724" 
d="M686 1495q0 -139 -91.5 -231.5t-229.5 -92.5q-140 0 -233 92.5t-93 231.5h174q0 -68 42.5 -113t109.5 -45q64 0 106.5 45t42.5 113h172z" />
    <glyph glyph-name="dotaccent" unicode="&#x2d9;" horiz-adv-x="380" 
d="M190 1487q62 0 101 -39t39 -100q0 -60 -39.5 -99t-100.5 -39q-60 0 -98.5 39t-38.5 99q0 61 38.5 100t98.5 39z" />
    <glyph glyph-name="ring" unicode="&#x2da;" horiz-adv-x="550" 
d="M274 1632q101 0 168.5 -67t67.5 -168q0 -99 -67 -164.5t-169 -65.5q-101 0 -168 65t-67 165q0 101 67 168t168 67zM274 1499q-40 0 -68 -29.5t-28 -72.5q0 -41 28 -69t68 -28q41 0 70 28t29 69q0 43 -29 72.5t-70 29.5z" />
    <glyph glyph-name="ogonek" unicode="&#x2db;" horiz-adv-x="487" 
d="M227 117l70 -117q-143 -75 -143 -207q0 -58 36.5 -89.5t92.5 -31.5q36 0 75 13l45 -131q-52 -25 -127 -25q-124 0 -204 68t-80 194q0 211 235 326z" />
    <glyph glyph-name="tilde" unicode="&#x2dc;" horiz-adv-x="772" 
d="M262 1485q45 0 81 -15.5t57.5 -38t39.5 -45t38.5 -38t43.5 -15.5q64 0 64 140h145q0 -147 -63 -225.5t-160 -78.5q-47 0 -81.5 15.5t-54 38t-36 45t-37 38t-45.5 15.5q-70 0 -70 -139h-145q0 151 62.5 227t160.5 76z" />
    <glyph glyph-name="hungarumlaut" unicode="&#x2dd;" horiz-adv-x="831" 
d="M506 1470l-215 -301h-197l201 301h211zM870 1470l-215 -301h-196l200 301h211z" />
    <glyph glyph-name="uni03A9" unicode="&#x3a9;" horiz-adv-x="1757" 
d="M885 1534q203 0 361 -91.5t243.5 -251.5t85.5 -360q0 -101 -21 -191t-59 -160.5t-71.5 -116.5t-77.5 -95h337v-268h-696v256q307 241 307 565q0 201 -109 323t-300 122q-190 0 -301 -122.5t-111 -322.5q0 -322 309 -565v-256h-696v268h338q-44 48 -77.5 95t-71 117
t-58 160t-20.5 191q0 150 50 279.5t139 223t218 147t281 53.5z" />
    <glyph glyph-name="pi" unicode="&#x3c0;" horiz-adv-x="1495" 
d="M1282 1180l191 -113q-20 -61 -46 -105.5t-67 -83t-102.5 -58t-141.5 -19.5h-22l-60 -453q-8 -67 7.5 -96t60.5 -29q66 0 121 45l86 -174q-68 -54 -139 -80t-166 -26q-71 0 -117 23.5t-64.5 63.5t-24 94.5t4.5 115.5l67 516h-204l-64 -477q-27 -190 -90 -324h-250
q99 205 119 362l61 439h-45q-79 0 -136.5 -33t-106.5 -92l-115 172q48 48 83 76t85 54t112.5 37t145.5 11h526q71 0 119 8.5t80.5 30t51.5 47t40 68.5z" />
    <glyph glyph-name="Wgrave" unicode="&#x1e80;" horiz-adv-x="1978" 
d="M852 1841l264 -239h-254l-311 239h301zM1950 1505l-592 -1528h-8l-361 910l-360 -910h-8l-594 1528h284l324 -901l350 901h8l350 -901l324 901h283z" />
    <glyph glyph-name="wgrave" unicode="&#x1e81;" horiz-adv-x="1558" 
d="M627 1458l278 -280h-229l-336 280h287zM1548 1032l-475 -1052h-8l-285 565l-286 -565h-9l-475 1052h264l234 -569l268 569h8l267 -569l235 569h262z" />
    <glyph glyph-name="Wacute" unicode="&#x1e82;" horiz-adv-x="1978" 
d="M1403 1841l-309 -239h-254l264 239h299zM1950 1505l-592 -1528h-8l-361 910l-360 -910h-8l-594 1528h284l324 -901l350 901h8l350 -901l324 901h283z" />
    <glyph glyph-name="wacute" unicode="&#x1e83;" horiz-adv-x="1558" 
d="M1208 1458l-334 -280h-229l277 280h286zM1548 1032l-475 -1052h-8l-285 565l-286 -565h-9l-475 1052h264l234 -569l268 569h8l267 -569l235 569h262z" />
    <glyph glyph-name="Wdieresis" unicode="&#x1e84;" horiz-adv-x="1978" 
d="M805 1851q55 0 91 -35.5t36 -91.5q0 -54 -36 -89.5t-91 -35.5q-54 0 -89.5 35.5t-35.5 89.5q0 55 35.5 91t89.5 36zM1174 1851q55 0 90.5 -35.5t35.5 -91.5q0 -54 -35.5 -89.5t-90.5 -35.5q-54 0 -89.5 35.5t-35.5 89.5q0 55 35.5 91t89.5 36zM1950 1505l-592 -1528h-8
l-361 910l-360 -910h-8l-594 1528h284l324 -901l350 901h8l350 -901l324 901h283z" />
    <glyph glyph-name="wdieresis" unicode="&#x1e85;" horiz-adv-x="1558" 
d="M594 1446q55 0 91 -35.5t36 -89.5q0 -55 -35.5 -91t-91.5 -36q-54 0 -89.5 36t-35.5 91q0 54 35.5 89.5t89.5 35.5zM963 1446q55 0 91 -35.5t36 -89.5q0 -55 -36 -91t-91 -36q-54 0 -89.5 36t-35.5 91q0 54 35.5 89.5t89.5 35.5zM1548 1032l-475 -1052h-8l-285 565
l-286 -565h-9l-475 1052h264l234 -569l268 569h8l267 -569l235 569h262z" />
    <glyph glyph-name="Ygrave" unicode="&#x1ef2;" horiz-adv-x="1386" 
d="M555 1841l264 -239h-254l-311 239h301zM1374 1503l-553 -876v-627h-256v623l-553 880h297l383 -622l383 622h299z" />
    <glyph glyph-name="ygrave" unicode="&#x1ef3;" horiz-adv-x="1124" 
d="M387 1458l279 -280h-230l-336 280h287zM1114 1032l-776 -1503h-283l373 682l-418 821h264l285 -600l291 600h264z" />
    <glyph glyph-name="endash" unicode="&#x2013;" horiz-adv-x="1132" 
d="M1053 659v-227h-973v227h973z" />
    <glyph glyph-name="emdash" unicode="&#x2014;" horiz-adv-x="1632" 
d="M1554 659v-227h-1474v227h1474z" />
    <glyph glyph-name="quoteleft" unicode="&#x2018;" horiz-adv-x="428" 
d="M315 1516v-605q-27 -12 -65 -12q-75 0 -122.5 46.5t-47.5 117.5q0 11 1.5 21t6 22.5t6 16.5t9.5 20l8 16l196 357h8z" />
    <glyph glyph-name="quoteright" unicode="&#x2019;" horiz-adv-x="428" 
d="M180 1516q73 0 120.5 -45.5t47.5 -116.5q0 -43 -31 -99l-198 -356h-8v606q28 11 69 11z" />
    <glyph glyph-name="quotesinglbase" unicode="&#x201a;" horiz-adv-x="428" 
d="M180 281q73 0 120.5 -45.5t47.5 -116.5q0 -43 -31 -99l-198 -356h-8v606q37 11 69 11z" />
    <glyph glyph-name="quotedblleft" unicode="&#x201c;" horiz-adv-x="819" 
d="M315 1516v-605q-27 -12 -65 -12q-75 0 -122.5 46.5t-47.5 117.5q0 11 1.5 21t6 22.5t6 16.5t9.5 20l8 16l196 357h8zM707 1516v-605q-27 -12 -66 -12q-75 0 -122.5 46.5t-47.5 117.5q0 11 1.5 21t6 22.5t6 16.5t9.5 20l8 16l196 357h9z" />
    <glyph glyph-name="quotedblright" unicode="&#x201d;" horiz-adv-x="819" 
d="M180 1516q73 0 120.5 -45.5t47.5 -116.5q0 -43 -31 -99l-198 -356h-8v606q28 11 69 11zM571 1516q73 0 120.5 -45.5t47.5 -116.5q0 -45 -30 -99l-199 -356h-8v606q27 11 69 11z" />
    <glyph glyph-name="quotedblbase" unicode="&#x201e;" horiz-adv-x="819" 
d="M571 281q73 0 120.5 -45.5t47.5 -116.5q0 -45 -30 -99l-199 -356h-8v606q37 11 69 11zM180 281q73 0 120.5 -45.5t47.5 -116.5q0 -43 -31 -99l-198 -356h-8v606q37 11 69 11z" />
    <glyph glyph-name="dagger" unicode="&#x2020;" horiz-adv-x="1011" 
d="M627 1505v-354h329v-221h-329v-930h-244v930h-328v221h328v354h244z" />
    <glyph glyph-name="daggerdbl" unicode="&#x2021;" horiz-adv-x="1011" 
d="M629 1505v-354h329v-221h-329v-355h327v-221h-327v-354h-244v354h-330v221h330v355h-330v221h330v354h244z" />
    <glyph glyph-name="bullet" unicode="&#x2022;" horiz-adv-x="604" 
d="M301 764q103 0 169.5 -66.5t66.5 -169.5q0 -101 -66.5 -167t-169.5 -66q-101 0 -167 66t-66 167q0 103 66 169.5t167 66.5z" />
    <glyph glyph-name="ellipsis" unicode="&#x2026;" horiz-adv-x="1611" 
d="M268 303q70 0 116 -45.5t46 -116.5q0 -70 -45.5 -115.5t-116.5 -45.5t-116.5 45.5t-45.5 115.5q0 71 46 116.5t116 45.5zM805 303q71 0 116.5 -45.5t45.5 -116.5q0 -70 -45.5 -115.5t-116.5 -45.5q-69 0 -114.5 45.5t-45.5 115.5t45.5 116t114.5 46zM1343 303
q69 0 115.5 -46t46.5 -116t-46.5 -115.5t-115.5 -45.5q-71 0 -116 45t-45 116t45.5 116.5t115.5 45.5z" />
    <glyph glyph-name="perthousand" unicode="&#x2030;" horiz-adv-x="2641" 
d="M434 1532q160 0 266.5 -109.5t106.5 -273.5t-106.5 -271.5t-266.5 -107.5q-162 0 -267.5 107t-105.5 272t105.5 274t267.5 109zM1495 1505l-977 -1505h-213l975 1505h215zM434 1352q-82 0 -133 -57t-51 -146q0 -87 51.5 -144t132.5 -57q79 0 131.5 57.5t52.5 143.5
q0 89 -52 146t-132 57zM1366 733q160 0 266.5 -108t106.5 -273q0 -164 -106.5 -270.5t-266.5 -106.5q-163 0 -269 106.5t-106 270.5q0 166 106 273.5t269 107.5zM2200 733q159 0 264.5 -108t105.5 -273q0 -164 -105.5 -270.5t-264.5 -106.5q-163 0 -269 106.5t-106 270.5
q0 166 106 273.5t269 107.5zM1366 557q-81 0 -133.5 -58.5t-52.5 -146.5q0 -87 52.5 -143.5t133.5 -56.5q79 0 131.5 57t52.5 143q0 88 -52.5 146.5t-131.5 58.5zM2200 557q-81 0 -134 -58.5t-53 -146.5q0 -87 53 -143.5t134 -56.5q78 0 130 57t52 143q0 88 -52 146.5
t-130 58.5z" />
    <glyph glyph-name="guilsinglleft" unicode="&#x2039;" horiz-adv-x="626" 
d="M561 938l-262 -414l262 -413h-227l-271 409v8l271 410h227z" />
    <glyph glyph-name="guilsinglright" unicode="&#x203a;" horiz-adv-x="626" 
d="M291 938l270 -410v-8l-270 -409h-228l263 413l-263 414h228z" />
    <glyph glyph-name="fraction" unicode="&#x2044;" horiz-adv-x="436" 
d="M690 1503l-743 -1503h-201l746 1503h198z" />
    <glyph glyph-name="zero.sups" unicode="&#x2070;" horiz-adv-x="782" 
d="M406 1681q150 0 236.5 -120t86.5 -324t-86.5 -325t-236.5 -121q-154 0 -242 121t-88 325t88 324t242 120zM406 1520q-74 0 -110 -74.5t-36 -208.5t36 -209.5t110 -75.5q70 0 104.5 75.5t34.5 209.5q0 133 -34.5 208t-104.5 75z" />
    <glyph glyph-name="four.sups" unicode="&#x2074;" horiz-adv-x="759" 
d="M631 1683v-622h102v-139h-102v-115h-178v117h-437v4l611 755h4zM465 1278l-178 -223h178v223z" />
    <glyph glyph-name="five.sups" unicode="&#x2075;" horiz-adv-x="720" 
d="M625 1665v-162h-324v-170q34 17 78 17q134 0 218.5 -71t84.5 -212q0 -123 -82.5 -199.5t-220.5 -76.5q-236 0 -303 194l149 76q31 -107 142 -107q58 0 94.5 34t36.5 89t-38 89t-100 34q-67 0 -118 -41l-123 53v453h506z" />
    <glyph glyph-name="six.sups" unicode="&#x2076;" horiz-adv-x="739" 
d="M412 1368q119 -9 200.5 -89.5t81.5 -197.5q0 -125 -91.5 -207.5t-221.5 -82.5t-220.5 82t-90.5 208q0 83 55 168l276 416h207zM381 944q58 0 95.5 37.5t37.5 99.5t-37.5 101t-95.5 39q-56 0 -93.5 -39t-37.5 -101t37 -99.5t94 -37.5z" />
    <glyph glyph-name="seven.sups" unicode="&#x2077;" horiz-adv-x="724" 
d="M707 1665v-8l-435 -850h-196l364 692h-372v166h639z" />
    <glyph glyph-name="eight.sups" unicode="&#x2078;" horiz-adv-x="739" 
d="M379 1681q116 0 197 -70t81 -177t-94 -174q59 -34 93 -86t34 -113q0 -117 -90.5 -193.5t-220.5 -76.5q-128 0 -218.5 76.5t-90.5 193.5q0 61 34 112t93 84q-97 70 -97 177t81.5 177t197.5 70zM379 1534q-49 0 -83 -31.5t-34 -77.5q0 -49 33.5 -78.5t83.5 -29.5t83.5 29.5
t33.5 78.5q0 46 -34 77.5t-83 31.5zM379 1178q-57 0 -95 -34.5t-38 -86.5t38 -85.5t95 -33.5q59 0 97 33.5t38 85.5t-38 86.5t-97 34.5z" />
    <glyph glyph-name="nine.sups" unicode="&#x2079;" horiz-adv-x="739" 
d="M383 1681q130 0 220.5 -82t90.5 -208q0 -83 -55 -168l-277 -416h-206l196 297q-119 9 -200.5 89.5t-81.5 197.5q0 125 91.5 207.5t221.5 82.5zM383 1251q56 0 93.5 39t37.5 101t-37 99.5t-94 37.5q-58 0 -95.5 -37.5t-37.5 -99.5t37.5 -101t95.5 -39z" />
    <glyph glyph-name="n.sups" unicode="&#x207f;" horiz-adv-x="874" 
d="M508 1536q131 0 201.5 -86.5t70.5 -235.5v-419h-200v409q0 66 -33 105t-92 39q-87 0 -146 -88v-465h-198v727h178l8 -80q31 40 85.5 67t125.5 27z" />
    <glyph glyph-name="Euro" unicode="&#x20ac;" horiz-adv-x="1355" 
d="M1153 348l152 -178q-183 -199 -463 -199q-231 0 -395 138.5t-222 384.5h-157v163h133q-4 62 -4 95q0 36 4 102h-133v164h159q58 243 220 378.5t393 135.5q283 0 458 -197l-151 -178q-122 152 -307 152q-124 0 -213.5 -76t-132.5 -215h385v-164h-416q-6 -50 -6 -102
q0 -33 4 -95h418v-163h-387q43 -142 134 -220.5t216 -78.5q184 0 311 153z" />
    <glyph glyph-name="afii61289" unicode="&#x2113;" horiz-adv-x="1196" 
d="M692 1536q151 0 243.5 -86.5t92.5 -237.5q0 -81 -27 -164t-67 -151t-104 -144t-120 -131t-132 -124v-168q0 -78 26 -111t96 -33q28 0 53.5 6.5t49.5 23.5t40.5 30.5t40 42t35 44t36.5 50.5q7 9 10 14l141 -114q-181 -308 -434 -308q-81 0 -143.5 25.5t-98.5 67.5
t-54 92.5t-18 105.5v60q-114 -105 -165 -144l-117 172q125 105 272 242v569q0 189 83.5 280t260.5 91zM692 1350q-65 0 -99 -41.5t-34 -120.5v-447q113 106 189.5 226.5t76.5 234.5q0 68 -34.5 108t-98.5 40z" />
    <glyph glyph-name="trademark" unicode="&#x2122;" horiz-adv-x="1769" 
d="M1694 1520v-785h-181v305l-233 -313h-8l-230 313v-305h-180v785h4l410 -523l414 523h4zM741 1505v-174h-256v-596h-182v596h-256v174h694z" />
    <glyph glyph-name="Omega" unicode="&#x2126;" horiz-adv-x="1757" 
d="M885 1534q203 0 361 -91.5t243.5 -251.5t85.5 -360q0 -101 -21 -191t-59 -160.5t-71.5 -116.5t-77.5 -95h337v-268h-696v256q307 241 307 565q0 201 -109 323t-300 122q-190 0 -301 -122.5t-111 -322.5q0 -322 309 -565v-256h-696v268h338q-44 48 -77.5 95t-71 117
t-58 160t-20.5 191q0 150 50 279.5t139 223t218 147t281 53.5z" />
    <glyph glyph-name="estimated" unicode="&#x212e;" horiz-adv-x="1210" 
d="M631 1096q223 0 365.5 -139.5t142.5 -389.5h-811v-344q0 -85 67 -123q93 -65 236 -65q278 0 450 260l49 -33q-86 -136 -213.5 -212.5t-285.5 -76.5q-157 0 -284 69.5t-201 198.5t-74 294t74 293.5t201 198t284 69.5zM631 1034q-70 0 -134.5 -18t-101.5 -47
q-67 -37 -67 -121v-219h571v223q0 55 -11.5 83t-47.5 46q-80 53 -209 53z" />
    <glyph glyph-name="partialdiff" unicode="&#x2202;" horiz-adv-x="1112" 
d="M520 1532q95 0 172.5 -29t131.5 -77.5t95 -118.5t65 -144t39.5 -163.5t20.5 -167.5t5 -164q0 -274 -70 -418q-64 -131 -173.5 -199.5t-248.5 -68.5q-213 0 -353.5 136t-140.5 351q0 216 136 351.5t344 135.5q93 0 157 -36.5t101 -83.5q-5 220 -79 341t-220 121
q-164 0 -254 -145l-166 156q161 223 438 223zM561 731q-107 0 -177.5 -73.5t-70.5 -188.5q0 -113 70 -185.5t178 -72.5q106 0 175 72.5t69 185.5q0 115 -69 188.5t-175 73.5z" />
    <glyph glyph-name="uni2206" unicode="&#x2206;" horiz-adv-x="1476" 
d="M739 1323l666 -1323h-1333zM739 877l-342 -682h682z" />
    <glyph glyph-name="product" unicode="&#x220f;" horiz-adv-x="1445" 
d="M1374 1516v-232h-235v-1491h-230v1491h-370v-1491h-234v1491h-233v232h1302z" />
    <glyph glyph-name="summation" unicode="&#x2211;" horiz-adv-x="1249" 
d="M1153 1516v-248h-731l344 -482l-360 -538h772v-248h-1106v168l405 612l-399 568v168h1075z" />
    <glyph glyph-name="minus" unicode="&#x2212;" horiz-adv-x="1019" 
d="M942 829v-225h-866v225h866z" />
    <glyph glyph-name="radical" unicode="&#x221a;" horiz-adv-x="1427" 
d="M1167 1425l207 -88l-614 -1489l-352 672l-236 -141l-115 182l475 281l220 -453z" />
    <glyph glyph-name="infinity" unicode="&#x221e;" horiz-adv-x="1552" 
d="M1116 983q163 0 266 -112t103 -275q0 -164 -103 -275.5t-266 -111.5q-55 0 -105 15t-94 45t-73 54.5t-66 61.5l-35 35l-30 -35q-149 -145 -297 -145q-154 0 -246 101t-92 253q0 153 92 255.5t246 102.5q86 0 153.5 -39.5t141.5 -113.5l32 -33l23 27q87 93 165.5 141.5
t184.5 48.5zM1118 772q-41 0 -82.5 -22.5t-67.5 -47.5t-69 -73l-27 -37l33 -35q31 -35 46.5 -50.5t45.5 -41t59.5 -36.5t61.5 -11q72 0 116 51.5t44 126.5t-44 125.5t-116 50.5zM412 750q-63 0 -101.5 -45t-38.5 -111q0 -65 38.5 -109.5t101.5 -44.5q95 0 182 115l27 37
l-29 35q-48 60 -90 91.5t-90 31.5z" />
    <glyph glyph-name="integral" unicode="&#x222b;" horiz-adv-x="888" 
d="M594 1536q144 0 248 -47l-45 -195q-80 35 -148 35q-104 0 -104 -141v-1225q0 -189 -67 -270.5t-208 -81.5q-148 0 -252 47l45 192q73 -32 150 -32q111 0 111 145v1225q0 186 66 267t204 81z" />
    <glyph glyph-name="approxequal" unicode="&#x2248;" horiz-adv-x="1310" 
d="M461 1151q59 0 110.5 -17.5t88.5 -43t71 -51t72 -43t78 -17.5q75 0 128 42t81 112l143 -115q-51 -124 -142.5 -196t-209.5 -72q-61 0 -111.5 18t-84.5 43.5t-66 51t-72 43.5t-86 18q-76 0 -128.5 -42.5t-78.5 -113.5l-145 115q52 127 143 197.5t209 70.5zM430 670
q59 0 110.5 -18t88.5 -43.5t71 -51t72 -43.5t78 -18q75 0 127.5 43t79.5 112l145 -114q-50 -125 -142 -197t-210 -72q-61 0 -111.5 18t-84.5 43.5t-66 51t-72 43.5t-86 18q-75 0 -127.5 -42.5t-79.5 -110.5l-145 114q52 125 143.5 196t208.5 71z" />
    <glyph glyph-name="notequal" unicode="&#x2260;" horiz-adv-x="1019" 
d="M942 858h-274l-105 -287h379v-225h-461l-71 -199h-213l73 199h-194v225h276l105 287h-381v225h463l90 250h213l-92 -250h192v-225z" />
    <glyph glyph-name="lessequal" unicode="&#x2264;" horiz-adv-x="833" 
d="M756 1247l-369 -340l369 -340h-316l-362 336v8l362 336h316zM756 459v-226h-678v226h678z" />
    <glyph glyph-name="greaterequal" unicode="&#x2265;" horiz-adv-x="833" 
d="M395 1247l361 -336v-8l-361 -336h-317l368 340l-368 340h317zM756 459v-226h-678v226h678z" />
    <glyph glyph-name="lozenge" unicode="&#x25ca;" horiz-adv-x="1165" 
d="M668 1511l444 -823l-444 -821h-152l-446 821l446 823h152zM592 1153l-266 -465l266 -467l266 467z" />
    <glyph glyph-name="commaaccent" unicode="&#xf6c3;" horiz-adv-x="0" 
d="M-219 -98q65 0 107 -33.5t42 -87.5q0 -72 -59 -119l-147 -133h-9v362q37 11 66 11z" />
    <glyph glyph-name="CR" horiz-adv-x="512" 
 />
    <glyph glyph-name="germandbls.cap" horiz-adv-x="1378" 
d="M690 1532q180 0 309.5 -66.5t233.5 -185.5l-246 -389q63 -21 116.5 -53.5t103 -83.5t78 -128t28.5 -171q0 -211 -143.5 -346.5t-376.5 -135.5q-170 0 -277 58l72 223q44 -25 84.5 -35t107.5 -10q107 0 182.5 72.5t75.5 185.5q0 74 -31.5 128t-89 85.5t-128.5 46
t-158 14.5l-4 11l288 465q-80 77 -233 77q-131 0 -210 -79.5t-79 -219.5v-995h-250v995q0 239 155 388t392 149z" />
    <glyph glyph-name="endash_guilsinglright" horiz-adv-x="1361" 
d="M680 1112l604 -547l-604 -547l-117 142l344 303h-831v203h833l-346 305z" />
    <glyph glyph-name="emdash_guilsinglright" horiz-adv-x="2023" 
d="M1339 1112l607 -547l-607 -547l-114 142l342 303h-1491v203h1495l-346 305z" />
    <glyph glyph-name="guilsinglleft_endash" horiz-adv-x="1361" 
d="M684 1112l115 -141l-346 -305h831v-203h-829l344 -303l-115 -142l-608 547z" />
    <glyph glyph-name="guilsinglleft_emdash" horiz-adv-x="2023" 
d="M684 1112l115 -141l-346 -305h1493v-203h-1491l344 -303l-115 -142l-608 547z" />
    <glyph glyph-name="at.cap" horiz-adv-x="1777" 
d="M887 1573q182 0 336.5 -59.5t263 -165t169 -255.5t60.5 -327q0 -208 -95.5 -335.5t-264.5 -127.5q-88 0 -146.5 35.5t-83.5 91.5l-4 8q-46 -58 -120.5 -96.5t-170.5 -38.5q-169 0 -277 127t-108 320q0 194 108 320t277 126q187 0 271 -113l10 97h186v-621q0 -90 82 -90
q75 0 117.5 81.5t42.5 215.5q0 139 -46.5 257t-130.5 202.5t-206.5 132t-269.5 47.5q-189 0 -337.5 -84.5t-230 -233t-81.5 -335.5q0 -188 80 -336t225 -231t331 -83q141 0 265 50l47 -158q-142 -60 -312 -60q-235 0 -421.5 104.5t-290 291t-103.5 422.5q0 176 61.5 328.5
t170 260.5t263 170t333.5 62zM883 1016q-101 0 -164.5 -73t-63.5 -193t63.5 -192.5t164.5 -72.5q128 0 209 119v293q-84 119 -209 119z" />
    <glyph glyph-name="grave.cap" horiz-adv-x="641" 
d="M346 1841l264 -239h-254l-311 239h301z" />
    <glyph glyph-name="acute.cap" horiz-adv-x="641" 
d="M594 1841l-309 -239h-254l264 239h299z" />
    <glyph glyph-name="circumflex.cap" horiz-adv-x="757" 
d="M379 1907l340 -308h-211l-129 113l-131 -113h-209z" />
    <glyph glyph-name="caron.cap" horiz-adv-x="757" 
d="M719 1886l-340 -307l-340 307h209l131 -112l129 112h211z" />
    <glyph glyph-name="tilde.cap" horiz-adv-x="772" 
d="M262 1905q45 0 81 -15.5t57.5 -38t39.5 -45t38.5 -38t43.5 -15.5q64 0 64 139h145q0 -144 -62.5 -220.5t-160.5 -76.5q-47 0 -81.5 15.5t-54 38t-36 45t-37 38t-45.5 15.5q-70 0 -70 -139h-145q0 149 62.5 223t160.5 74z" />
    <glyph glyph-name="dieresis.cap" horiz-adv-x="698" 
d="M164 1851q56 0 91.5 -35.5t35.5 -91.5q0 -54 -36 -89.5t-91 -35.5q-54 0 -89.5 35.5t-35.5 89.5q0 55 35.5 91t89.5 36zM532 1851q56 0 91.5 -35.5t35.5 -91.5q0 -54 -36 -89.5t-91 -35.5q-54 0 -89 35.5t-35 89.5q0 55 35 91t89 36z" />
    <glyph glyph-name="macron.cap" horiz-adv-x="622" 
d="M584 1800v-170h-545v170h545z" />
    <glyph glyph-name="breve.cap" horiz-adv-x="724" 
d="M686 1911q0 -135 -91.5 -223.5t-229.5 -88.5q-140 0 -233 88.5t-93 223.5h172q0 -68 42.5 -113t111.5 -45q67 0 108 45t41 113h172z" />
    <glyph glyph-name="ring.cap" horiz-adv-x="550" 
d="M274 2062q101 0 168.5 -66.5t67.5 -166.5q0 -101 -67.5 -167.5t-168.5 -66.5t-168 66.5t-67 167.5q0 100 67 166.5t168 66.5zM274 1929q-40 0 -68 -29t-28 -71t28 -70t68 -28q42 0 70.5 28t28.5 70q0 43 -28.5 71.5t-70.5 28.5z" />
    <glyph glyph-name="hungarumlaut.cap" horiz-adv-x="831" 
d="M508 1851l-203 -247h-190l182 247h211zM864 1851l-202 -247h-193l184 247h211z" />
    <glyph glyph-name="dotaccent.cap" horiz-adv-x="358" 
d="M178 1880q60 0 99.5 -39t39.5 -100q0 -60 -39.5 -98.5t-99.5 -38.5t-99.5 38.5t-39.5 98.5q0 61 39.5 100t99.5 39z" />
    <glyph glyph-name="parenleft.cap" horiz-adv-x="657" 
d="M399 1640l189 -133q-57 -71 -98.5 -139t-81.5 -160.5t-61 -208t-21 -247.5t21 -247.5t61 -208t82 -161t98 -139.5l-189 -133q-62 79 -110.5 160t-96 191.5t-74 248t-26.5 289.5t26.5 289.5t74 247.5t96 191t110.5 160z" />
    <glyph glyph-name="parenright.cap" horiz-adv-x="657" 
d="M258 1640q62 -79 110.5 -160t96 -191t74 -247.5t26.5 -289.5t-26.5 -289.5t-74 -248t-96 -191.5t-110.5 -160l-188 133q56 71 98 139.5t82 161t61 208t21 247.5t-21 247.5t-61 208t-81.5 160.5t-98.5 139z" />
    <glyph glyph-name="bracketleft.cap" horiz-adv-x="675" 
d="M604 1632v-196h-256v-1368h256v-197h-491v1761h491z" />
    <glyph glyph-name="bracketright.cap" horiz-adv-x="684" 
d="M571 1632v-1761h-499v197h264v1368h-264v196h499z" />
    <glyph glyph-name="braceleft.cap" horiz-adv-x="712" 
d="M641 1632v-196q-109 0 -163.5 -64.5t-37.5 -193.5l19 -152q29 -223 -115 -274q68 -24 99 -93.5t16 -181.5l-19 -151q-17 -129 37.5 -193.5t163.5 -64.5v-197q-248 0 -356 127t-74 375l16 145q13 94 -36 151.5t-144 78.5v8q95 21 144 78t36 151l-16 148q-34 247 74 373
t356 126z" />
    <glyph glyph-name="braceright.cap" horiz-adv-x="712" 
d="M72 1632q249 0 358 -126.5t74 -372.5l-21 -148q-13 -92 37.5 -149.5t145.5 -79.5v-8q-95 -21 -145.5 -79.5t-37.5 -150.5l21 -145q35 -248 -74 -375t-358 -127v197q107 0 162 64.5t38 193.5l-18 151q-15 112 16 181.5t99 93.5q-144 51 -115 274l18 152q17 129 -38 193.5
t-162 64.5v196z" />
    <glyph glyph-name="guilsinglleft.cap" horiz-adv-x="651" 
d="M588 1180l-289 -455l289 -455h-230l-295 451v8l295 451h230z" />
    <glyph glyph-name="guilsinglright.cap" horiz-adv-x="651" 
d="M293 1180l295 -451v-8l-295 -451h-230l289 455l-289 455h230z" />
    <glyph glyph-name="guillemotleft.cap" horiz-adv-x="1140" 
d="M588 1180l-289 -455l289 -455h-230l-295 451v8l295 451h230zM1075 1180l-287 -455l287 -455h-225l-295 451v8l295 451h225z" />
    <glyph glyph-name="guillemotright.cap" horiz-adv-x="1140" 
d="M291 1180l297 -451v-8l-297 -451h-228l289 455l-289 455h228zM780 1180l295 -451v-8l-295 -451h-225l285 455l-285 455h225z" />
    <glyph glyph-name="exclamdown.cap" horiz-adv-x="567" 
d="M285 1210q-68 0 -113 44.5t-45 113.5t45 113.5t113 44.5q69 0 114 -44.5t45 -113.5t-45 -113.5t-114 -44.5zM162 0v1061h248v-1061h-248z" />
    <glyph glyph-name="questiondown.cap" horiz-adv-x="1038" 
d="M535 1210q-69 0 -113.5 44.5t-44.5 113.5t44.5 113.5t113.5 44.5t113 -44.5t44 -113.5t-44 -113.5t-113 -44.5zM535 -27q-203 0 -333 120t-130 300q0 72 19 131t48.5 98.5t66 73t73 63t66 60.5t48.5 73t19 93v76h247v-109q0 -64 -18 -117.5t-47 -90t-64.5 -68.5
t-70.5 -61t-64 -59.5t-47 -71.5t-18 -89q0 -93 58 -145.5t149 -52.5q182 0 219 194l243 -41q-39 -182 -155.5 -279.5t-308.5 -97.5z" />
    <glyph glyph-name="endash.cap" horiz-adv-x="1132" 
d="M1053 844v-228h-973v228h973z" />
    <glyph glyph-name="periodcentered.cap" horiz-adv-x="473" 
d="M236 883q69 0 113 -44.5t44 -113.5q0 -67 -44.5 -111.5t-112.5 -44.5q-67 0 -111.5 45t-44.5 111q0 69 44 113.5t112 44.5z" />
    <glyph glyph-name="emdash.cap" horiz-adv-x="1632" 
d="M1554 844v-228h-1474v228h1474z" />
    <glyph glyph-name="hyphen.cap" horiz-adv-x="790" 
d="M711 844v-228h-631v228h631z" />
    <glyph glyph-name="zero.dnom" horiz-adv-x="804" 
d="M406 874q150 0 236.5 -120t86.5 -324t-86.5 -325t-236.5 -121q-154 0 -242 121t-88 325t88 324t242 120zM406 713q-74 0 -110 -74.5t-36 -208.5t36 -209.5t110 -75.5q70 0 104.5 75.5t34.5 209.5q0 133 -34.5 208t-104.5 75z" />
    <glyph glyph-name="one.dnom" horiz-adv-x="561" 
d="M436 874v-874h-180v590l-131 -78l-76 166l383 196h4z" />
    <glyph glyph-name="two.dnom" horiz-adv-x="729" 
d="M352 874q135 0 217 -76.5t82 -197.5q0 -65 -25.5 -121t-76.5 -123l-158 -194h266v-162h-575v8l313 441q41 51 56.5 83.5t15.5 71.5q0 50 -31.5 79.5t-83.5 29.5q-104 0 -125 -125l-164 39q49 247 289 247z" />
    <glyph glyph-name="three.dnom" horiz-adv-x="718" 
d="M356 874q127 0 207 -76t80 -188q0 -116 -104 -172q125 -56 125 -186q0 -118 -83 -193t-221 -75q-245 0 -301 235l162 37q16 -55 48.5 -82t90.5 -27q54 0 87.5 31.5t33.5 83.5q0 48 -35.5 80.5t-91.5 32.5h-94v137h98q46 2 75.5 27.5t29.5 72.5q0 45 -31.5 73t-79.5 28
q-92 0 -119 -99l-155 68q60 192 278 192z" />
    <glyph glyph-name="four.dnom" horiz-adv-x="784" 
d="M631 877v-623h102v-139h-102v-115h-178v117h-437v4l611 756h4zM465 471l-178 -223h178v223z" />
    <glyph glyph-name="five.dnom" horiz-adv-x="745" 
d="M625 858v-162h-324v-170q34 17 78 17q134 0 218.5 -71t84.5 -212q0 -123 -82.5 -199.5t-220.5 -76.5q-236 0 -303 194l149 76q31 -107 142 -107q58 0 94.5 34t36.5 89t-38 89t-100 34q-67 0 -118 -41l-123 54v452h506z" />
    <glyph glyph-name="six.dnom" horiz-adv-x="763" 
d="M412 561q119 -9 200.5 -90.5t81.5 -196.5q0 -125 -91.5 -207.5t-221.5 -82.5t-220.5 82t-90.5 208q0 83 55 168l276 416h207zM381 137q58 0 95.5 37.5t37.5 99.5t-37.5 101t-95.5 39q-56 0 -93.5 -39t-37.5 -101t37 -99.5t94 -37.5z" />
    <glyph glyph-name="seven.dnom" horiz-adv-x="747" 
d="M707 858v-8l-435 -850h-196l364 692h-372v166h639z" />
    <glyph glyph-name="eight.dnom" horiz-adv-x="763" 
d="M379 874q116 0 197 -70t81 -177t-94 -174q59 -34 93 -86t34 -113q0 -117 -90.5 -193.5t-220.5 -76.5q-128 0 -218.5 76.5t-90.5 193.5q0 61 34 112.5t93 84.5q-97 70 -97 176q0 107 81.5 177t197.5 70zM379 727q-49 0 -83 -31.5t-34 -77.5q0 -49 33.5 -78.5t83.5 -29.5
t83.5 29.5t33.5 78.5q0 46 -34 77.5t-83 31.5zM379 371q-57 0 -95 -34.5t-38 -86.5t38 -85.5t95 -33.5q59 0 97 33.5t38 85.5t-38 86.5t-97 34.5z" />
    <glyph glyph-name="nine.dnom" horiz-adv-x="763" 
d="M383 874q130 0 220.5 -82t90.5 -208q0 -83 -55 -168l-277 -416h-206l196 297q-119 9 -200.5 90.5t-81.5 196.5q0 125 91.5 207.5t221.5 82.5zM383 444q56 0 93.5 39t37.5 101t-37 99.5t-94 37.5q-58 0 -95.5 -37.5t-37.5 -99.5t37.5 -101t95.5 -39z" />
    <glyph glyph-name="zero.numr" horiz-adv-x="782" 
d="M406 1518q150 0 236.5 -120.5t86.5 -324.5t-86.5 -325t-236.5 -121q-154 0 -242 121t-88 325t88 324.5t242 120.5zM406 1356q-74 0 -110 -74.5t-36 -208.5t36 -209.5t110 -75.5q70 0 104.5 75.5t34.5 209.5q0 133 -34.5 208t-104.5 75z" />
    <glyph glyph-name="one.numr" horiz-adv-x="536" 
d="M436 1518v-875h-180v590l-131 -78l-76 166l383 197h4z" />
    <glyph glyph-name="two.numr" horiz-adv-x="704" 
d="M352 1518q135 0 217 -77t82 -198q0 -65 -25.5 -121t-76.5 -123l-158 -194h266v-162h-575v8l313 441q41 51 56.5 83.5t15.5 71.5q0 50 -31.5 79.5t-83.5 29.5q-104 0 -125 -125l-164 39q49 248 289 248z" />
    <glyph glyph-name="three.numr" horiz-adv-x="694" 
d="M356 1518q127 0 207 -76.5t80 -188.5q0 -116 -104 -172q125 -56 125 -186q0 -118 -83 -193t-221 -75q-245 0 -301 235l162 37q16 -54 48.5 -81t90.5 -27q54 0 87.5 31t33.5 83q0 48 -35.5 80.5t-91.5 32.5h-94v137h98q46 2 75.5 27.5t29.5 72.5q0 45 -31.5 73t-79.5 28
q-92 0 -119 -99l-155 68q60 193 278 193z" />
    <glyph glyph-name="four.numr" horiz-adv-x="759" 
d="M631 1520v-623h102v-139h-102v-115h-178v117h-437v4l611 756h4zM465 1114l-178 -223h178v223z" />
    <glyph glyph-name="five.numr" horiz-adv-x="720" 
d="M625 1501v-162h-324v-170q34 17 78 17q134 0 218.5 -71t84.5 -212q0 -123 -82.5 -199.5t-220.5 -76.5q-236 0 -303 194l149 76q30 -106 142 -106q58 0 94.5 33.5t36.5 88.5t-38 89t-100 34q-67 0 -118 -41l-123 54v452h506z" />
    <glyph glyph-name="six.numr" horiz-adv-x="739" 
d="M412 1204q119 -9 200.5 -89.5t81.5 -196.5q0 -125 -91.5 -208t-221.5 -83t-220.5 82.5t-90.5 208.5q0 82 55 167l276 416h207zM381 780q58 0 95.5 38t37.5 100t-37.5 100.5t-95.5 38.5q-56 0 -93.5 -38.5t-37.5 -100.5t37 -100t94 -38z" />
    <glyph glyph-name="seven.numr" horiz-adv-x="724" 
d="M707 1501v-8l-435 -850h-196l364 692h-372v166h639z" />
    <glyph glyph-name="eight.numr" horiz-adv-x="739" 
d="M379 1518q116 0 197 -70.5t81 -177.5t-94 -174q59 -34 93 -86t34 -113q0 -117 -90.5 -193.5t-220.5 -76.5q-128 0 -218.5 76.5t-90.5 193.5q0 61 34 112.5t93 84.5q-97 70 -97 176q0 107 81.5 177.5t197.5 70.5zM379 1370q-50 0 -83.5 -31t-33.5 -77q0 -49 33.5 -79
t83.5 -30t83.5 30t33.5 79q0 46 -33.5 77t-83.5 31zM379 1014q-57 0 -95 -34.5t-38 -86.5t38 -85.5t95 -33.5q59 0 97 33.5t38 85.5t-38 86.5t-97 34.5z" />
    <glyph glyph-name="nine.numr" horiz-adv-x="739" 
d="M383 1518q130 0 220.5 -82.5t90.5 -208.5q0 -83 -55 -168l-277 -416h-206l196 297q-119 9 -200.5 89.5t-81.5 197.5q0 125 91.5 208t221.5 83zM383 1087q56 0 93.5 39t37.5 101t-37 99.5t-94 37.5q-58 0 -95.5 -37.5t-37.5 -99.5t37.5 -101t95.5 -39z" />
    <glyph glyph-name="zero.subs" horiz-adv-x="782" 
d="M406 670q150 0 236.5 -120.5t86.5 -324.5t-86.5 -325t-236.5 -121q-154 0 -242 121t-88 325t88 324.5t242 120.5zM406 508q-74 0 -110 -74.5t-36 -208.5t36 -209t110 -75q70 0 104.5 75t34.5 209q0 133 -34.5 208t-104.5 75z" />
    <glyph glyph-name="one.subs" horiz-adv-x="536" 
d="M436 670v-875h-180v590l-131 -78l-76 166l383 197h4z" />
    <glyph glyph-name="two.subs" horiz-adv-x="704" 
d="M352 670q135 0 217 -77t82 -198q0 -65 -25 -120t-77 -123l-158 -195h266v-162h-575v8l313 441q41 51 56.5 83.5t15.5 71.5q0 50 -31.5 79.5t-83.5 29.5q-104 0 -125 -125l-164 39q49 248 289 248z" />
    <glyph glyph-name="three.subs" horiz-adv-x="694" 
d="M356 670q127 0 207 -76t80 -188q0 -117 -104 -173q125 -56 125 -186q0 -118 -83 -193t-221 -75q-245 0 -301 235l162 37q16 -54 48.5 -81t90.5 -27q54 0 87.5 31t33.5 83q0 48 -35.5 80.5t-91.5 32.5h-94v137h98q45 2 75 28t30 73q0 45 -31.5 72.5t-79.5 27.5
q-92 0 -119 -98l-155 67q60 193 278 193z" />
    <glyph glyph-name="four.subs" horiz-adv-x="759" 
d="M631 672v-623h102v-139h-102v-115h-178v117h-437v4l611 756h4zM465 266l-178 -223h178v223z" />
    <glyph glyph-name="five.subs" horiz-adv-x="720" 
d="M625 653v-161h-324v-170q32 16 78 16q134 0 218.5 -71t84.5 -212q0 -123 -82.5 -199.5t-220.5 -76.5q-236 0 -303 194l149 76q30 -106 142 -106q58 0 94.5 34t36.5 89q0 54 -37.5 88t-100.5 34q-67 0 -118 -41l-123 54v452h506z" />
    <glyph glyph-name="six.subs" horiz-adv-x="739" 
d="M412 356q119 -9 200.5 -89.5t81.5 -196.5q0 -125 -91.5 -208t-221.5 -83t-220.5 82.5t-90.5 208.5q0 83 55 168l276 415h207zM381 -68q58 0 95.5 38t37.5 100t-37.5 100.5t-95.5 38.5q-56 0 -93.5 -38.5t-37.5 -100.5t37 -100t94 -38z" />
    <glyph glyph-name="seven.subs" horiz-adv-x="724" 
d="M707 653v-8l-435 -850h-196l364 692h-372v166h639z" />
    <glyph glyph-name="eight.subs" horiz-adv-x="739" 
d="M379 670q116 0 197 -70.5t81 -177.5t-94 -174q59 -34 93 -86t34 -113q0 -117 -90.5 -193.5t-220.5 -76.5q-128 0 -218.5 76.5t-90.5 193.5q0 61 34 112.5t93 84.5q-97 70 -97 176q0 107 81.5 177.5t197.5 70.5zM379 522q-50 0 -83.5 -31t-33.5 -77q0 -49 33.5 -79
t83.5 -30t83.5 30t33.5 79q0 46 -33.5 77t-83.5 31zM379 166q-57 0 -95 -34.5t-38 -86.5t38 -85.5t95 -33.5q59 0 97 33.5t38 85.5t-38 86.5t-97 34.5z" />
    <glyph glyph-name="nine.subs" horiz-adv-x="739" 
d="M383 670q130 0 220.5 -82.5t90.5 -208.5q0 -83 -55 -168l-277 -416h-206l196 297q-119 9 -200.5 89.5t-81.5 197.5q0 125 91.5 208t221.5 83zM383 240q56 0 93.5 38.5t37.5 100.5t-37 99.5t-94 37.5q-58 0 -95.5 -37.5t-37.5 -99.5t37.5 -100.5t95.5 -38.5z" />
    <glyph glyph-name="zero.lnum" horiz-adv-x="1228" 
d="M614 1532q251 0 393 -209.5t142 -568.5q0 -361 -142 -571t-393 -210t-392.5 210t-141.5 571q0 359 141.5 568.5t392.5 209.5zM614 1311q-94 0 -158 -70t-94 -193t-30 -294q0 -262 70.5 -410.5t211.5 -148.5q142 0 212.5 148.5t70.5 410.5q0 261 -70.5 409t-212.5 148z
" />
    <glyph glyph-name="one.lnum" horiz-adv-x="1228" 
d="M799 1532v-1305h270v-227h-805v227h287v877l-322 -176l-108 221l670 383h8z" />
    <glyph glyph-name="two.lnum" horiz-adv-x="1228" 
d="M594 1532q213 0 345 -128.5t132 -330.5q0 -128 -43.5 -229.5t-138.5 -218.5l-318 -402h514v-223h-944v12l547 740q75 98 103 167t28 158q0 107 -63 169.5t-162 62.5q-102 0 -161 -59.5t-81 -180.5l-225 53q40 203 158 306.5t309 103.5z" />
    <glyph glyph-name="three.lnum" horiz-adv-x="1228" 
d="M606 1532q204 0 330.5 -124t126.5 -316q0 -220 -186 -314q105 -45 167 -132.5t62 -209.5q0 -207 -134 -335t-354 -128q-387 0 -495 396l225 57q33 -114 95.5 -171.5t172.5 -57.5q107 0 172.5 66.5t65.5 178.5q0 104 -70 171t-182 67h-164v194h166q89 2 150 58t61 155
q0 101 -59.5 161.5t-153.5 60.5q-177 0 -235 -203l-215 92q52 157 166 245.5t288 88.5z" />
    <glyph glyph-name="four.lnum" horiz-adv-x="1228" 
d="M973 1522v-1063h186v-205h-186v-254h-248v254h-676v8l914 1260h10zM735 879l-303 -424h303v424z" />
    <glyph glyph-name="five.lnum" horiz-adv-x="1228" 
d="M1028 1505v-223h-565v-385q70 39 170 39q217 0 352 -125.5t135 -357.5q0 -209 -133 -344.5t-354 -135.5q-378 0 -494 332l211 101q64 -209 266 -209q112 0 183 75t71 191q0 119 -71.5 192.5t-192.5 73.5q-131 0 -227 -84l-164 70v790h813z" />
    <glyph glyph-name="six.lnum" horiz-adv-x="1228" 
d="M612 975q212 -2 358 -145t146 -357q0 -108 -40 -201.5t-108 -158.5t-161 -102.5t-197 -37.5q-137 0 -251.5 63t-182 178.5t-67.5 258.5q0 158 94 299l471 733h280zM610 195q109 0 182.5 77.5t73.5 200.5t-73.5 202t-182.5 79q-107 0 -178.5 -79t-71.5 -202t71.5 -200.5
t178.5 -77.5z" />
    <glyph glyph-name="seven.lnum" horiz-adv-x="1228" 
d="M1169 1505v-12l-743 -1493h-268l645 1278h-674v227h1040z" />
    <glyph glyph-name="eight.lnum" horiz-adv-x="1228" 
d="M614 1532q186 0 315.5 -118t129.5 -298q0 -101 -46.5 -184.5t-125.5 -134.5q106 -56 169.5 -151.5t63.5 -211.5q0 -132 -69 -238.5t-184.5 -164.5t-252.5 -58t-252 58t-183 164.5t-68 238.5q0 116 62 211.5t167 149.5q-80 51 -126 134.5t-46 186.5q0 180 130 298t316 118
zM614 1317q-91 0 -153 -60.5t-62 -152.5q0 -95 62 -157t153 -62q90 0 151.5 62.5t61.5 156.5q0 92 -61.5 152.5t-151.5 60.5zM614 676q-106 0 -179 -70.5t-73 -175.5q0 -102 73 -171t179 -69t180 69t74 171q0 105 -73.5 175.5t-180.5 70.5z" />
    <glyph glyph-name="nine.lnum" horiz-adv-x="1228" 
d="M616 1532q137 0 251.5 -63t182.5 -178.5t68 -258.5q0 -158 -94 -299l-471 -733h-281l342 530q-138 1 -253 65.5t-182.5 179.5t-67.5 257q0 143 68 258.5t183 178.5t254 63zM616 752q107 0 178.5 78.5t71.5 201.5q0 124 -71.5 201.5t-178.5 77.5q-109 0 -182.5 -77.5
t-73.5 -201.5q0 -123 73.5 -201.5t182.5 -78.5z" />
    <glyph glyph-name="zero.tnum" horiz-adv-x="1214" 
d="M608 1167q152 0 274 -77t190.5 -213t68.5 -306q0 -256 -151.5 -423.5t-383.5 -167.5q-153 0 -275.5 76t-190.5 211t-68 304q0 258 151.5 427t384.5 169zM608 950q-126 0 -207.5 -106t-81.5 -273q0 -166 81 -270t206 -104t206 104t81 270q0 167 -80 273t-205 106z" />
    <glyph glyph-name="one.tnum" horiz-adv-x="788" 
d="M631 1167v-1167h-248v737l-246 -145l-106 225l592 350h8z" />
    <glyph glyph-name="two.tnum" horiz-adv-x="1089" 
d="M541 1167q196 0 321 -118t125 -289q0 -71 -16 -130.5t-49.5 -109.5t-65 -84t-82.5 -80l-149 -133h395v-223h-914v12l429 420q48 46 69 66.5t52.5 56.5t44 61t22.5 59.5t10 72.5q0 93 -56 144.5t-149 51.5q-136 0 -198 -145l-207 102q118 266 418 266z" />
    <glyph glyph-name="three.tnum" horiz-adv-x="1073" 
d="M537 1167q204 0 331 -120.5t127 -307.5q0 -212 -188 -303q106 -43 167.5 -128.5t61.5 -205.5q0 -200 -132.5 -324t-352.5 -124q-388 0 -496 385l226 53q31 -107 94.5 -163t173.5 -56q106 0 171.5 64.5t65.5 171.5q0 102 -71 166.5t-183 64.5h-161v190h166q89 0 150 54.5
t61 152.5q0 95 -59.5 153t-153.5 58q-90 0 -150 -49.5t-86 -144.5l-217 90q53 152 167.5 237.5t287.5 85.5z" />
    <glyph glyph-name="four.tnum" horiz-adv-x="1161" 
d="M930 1167v-1030h186v-198h-186v-248h-248v248h-676v8l914 1220h10zM692 543l-303 -410h303v410z" />
    <glyph glyph-name="five.tnum" horiz-adv-x="1110" 
d="M965 1145v-215h-566v-373q80 37 168 37q142 0 251 -52t174 -160t65 -259q0 -202 -134 -333.5t-356 -131.5q-374 0 -491 324l207 98q68 -203 268 -203q113 0 184.5 72t71.5 186t-72.5 186t-191.5 72q-126 0 -228 -82l-165 68v766h815z" />
    <glyph glyph-name="six.tnum" horiz-adv-x="1134" 
d="M575 946q207 -5 351.5 -144t144.5 -343q0 -139 -68 -251t-183.5 -173.5t-254.5 -61.5q-137 0 -252 61.5t-183.5 173.5t-68.5 251q0 142 80 266l488 735h286zM565 186q109 0 181.5 76t72.5 197q0 120 -72.5 196t-181.5 76q-107 0 -178.5 -76t-71.5 -196q0 -121 71.5 -197
t178.5 -76z" />
    <glyph glyph-name="seven.tnum" horiz-adv-x="1110" 
d="M1092 1147v-12l-742 -1448h-270l645 1239h-672v221h1039z" />
    <glyph glyph-name="eight.tnum" horiz-adv-x="1134" 
d="M561 1487q186 0 316.5 -115t130.5 -289q0 -99 -47 -181t-127 -130q107 -54 171 -146.5t64 -203.5q0 -128 -69.5 -231.5t-185.5 -160.5t-253 -57t-252 57t-183.5 160.5t-68.5 231.5q0 112 63 205t169 143q-80 48 -126 130t-46 183q0 115 60 208.5t161.5 144.5t222.5 51z
M561 1276q-90 0 -151.5 -58.5t-61.5 -146.5q0 -92 61.5 -152.5t151.5 -60.5t152.5 61t62.5 152q0 88 -62.5 146.5t-152.5 58.5zM561 655q-106 0 -179 -68t-73 -169t72.5 -167.5t179.5 -66.5t180.5 67t73.5 167q0 101 -74 169t-180 68z" />
    <glyph glyph-name="nine.tnum" horiz-adv-x="1134" 
d="M569 1167q137 0 251.5 -61t182.5 -173t68 -251q0 -142 -80 -266l-487 -735h-287l342 514q-136 3 -250 66.5t-181 174.5t-67 246q0 139 68.5 251t184.5 173t255 61zM569 410q107 0 178.5 76t71.5 196q0 121 -71.5 196.5t-178.5 75.5q-109 0 -182.5 -75.5t-73.5 -196.5
q0 -120 73.5 -196t182.5 -76z" />
    <glyph glyph-name="a.sups" horiz-adv-x="888" 
d="M371 1536q145 0 221 -96l8 82h180v-727h-180l-8 79q-75 -94 -221 -94q-141 0 -231.5 107t-90.5 270q0 164 91 271.5t231 107.5zM424 1360q-77 0 -124.5 -55t-47.5 -148t47.5 -149t124.5 -56q92 0 156 95v221q-60 92 -156 92z" />
    <glyph glyph-name="b.sups" horiz-adv-x="888" 
d="M309 1884v-430q74 82 209 82q142 0 232 -107.5t90 -271.5t-90 -270.5t-232 -106.5q-146 0 -221 94l-8 -79h-178v1089h198zM467 1360q-98 0 -158 -92v-221q64 -95 158 -95q77 0 124.5 56t47.5 149t-47.5 148t-124.5 55z" />
    <glyph glyph-name="c.sups" horiz-adv-x="761" 
d="M426 1536q196 0 309 -168l-147 -106q-60 100 -162 100q-83 0 -128.5 -57.5t-45.5 -147.5t46.5 -147.5t129.5 -57.5q101 0 164 103l145 -109q-111 -166 -311 -166q-165 0 -271 107t-106 270q0 164 105.5 271.5t271.5 107.5z" />
    <glyph glyph-name="d.sups" horiz-adv-x="888" 
d="M780 1884v-1089h-180l-8 79q-75 -94 -221 -94q-141 0 -231.5 107t-90.5 270q0 164 91 271.5t231 107.5q135 0 209 -82v430h200zM424 1360q-77 0 -124.5 -55t-47.5 -148t47.5 -149t124.5 -56q92 0 156 95v221q-60 92 -156 92z" />
    <glyph glyph-name="e.sups" horiz-adv-x="811" 
d="M418 1536q109 0 187 -51.5t114.5 -134t36.5 -185.5v-61h-506q5 -76 50 -117t130 -41q53 0 97.5 22.5t70.5 57.5l137 -115q-113 -131 -309 -131q-170 0 -273.5 105.5t-103.5 271.5q0 165 102.5 272t266.5 107zM410 1382q-69 0 -112 -41t-48 -106h311q-5 65 -44.5 106
t-106.5 41z" />
    <glyph glyph-name="f.sups" horiz-adv-x="573" 
d="M446 1884q107 0 166 -47l-71 -160q-35 35 -84 35q-44 0 -69.5 -30t-25.5 -80v-80h170v-170h-170v-557h-198v557h-127v170h127v69q0 129 76.5 211t205.5 82z" />
    <glyph glyph-name="g.sups" horiz-adv-x="890" 
d="M373 1536q144 0 219 -94l10 80h178v-699q0 -172 -106 -272t-285 -100q-215 0 -350 155l131 131q92 -114 219 -114q88 0 139.5 54.5t51.5 139.5v62q-74 -78 -207 -78q-142 0 -232 104t-90 264q0 159 90 263t232 104zM424 1364q-77 0 -124.5 -53t-47.5 -142
q0 -90 47.5 -143t124.5 -53q95 0 156 90v211q-61 90 -156 90z" />
    <glyph glyph-name="h.sups" horiz-adv-x="874" 
d="M309 1884v-434q75 86 199 86q131 0 201.5 -86.5t70.5 -235.5v-419h-200v409q0 66 -33 105t-92 39q-87 0 -146 -88v-465h-198v1089h198z" />
    <glyph glyph-name="i.sups" horiz-adv-x="417" 
d="M211 1870q50 0 83.5 -34.5t33.5 -86.5q0 -51 -33.5 -85t-83.5 -34q-53 0 -86 33.5t-33 85.5q0 53 33 87t86 34zM307 1522v-727h-196v727h196z" />
    <glyph glyph-name="j.sups" horiz-adv-x="438" 
d="M229 1870q52 0 85.5 -34t33.5 -87q0 -51 -33.5 -85t-85.5 -34q-51 0 -83.5 34t-32.5 85q0 53 32.5 87t83.5 34zM330 1522v-774q0 -137 -94.5 -217t-251.5 -80v172q67 0 107 30t40 80v789h199z" />
    <glyph glyph-name="k.sups" horiz-adv-x="841" 
d="M309 1884v-741l252 379h242l-221 -303l243 -424h-229l-143 254l-187 -254h-155v1089h198z" />
    <glyph glyph-name="l.sups" horiz-adv-x="417" 
d="M309 1884v-1089h-198v1089h198z" />
    <glyph glyph-name="m.sups" horiz-adv-x="1323" 
d="M967 1536q125 0 193.5 -86.5t68.5 -235.5v-419h-199v409q0 66 -31.5 105t-87.5 39q-85 0 -143 -86q0 -5 1 -14t1 -13v-440h-199v409q0 66 -31 105t-87 39q-87 0 -144 -86v-467h-198v727h178l8 -80q72 94 213 94q145 0 215 -123q91 123 242 123z" />
    <glyph glyph-name="o.sups" horiz-adv-x="862" 
d="M432 1536q162 0 270.5 -108.5t108.5 -270.5q0 -164 -108 -270.5t-271 -106.5q-167 0 -275 106.5t-108 270.5q0 162 108.5 270.5t274.5 108.5zM432 1360q-81 0 -130.5 -56.5t-49.5 -146.5t49.5 -147.5t130.5 -57.5q78 0 128 58t50 147t-50 146t-128 57z" />
    <glyph glyph-name="p.sups" horiz-adv-x="888" 
d="M518 1536q142 0 232 -106.5t90 -270.5q0 -165 -90 -272t-232 -107q-137 0 -209 80v-395h-198v1057h178l8 -82q76 96 221 96zM467 1362q-97 0 -158 -94v-221q63 -93 158 -93q77 0 124.5 56t47.5 149q0 92 -47.5 147.5t-124.5 55.5z" />
    <glyph glyph-name="q.sups" horiz-adv-x="888" 
d="M371 1536q145 0 221 -96l8 82h180v-1057h-200v395q-72 -80 -209 -80q-141 0 -231.5 107t-90.5 272q0 163 90.5 270t231.5 107zM424 1362q-77 0 -124.5 -55.5t-47.5 -147.5q0 -93 47.5 -149t124.5 -56q93 0 156 93v221q-61 94 -156 94z" />
    <glyph glyph-name="r.sups" horiz-adv-x="540" 
d="M510 1536v-199h-18q-111 0 -183 -96v-446h-198v727h176l12 -99q31 49 85 81t126 32z" />
    <glyph glyph-name="s.sups" horiz-adv-x="694" 
d="M375 1536q73 0 141 -22t115 -58l-78 -143q-77 63 -178 63t-101 -67q0 -28 28 -42t114 -34q115 -28 168 -78.5t53 -132.5q0 -107 -84 -174.5t-227 -67.5q-80 0 -156 24.5t-123 63.5l80 142q86 -72 201 -72q110 0 110 72q0 30 -24.5 43.5t-106.5 33.5q-121 30 -176 79
t-55 132q0 108 80.5 173t218.5 65z" />
    <glyph glyph-name="t.sups" horiz-adv-x="618" 
d="M354 1761v-239h209v-170h-209v-289q0 -49 28.5 -77t76.5 -28q56 0 94 23l49 -158q-65 -43 -162 -43q-133 0 -208.5 73.5t-75.5 207.5v291h-133v170h133v239h198z" />
    <glyph glyph-name="u.sups" horiz-adv-x="866" 
d="M758 1522v-727h-180l-9 75q-72 -90 -213 -90q-127 0 -194.5 85t-67.5 233v424h199v-414q0 -64 31 -101.5t88 -37.5q92 0 145 84v469h201z" />
    <glyph glyph-name="v.sups" horiz-adv-x="835" 
d="M815 1522l-395 -742h-6l-394 742h224l174 -363l174 363h223z" />
    <glyph glyph-name="w.sups" horiz-adv-x="1128" 
d="M1106 1522l-344 -742h-6l-193 365l-194 -365h-4l-345 742h224l141 -351l176 351h4l176 -351l142 351h223z" />
    <glyph glyph-name="x.sups" horiz-adv-x="776" 
d="M745 1522l-223 -361l236 -366h-236l-137 223l-137 -223h-234l234 366l-221 361h231l127 -219l129 219h231z" />
    <glyph glyph-name="y.sups" horiz-adv-x="845" 
d="M819 1522l-557 -1057h-227l282 504l-292 553h223l174 -363l176 363h221z" />
    <glyph glyph-name="z.sups" horiz-adv-x="700" 
d="M657 1522v-6l-311 -553h307v-168h-612v6l309 551h-289v170h596z" />
    <glyph glyph-name="G.smcp_I.smcp" horiz-adv-x="1228" 
d="M694 1610q133 0 249 -50t198.5 -136t130 -207t47.5 -259q0 -139 -47.5 -259t-130 -205.5t-198.5 -134t-249 -48.5q-271 0 -447.5 183t-176.5 464q0 184 80 333t223 234t321 85zM694 1473q-209 0 -344 -147t-135 -368q0 -222 134.5 -365.5t344.5 -143.5q209 0 345.5 144
t136.5 365t-137 368t-345 147z" />
    <glyph glyph-name="zero.slash" horiz-adv-x="1212" 
d="M606 1532q251 0 393 -209.5t142 -568.5q0 -361 -142 -571t-393 -210t-392.5 210t-141.5 571q0 359 141.5 568.5t392.5 209.5zM606 1323q-94 0 -158 -71.5t-94 -197t-30 -300.5q0 -163 28 -291l424 774q-67 86 -170 86zM606 182q141 0 212 152t71 420q0 149 -27 284
l-424 -774q67 -82 168 -82z" />
    <glyph glyph-name="K.alt" horiz-adv-x="1402" 
d="M1303 1505l-492 -661l555 -844h-307l-416 637l-227 -289v-348h-256v1505h256v-807l596 807h291z" />
    <glyph glyph-name="Kcommaaccent.alt" horiz-adv-x="1402" 
d="M1303 1505l-492 -661l555 -844h-307l-416 637l-227 -289v-348h-256v1505h256v-807l596 807h291zM692 -98q65 0 107.5 -33.5t42.5 -87.5q0 -71 -60 -119l-147 -133h-8v362q37 11 65 11z" />
    <glyph glyph-name="M.alt" horiz-adv-x="1738" 
d="M1579 1532v-1532h-256v901l-446 -534h-15l-446 536v-903h-256v1532h8l702 -811l701 811h8z" />
    <glyph glyph-name="idotaccent" horiz-adv-x="518" 
d="M258 1516q66 0 110 -44t44 -110t-44 -109t-110 -43t-109 43t-43 109t43 110t109 44zM383 1032v-1032h-248v1032h248z" />
    <glyph glyph-name="k.alt" horiz-adv-x="1132" 
d="M385 1556v-995l420 471h280l-346 -397l381 -635h-280l-271 449l-184 -195v-254h-246v1556h246z" />
    <glyph glyph-name="kcommaaccent.alt" horiz-adv-x="1132" 
d="M385 1556v-995l420 471h280l-346 -397l381 -635h-280l-271 449l-184 -195v-254h-246v1556h246zM563 -98q65 0 107.5 -33.5t42.5 -87.5q0 -71 -60 -119l-147 -133h-8v362q37 11 65 11z" />
    <glyph glyph-name="f_k.alt" horiz-adv-x="1894" 
d="M592 1556q110 0 182 -40l-57 -205q-44 28 -107 28q-68 0 -106.5 -46.5t-38.5 -125.5v-135h252v-209h-252v-823h-248v823h-182v209h182v129q0 173 103 284t272 111zM1147 1556v-995l418 471h282l-346 -397l379 -635h-281l-268 449l-184 -195v-254h-246v1556h246z" />
    </font>
</defs>
</svg>
