<?xml version="1.0" standalone="no"?>
<!DOCTYPE svg PUBLIC "-//W3C//DTD SVG 1.1//EN" "http://www.w3.org/Graphics/SVG/1.1/DTD/svg11.dtd" >
<svg xmlns="http://www.w3.org/2000/svg" xmlns:xlink="http://www.w3.org/1999/xlink" version="1.1">
<metadata>
Created by FontForge 20170731 at Tue May  2 12:34:28 2023
 By Aleksey,,,
Copyright (c) 2013 by Nico Inosanto. All rights reserved.
</metadata>
<defs>
<font id="Radikal-Regular" horiz-adv-x="1198" >
  <font-face 
    font-family="Radikal"
    font-weight="400"
    font-stretch="normal"
    units-per-em="2048"
    panose-1="0 0 5 0 0 0 0 0 0 0"
    ascent="1638"
    descent="-410"
    x-height="1028"
    cap-height="1505"
    bbox="-285 -512 2540 2191"
    underline-thickness="102"
    underline-position="-307"
    unicode-range="U+0020-FB02"
  />
<missing-glyph horiz-adv-x="1212" 
d="M1083 1432v-1432h-954v1432h954zM938 1331h-668l334 -530zM983 1219l-324 -510l324 -512v1022zM229 1208v-1001l316 502zM604 614l-328 -512h652z" />
    <glyph glyph-name="fi" unicode="fi" horiz-adv-x="1230" 
d="M575 1556q109 0 181 -43l-58 -167q-43 32 -114 32q-74 0 -118 -52t-44 -138v-160h268v-172h-268v-856h-201v856h-184v172h184v154q0 164 97 269t257 105zM987 1491q55 0 93 -37.5t38 -93.5q0 -57 -37.5 -94t-93.5 -37q-57 0 -94 37t-37 94q0 56 37 93.5t94 37.5z
M1087 1028v-1028h-200v1028h200z" />
    <glyph glyph-name="fl" unicode="fl" horiz-adv-x="1228" 
d="M569 1556q104 0 176 -43l-47 -167q-43 32 -114 32q-74 0 -118 -52t-44 -138v-160h268v-172h-268v-856h-201v856h-184v172h184v154q0 163 96 268.5t252 105.5zM1081 1556v-1556h-200v1556h200z" />
    <glyph glyph-name="f_j" unicode="fj" horiz-adv-x="1230" 
d="M575 1556q109 0 181 -43l-58 -167q-43 32 -114 32q-74 0 -118 -52t-44 -138v-160h268v-172h-268v-856h-201v856h-184v172h184v154q0 164 97 269t257 105zM987 1491q55 0 93 -37.5t38 -93.5q0 -57 -37.5 -94t-93.5 -37q-57 0 -94 37t-37 94q0 56 37 93.5t94 37.5z
M709 -492q-155 0 -263 82l107 156q73 -59 162 -59q75 0 123.5 52t48.5 140v1149h200v-1147q0 -161 -106.5 -267t-271.5 -106z" />
    <glyph glyph-name="f_b" unicode="fb" horiz-adv-x="1945" 
d="M569 1556q104 0 176 -43l-47 -167q-43 32 -114 32q-74 0 -118 -52t-44 -138v-160h268v-172h-268v-856h-201v856h-184v172h184v154q0 163 96 268.5t252 105.5zM1081 1556v-638q111 131 320 131q211 0 343 -151t132 -384t-132 -383.5t-343 -150.5q-114 0 -197.5 40.5
t-132.5 104.5l-8 -125h-182v1556h200zM1364 870q-177 0 -283 -174v-364q106 -174 283 -174q136 0 222.5 98.5t86.5 257.5t-86.5 257.5t-222.5 98.5z" />
    <glyph glyph-name="f_h" unicode="fh" horiz-adv-x="1916" 
d="M569 1556q104 0 176 -43l-47 -167q-43 32 -114 32q-74 0 -118 -52t-44 -138v-160h268v-172h-268v-856h-201v856h-184v172h184v154q0 163 96 268.5t252 105.5zM1081 1556v-641q60 65 133.5 99.5t182.5 34.5q183 0 286 -120t103 -321v-608h-201v596q0 118 -64.5 190
t-172.5 72q-152 0 -267 -164v-694h-200v1556h200z" />
    <glyph glyph-name="f_k" unicode="fk" horiz-adv-x="1830" 
d="M569 1556q104 0 176 -43l-47 -167q-43 32 -114 32q-74 0 -118 -52t-44 -138v-160h268v-172h-268v-856h-201v856h-184v172h184v154q0 163 96 268.5t252 105.5zM1081 1556v-1191l457 663h227l-315 -450l367 -578h-236l-258 412l-281 -412h-161v1556h200z" />
    <glyph glyph-name=".notdef" horiz-adv-x="1212" 
d="M1083 1432v-1432h-954v1432h954zM938 1331h-668l334 -530zM983 1219l-324 -510l324 -512v1022zM229 1208v-1001l316 502zM604 614l-328 -512h652z" />
    <glyph glyph-name=".null" horiz-adv-x="0" 
 />
    <glyph glyph-name="nonmarkingreturn" horiz-adv-x="682" 
 />
    <glyph glyph-name="space" unicode=" " horiz-adv-x="483" 
 />
    <glyph glyph-name="exclam" unicode="!" horiz-adv-x="536" 
d="M369 1505v-1085h-201v1085h201zM268 252q59 0 97 -37.5t38 -97.5t-38 -98.5t-97 -38.5q-60 0 -98.5 38.5t-38.5 98.5q0 59 38.5 97t98.5 38z" />
    <glyph glyph-name="quotedbl" unicode="&#x22;" horiz-adv-x="735" 
d="M170 950l-68 310q-1 7 -9.5 40t-12.5 58.5t-4 50.5q0 52 31 84.5t79 32.5q47 0 78 -32.5t31 -84.5q0 -25 -4.5 -51t-12.5 -57.5t-10 -40.5l-67 -310h-31zM535 950l-68 310q-2 9 -10 40.5t-12.5 57.5t-4.5 51q0 52 31.5 84.5t79.5 32.5q46 0 77 -32.5t31 -84.5
q0 -25 -4 -50.5t-12.5 -58.5t-9.5 -40l-68 -310h-30z" />
    <glyph glyph-name="numbersign" unicode="#" horiz-adv-x="1447" 
d="M1214 1505l-73 -411h270v-164h-299l-65 -367h268v-166h-295l-70 -397h-200l69 397h-344l-69 -397h-203l71 397h-272v166h301l66 367h-271v164h297l74 411h199l-72 -411h344l74 411h200zM913 930h-346l-63 -367h344z" />
    <glyph glyph-name="dollar" unicode="$" horiz-adv-x="1214" 
d="M1145 432q0 -187 -120 -309.5t-329 -145.5v-241h-170v241q-279 21 -469 189l117 174q80 -80 199 -128t241 -48q145 0 233.5 65t88.5 183q0 98 -81 157t-271 99q-183 40 -288 97t-148.5 135t-43.5 194q0 180 115 297t307 137v252h170v-252q223 -25 406 -156l-101 -178
q-187 147 -401 147q-129 0 -208 -59t-79 -176q0 -100 70 -152t260 -92q274 -60 388 -158t114 -272z" />
    <glyph glyph-name="percent" unicode="%" horiz-adv-x="1765" 
d="M426 1532q157 0 261 -108.5t104 -272.5q0 -162 -104 -268.5t-261 -106.5q-160 0 -263.5 106t-103.5 269q0 165 104 273t263 108zM1462 1505l-981 -1505h-178l981 1505h178zM426 1382q-92 0 -151.5 -65t-59.5 -166q0 -98 59.5 -162.5t151.5 -64.5q91 0 150 64.5t59 162.5
q0 101 -59 166t-150 65zM1341 729q158 0 262.5 -107.5t104.5 -271.5t-104 -269.5t-263 -105.5q-160 0 -263 105.5t-103 269.5q0 165 103.5 272t262.5 107zM1341 582q-92 0 -151.5 -66t-59.5 -166q0 -98 59.5 -162.5t151.5 -64.5q91 0 151 64.5t60 162.5q0 100 -60 166
t-151 66z" />
    <glyph glyph-name="ampersand" unicode="&#x26;" horiz-adv-x="1404" 
d="M1413 0h-260l-170 193q-100 -102 -209.5 -158t-249.5 -55q-95 0 -179 28t-148 80t-101 131.5t-37 175.5q0 78 20.5 139.5t66.5 116t101.5 98.5t145.5 101q-81 91 -125.5 175t-44.5 177q0 148 99.5 239t263.5 91q162 0 262 -90.5t100 -235.5q0 -38 -8.5 -72.5t-20.5 -62
t-35.5 -56t-43.5 -48.5t-54.5 -46t-58.5 -42t-65 -43l32 -37l287 -320l186 228h238l-295 -369zM588 1364q-78 0 -126 -45t-48 -125q0 -62 34.5 -119t100.5 -127q116 74 162.5 125.5t46.5 124.5q0 77 -47 121.5t-123 44.5zM535 158q93 0 170.5 47t152.5 129l-301 338l-53 59
q-65 -43 -103 -73.5t-72.5 -70t-49.5 -82.5t-15 -97q0 -114 77 -182t194 -68z" />
    <glyph glyph-name="quotesingle" unicode="'" horiz-adv-x="370" 
d="M170 950l-68 310q-1 7 -9.5 40t-12.5 58.5t-4 50.5q0 52 31 84.5t79 32.5q47 0 78 -32.5t31 -84.5q0 -25 -4.5 -51t-12.5 -57.5t-10 -40.5l-67 -310h-31z" />
    <glyph glyph-name="parenleft" unicode="(" horiz-adv-x="626" 
d="M403 1571l152 -111q-56 -72 -98 -140t-84 -162t-64 -212t-22 -252t22 -252t64 -212t84 -162t98 -140l-152 -110q-307 386 -307 876q0 151 26.5 286.5t74.5 244.5t96 188.5t110 157.5z" />
    <glyph glyph-name="parenright" unicode=")" horiz-adv-x="626" 
d="M223 1571q62 -78 110.5 -157.5t96 -188t74 -244.5t26.5 -287q0 -495 -307 -876l-151 110q57 71 99.5 139.5t83.5 162.5t63 212t22 252t-22 252t-63 212t-83.5 162.5t-99.5 139.5z" />
    <glyph glyph-name="asterisk" unicode="*" horiz-adv-x="843" 
d="M496 1503l-9 -272l256 92l48 -137l-263 -78l166 -215l-119 -84l-151 215l-154 -215l-116 84l165 215l-264 78l45 137l258 -92l-8 272h146z" />
    <glyph glyph-name="plus" unicode="+" horiz-adv-x="995" 
d="M588 1133v-324h325v-184h-325v-326h-185v326h-323v184h323v324h185z" />
    <glyph glyph-name="comma" unicode="," horiz-adv-x="452" 
d="M190 260q62 0 105 -40t43 -97q0 -38 -25 -90l-172 -344h-8v561q27 10 57 10z" />
    <glyph glyph-name="hyphen" unicode="-" horiz-adv-x="790" 
d="M709 637v-186h-627v186h627z" />
    <glyph glyph-name="period" unicode="." horiz-adv-x="499" 
d="M250 262q62 0 101.5 -39t39.5 -102q0 -61 -39.5 -101t-101.5 -40t-101.5 40t-39.5 101t39.5 101t101.5 40z" />
    <glyph glyph-name="slash" unicode="/" horiz-adv-x="970" 
d="M961 1503l-744 -1503h-207l748 1503h203z" />
    <glyph glyph-name="zero" unicode="0" horiz-adv-x="1206" 
d="M604 1532q249 0 387.5 -209t138.5 -569q0 -362 -138.5 -571.5t-387.5 -209.5q-251 0 -389.5 209.5t-138.5 571.5q0 360 138.5 569t389.5 209zM604 1350q-106 0 -179 -74.5t-107.5 -206.5t-34.5 -315q0 -279 81 -438.5t240 -159.5q157 0 238.5 159.5t81.5 438.5
q0 278 -81.5 437t-238.5 159z" />
    <glyph glyph-name="one" unicode="1" horiz-adv-x="765" 
d="M602 1532v-1532h-203v1157l-268 -158l-90 179l553 354h8z" />
    <glyph glyph-name="two" unicode="2" horiz-adv-x="1054" 
d="M510 1532q204 0 331.5 -125.5t127.5 -323.5q0 -133 -45 -236.5t-144 -225.5l-358 -437h565v-184h-924v12l558 713q81 102 112 180.5t31 181.5q0 120 -71.5 190.5t-182.5 70.5q-113 0 -178 -62t-90 -190l-185 43q38 194 152.5 293.5t300.5 99.5z" />
    <glyph glyph-name="three" unicode="3" horiz-adv-x="1073" 
d="M541 1532q196 0 319 -120t123 -308q0 -228 -203 -320q117 -44 183.5 -135t66.5 -219q0 -205 -129.5 -331t-343.5 -126q-194 0 -312 95t-175 278l184 49q38 -116 109 -176.5t194 -60.5q121 0 195.5 74t74.5 198q0 115 -82 189.5t-210 74.5h-164v178h168q100 0 170.5 61.5
t70.5 172.5t-67.5 176.5t-173.5 65.5q-199 0 -267 -215l-178 75q54 151 165 237.5t282 86.5z" />
    <glyph glyph-name="four" unicode="4" horiz-adv-x="1140" 
d="M895 1518v-1051h203v-184h-203v-283h-203v283h-678v8l871 1227h10zM694 936l-334 -471h334v471z" />
    <glyph glyph-name="five" unicode="5" horiz-adv-x="1101" 
d="M948 1505v-184h-583v-434q88 45 198 45q213 0 346 -130t133 -353q0 -205 -129.5 -340.5t-343.5 -135.5q-338 0 -481 299l166 93q44 -93 119.5 -150t183.5 -57q123 0 202 85t79 214q0 130 -81 210.5t-210 80.5q-82 0 -140.5 -25.5t-115.5 -71.5l-131 66v788h788z" />
    <glyph glyph-name="six" unicode="6" horiz-adv-x="1120" 
d="M557 965q135 0 248.5 -63.5t180.5 -178.5t67 -256t-67 -255t-180.5 -176.5t-248.5 -62.5q-134 0 -246 62.5t-178.5 176.5t-66.5 255q0 156 90 293l489 745h229l-354 -542q12 2 37 2zM557 156q123 0 207 87.5t84 223.5q0 138 -84 226.5t-207 88.5q-121 0 -203 -88.5
t-82 -226.5q0 -136 81.5 -223.5t203.5 -87.5z" />
    <glyph glyph-name="seven" unicode="7" horiz-adv-x="1101" 
d="M1073 1505v-12l-758 -1493h-221l678 1319h-717v186h1018z" />
    <glyph glyph-name="eight" unicode="8" horiz-adv-x="1120" 
d="M553 1532q180 0 305 -115t125 -291q0 -106 -50.5 -192.5t-135.5 -134.5q114 -54 183 -153t69 -220q0 -129 -67.5 -233.5t-181 -162t-247.5 -57.5t-247 57.5t-180 162t-67 233.5q0 122 68 221.5t180 149.5q-85 48 -134.5 134.5t-49.5 194.5q0 176 125 291t305 115z
M553 1352q-100 0 -170 -67.5t-70 -166.5q0 -105 69.5 -174.5t170.5 -69.5t170.5 69.5t69.5 174.5q0 99 -70 166.5t-170 67.5zM553 694q-121 0 -204 -78t-83 -194q0 -115 83 -191.5t204 -76.5t205 76.5t84 191.5q0 116 -84 194t-205 78z" />
    <glyph glyph-name="nine" unicode="9" horiz-adv-x="1120" 
d="M561 1532q134 0 246.5 -62.5t179 -176.5t66.5 -255q0 -156 -90 -293l-490 -745h-229l354 543q-12 -2 -37 -2q-135 0 -248 63.5t-180 178t-67 255.5t67 255t180 176.5t248 62.5zM561 723q121 0 203 88.5t82 226.5q0 136 -82 224t-203 88q-123 0 -207 -88t-84 -224
q0 -138 84 -226.5t207 -88.5z" />
    <glyph glyph-name="colon" unicode=":" horiz-adv-x="487" 
d="M244 1049q58 0 96.5 -38.5t38.5 -97.5t-38.5 -97t-96.5 -38t-96.5 38t-38.5 97t38.5 97.5t96.5 38.5zM244 250q59 0 97 -37.5t38 -97.5q0 -59 -38.5 -97t-96.5 -38t-96.5 38t-38.5 97t38.5 97t96.5 38z" />
    <glyph glyph-name="semicolon" unicode=";" horiz-adv-x="485" 
d="M244 1049q58 0 96.5 -38.5t38.5 -97.5t-38.5 -97t-96.5 -38t-96.5 38t-38.5 97t38.5 97.5t96.5 38.5zM199 250q62 0 104.5 -40t42.5 -101q0 -34 -24 -84l-172 -347h-9v564q21 8 58 8z" />
    <glyph glyph-name="less" unicode="&#x3c;" horiz-adv-x="806" 
d="M725 1102l-395 -393l395 -394h-254l-389 390v8l389 389h254z" />
    <glyph glyph-name="equal" unicode="=" horiz-adv-x="995" 
d="M913 1053v-187h-833v187h833zM913 563v-184h-833v184h833z" />
    <glyph glyph-name="greater" unicode="&#x3e;" horiz-adv-x="806" 
d="M336 1102l389 -389v-8l-389 -390h-254l393 394l-393 393h254z" />
    <glyph glyph-name="question" unicode="?" horiz-adv-x="1005" 
d="M487 1532q195 0 319 -117t124 -295q0 -71 -19 -130.5t-48.5 -100t-66 -75.5t-73 -66t-66 -62.5t-48.5 -73.5t-19 -92v-100h-203v125q0 62 18.5 114t47.5 88.5t64.5 69.5t71 64.5t64.5 64t47.5 76.5t18.5 96q0 107 -66 168.5t-168 61.5q-203 0 -245 -213l-199 34
q38 174 149.5 268.5t296.5 94.5zM489 252q59 0 97.5 -37.5t38.5 -97.5t-38.5 -98.5t-97.5 -38.5q-60 0 -98.5 38.5t-38.5 98.5q0 59 38.5 97t98.5 38z" />
    <glyph glyph-name="at" unicode="@" horiz-adv-x="1759" 
d="M879 1305q239 0 425 -101t289 -283t103 -415q0 -208 -93 -333.5t-257 -125.5q-158 0 -209 123l-4 10q-105 -133 -297 -133q-171 0 -280.5 126t-109.5 319q0 194 109.5 320t280.5 126q192 0 282 -117l6 101h156v-635q0 -90 84 -90q80 0 125 85t45 224q0 186 -81 332.5
t-231 229.5t-343 83q-190 0 -339.5 -85t-232 -234t-82.5 -336q0 -141 47.5 -262.5t131.5 -207.5t204 -135t260 -49q143 0 265 49l47 -145q-142 -57 -312 -57q-175 0 -325 60t-255.5 166t-165 256t-59.5 325q0 232 103.5 416.5t290 288.5t422.5 104zM874 788
q-113 0 -184.5 -81.5t-71.5 -214.5t71.5 -214t184.5 -81q144 0 236 133v325q-96 133 -236 133z" />
    <glyph glyph-name="A" unicode="A" horiz-adv-x="1429" 
d="M719 1532l692 -1532h-223l-135 307h-676l-135 -307h-224l693 1532h8zM715 1071l-260 -582h520z" />
    <glyph glyph-name="B" unicode="B" horiz-adv-x="1357" 
d="M700 1505q227 0 348 -105.5t121 -291.5q0 -115 -52 -194.5t-126 -116.5q139 -37 221 -128t82 -247q0 -197 -136 -309.5t-357 -112.5h-633v1505h532zM676 1315h-301v-455h319q124 0 195.5 63.5t71.5 163.5q0 108 -73 168t-212 60zM756 674h-381v-484h403q143 0 224 62.5
t81 179.5q0 118 -82 180t-245 62z" />
    <glyph glyph-name="C" unicode="C" horiz-adv-x="1421" 
d="M827 1532q323 0 539 -219l-133 -152q-164 178 -406 178q-238 0 -389 -165.5t-151 -421.5q0 -167 68 -301t191.5 -209.5t280.5 -75.5q253 0 416 188l131 -155q-207 -226 -547 -226q-161 0 -301 59.5t-238.5 162.5t-155 247.5t-56.5 309.5q0 222 96 400t268 279t387 101z
" />
    <glyph glyph-name="D" unicode="D" horiz-adv-x="1507" 
d="M623 1505q382 0 595.5 -197.5t213.5 -553.5q0 -357 -212.5 -555.5t-596.5 -198.5h-455v1505h455zM616 1311h-239v-1118h239q292 0 448.5 147t156.5 414q0 265 -158 411t-447 146z" />
    <glyph glyph-name="E" unicode="E" 
d="M1100 1505v-192h-723v-457h635v-186h-635v-477h739v-193h-948v1505h932z" />
    <glyph glyph-name="F" unicode="F" horiz-adv-x="1103" 
d="M1069 1505v-192h-692v-477h586v-189h-586v-647h-209v1505h901z" />
    <glyph glyph-name="G" unicode="G" horiz-adv-x="1523" 
d="M827 1532q323 0 539 -219l-133 -152q-164 178 -406 178q-238 0 -389 -165.5t-151 -421.5q0 -168 70.5 -301t200.5 -209t296 -76q195 0 340 106v338h-383v183h592v-623q-212 -197 -549 -197q-224 0 -402 101.5t-277 279t-99 398.5q0 222 96 400t268 279t387 101z" />
    <glyph glyph-name="H" unicode="H" horiz-adv-x="1501" 
d="M1333 1505v-1505h-209v674h-747v-674h-209v1505h209v-639h747v639h209z" />
    <glyph glyph-name="I" unicode="I" horiz-adv-x="544" 
d="M377 1505v-1505h-209v1505h209z" />
    <glyph glyph-name="J" unicode="J" horiz-adv-x="1105" 
d="M961 1505v-1075q0 -208 -126.5 -332.5t-330.5 -124.5q-94 0 -177 32.5t-147 93t-101.5 154.5t-37.5 210h205q0 -140 67.5 -218.5t184.5 -78.5q119 0 186.5 72.5t67.5 201.5v1065h209z" />
    <glyph glyph-name="K" unicode="K" horiz-adv-x="1355" 
d="M1262 1505l-451 -733l516 -772h-252l-383 582l-362 -582h-162v1505h209v-1089l649 1089h236z" />
    <glyph glyph-name="L" unicode="L" horiz-adv-x="1120" 
d="M377 1505v-1319h717v-186h-926v1505h209z" />
    <glyph glyph-name="M" unicode="M" horiz-adv-x="1787" 
d="M1618 1532v-1532h-209v831l-508 -843h-14l-510 843v-831h-209v1532h8l717 -1172l717 1172h8z" />
    <glyph glyph-name="N" unicode="N" horiz-adv-x="1492" 
d="M176 1532l940 -1036v1009h209v-1532h-8l-940 1039v-1012h-209v1532h8z" />
    <glyph glyph-name="O" unicode="O" horiz-adv-x="1669" 
d="M834 1532q161 0 302 -59t241.5 -162t158 -248t57.5 -311q0 -222 -98.5 -400.5t-272 -278.5t-388.5 -100q-162 0 -303 58.5t-241 161.5t-157 247.5t-57 311.5q0 166 57 311t157 248t241 162t303 59zM834 1339q-239 0 -393 -166t-154 -421t154 -420.5t393 -165.5
t392.5 165.5t153.5 420.5q0 168 -69.5 302t-194.5 209.5t-282 75.5z" />
    <glyph glyph-name="P" unicode="P" horiz-adv-x="1265" 
d="M690 1505q150 0 267.5 -54t187 -163.5t69.5 -259.5q0 -149 -69 -257.5t-186.5 -163t-268.5 -54.5h-313v-553h-209v1505h522zM672 1321h-295v-584h295q153 0 241 75.5t88 215.5t-88.5 216.5t-240.5 76.5z" />
    <glyph glyph-name="Q" unicode="Q" horiz-adv-x="1669" 
d="M1653 -188h-256l-209 243q-161 -82 -354 -82q-162 0 -303 58.5t-241 161.5t-157 247.5t-57 311.5q0 166 57 311t157 248t241 162t303 59q161 0 302 -59t241.5 -162t158 -248t57.5 -311q0 -179 -64 -329.5t-181 -256.5zM834 166q121 0 219 43l-234 272l148 127l247 -289
q79 79 122.5 191t43.5 242q0 168 -69.5 302t-194.5 209.5t-282 75.5q-239 0 -393 -166t-154 -421t154 -420.5t393 -165.5z" />
    <glyph glyph-name="R" unicode="R" horiz-adv-x="1294" 
d="M1266 0h-246l-352 571h-4h-291v-571h-209v1505h500q151 0 270 -53t189.5 -160.5t70.5 -253.5q0 -160 -81.5 -270.5t-223.5 -159.5zM373 1321v-565h272q157 0 247.5 72.5t90.5 209.5q0 135 -91.5 209t-246.5 74h-272z" />
    <glyph glyph-name="S" unicode="S" horiz-adv-x="1214" 
d="M602 1532q276 0 500 -160l-101 -178q-187 147 -401 147q-129 0 -208 -59t-79 -176q0 -100 70 -152t260 -92q274 -60 388 -158t114 -272q0 -206 -146 -332.5t-391 -126.5q-330 0 -551 193l117 174q80 -80 199 -128t241 -48q145 0 233.5 65t88.5 183q0 98 -81 157t-271 99
q-183 40 -288 97t-148.5 135t-43.5 194q0 198 137.5 318t360.5 120z" />
    <glyph glyph-name="T" unicode="T" horiz-adv-x="1316" 
d="M1290 1505v-186h-528v-1319h-209v1319h-526v186h1263z" />
    <glyph glyph-name="U" unicode="U" horiz-adv-x="1443" 
d="M1296 1505v-975q0 -258 -149 -407.5t-424 -149.5q-277 0 -426.5 149.5t-149.5 407.5v975h209v-962q0 -174 95 -275.5t272 -101.5q174 0 269 102t95 275v962h209z" />
    <glyph glyph-name="V" unicode="V" horiz-adv-x="1460" 
d="M1442 1505l-707 -1530h-8l-709 1530h228l485 -1069l486 1069h225z" />
    <glyph glyph-name="W" unicode="W" horiz-adv-x="1982" 
d="M1952 1505l-580 -1530h-8l-373 981l-373 -981h-8l-579 1530h231l352 -979l373 979h8l373 -979l352 979h232z" />
    <glyph glyph-name="X" unicode="X" horiz-adv-x="1372" 
d="M1323 1505l-494 -739l514 -766h-243l-414 625l-414 -625h-243l514 766l-494 739h244l393 -596l393 596h244z" />
    <glyph glyph-name="Y" unicode="Y" horiz-adv-x="1351" 
d="M1337 1503l-557 -866v-637h-209v633l-557 870h244l418 -659l416 659h245z" />
    <glyph glyph-name="Z" unicode="Z" horiz-adv-x="1187" 
d="M1110 1505v-8l-727 -1307h750v-190h-1082v8l733 1307h-700v190h1026z" />
    <glyph glyph-name="bracketleft" unicode="[" horiz-adv-x="651" 
d="M580 1575v-164h-275v-1434h275v-163h-467v1761h467z" />
    <glyph glyph-name="backslash" unicode="\" horiz-adv-x="970" 
d="M215 1503l746 -1503h-205l-746 1503h205z" />
    <glyph glyph-name="bracketright" unicode="]" horiz-adv-x="663" 
d="M551 1575v-1761h-479v163h284v1434h-284v164h479z" />
    <glyph glyph-name="asciicircum" unicode="^" horiz-adv-x="1091" 
d="M545 1556l506 -610h-185l-321 387l-318 -387h-186z" />
    <glyph glyph-name="underscore" unicode="_" horiz-adv-x="1638" 
d="M1556 0v-184h-1474v184h1474z" />
    <glyph glyph-name="grave" unicode="`" horiz-adv-x="604" 
d="M293 1448l280 -268h-202l-320 268h242z" />
    <glyph glyph-name="a" unicode="a" horiz-adv-x="1193" 
d="M539 1049q211 0 321 -146l8 125h183v-1028h-183l-8 125q-110 -145 -321 -145q-209 0 -338 150t-129 384t129 384.5t338 150.5zM575 870q-134 0 -217.5 -98.5t-83.5 -257.5t83.5 -257.5t217.5 -98.5q95 0 159.5 45.5t115.5 128.5v364q-51 83 -115.5 128.5t-159.5 45.5z
" />
    <glyph glyph-name="b" unicode="b" horiz-adv-x="1212" 
d="M348 1556v-638q111 131 320 131q211 0 343 -151t132 -384t-132 -383.5t-343 -150.5q-114 0 -197.5 40.5t-132.5 104.5l-8 -125h-183v1556h201zM631 870q-177 0 -283 -174v-364q106 -174 283 -174q136 0 222.5 98.5t86.5 257.5t-86.5 257.5t-222.5 98.5z" />
    <glyph glyph-name="c" unicode="c" horiz-adv-x="1042" 
d="M590 1049q259 0 409 -226l-141 -108q-101 157 -268 157q-148 0 -232 -100.5t-84 -257.5t84 -257.5t232 -100.5q90 0 158.5 44t113.5 113l142 -108q-149 -225 -414 -225q-155 0 -273.5 69t-181.5 190t-63 275q0 235 142.5 385t375.5 150z" />
    <glyph glyph-name="d" unicode="d" horiz-adv-x="1214" 
d="M1067 1556v-1556h-182l-8 125q-49 -64 -132.5 -104.5t-197.5 -40.5q-211 0 -343 150.5t-132 383.5t132 384t343 151q208 0 319 -131v638h201zM584 870q-136 0 -223 -98.5t-87 -257.5t87 -257.5t223 -98.5q176 0 282 174v364q-106 174 -282 174z" />
    <glyph glyph-name="e" unicode="e" horiz-adv-x="1095" 
d="M563 1049q112 0 201.5 -41.5t146.5 -114t87 -167t30 -204.5v-80h-754q9 -139 90.5 -213.5t225.5 -74.5q96 0 169.5 35.5t114.5 93.5l134 -111q-156 -192 -418 -192q-235 0 -376.5 148.5t-141.5 383.5q0 233 137.5 385t353.5 152zM563 877q-124 0 -202.5 -74t-86.5 -197
h555q-5 124 -74.5 197.5t-191.5 73.5z" />
    <glyph glyph-name="f" unicode="f" horiz-adv-x="733" 
d="M575 1556q139 0 226 -71l-78 -160q-53 53 -137 53q-76 0 -120 -52t-44 -138v-160h268v-172h-268v-856h-201v856h-184v172h184v150q0 167 96 272.5t258 105.5z" />
    <glyph glyph-name="g" unicode="g" horiz-adv-x="1210" 
d="M547 1049q114 0 197.5 -41t132.5 -105l8 125h182v-1001q0 -240 -141 -379.5t-377 -139.5q-290 0 -473 216l133 131q141 -168 338 -168q147 0 233 91.5t86 244.5v88q-111 -131 -319 -131q-211 0 -343 150.5t-132 383.5t132 384t343 151zM584 870q-136 0 -223 -98.5
t-87 -257.5t87 -257.5t223 -98.5q176 0 282 174v364q-106 174 -282 174z" />
    <glyph glyph-name="h" unicode="h" horiz-adv-x="1183" 
d="M348 1556v-641q60 65 133.5 99.5t182.5 34.5q183 0 286 -120t103 -321v-608h-201v596q0 118 -65 190t-173 72q-151 0 -266 -164v-694h-201v1556h201z" />
    <glyph glyph-name="i" unicode="i" horiz-adv-x="487" 
d="M244 1491q56 0 93.5 -37.5t37.5 -93.5q0 -57 -37.5 -94t-93.5 -37q-57 0 -94 37t-37 94q0 56 37 93.5t94 37.5zM344 1028v-1028h-201v1028h201z" />
    <glyph glyph-name="j" unicode="j" horiz-adv-x="499" 
d="M256 1491q56 0 93.5 -37.5t37.5 -93.5q0 -57 -37.5 -94t-93.5 -37q-57 0 -94 37t-37 94q0 56 37 93.5t94 37.5zM-23 -492q-154 0 -262 82l107 156q73 -59 162 -59q75 0 123.5 52t48.5 140v1149h200v-1147q0 -161 -107 -267t-272 -106z" />
    <glyph glyph-name="k" unicode="k" horiz-adv-x="1097" 
d="M348 1556v-1191l457 663h227l-315 -450l366 -578h-235l-258 412l-281 -412h-162v1556h201z" />
    <glyph glyph-name="l" unicode="l" horiz-adv-x="495" 
d="M348 1556v-1556h-201v1556h201z" />
    <glyph glyph-name="m" unicode="m" horiz-adv-x="1845" 
d="M1341 1049q175 0 274 -120t99 -321v-608h-203v596q0 118 -60.5 190t-162.5 72q-146 0 -264 -168q4 -46 4 -65v-625h-201v596q0 118 -60.5 190t-162.5 72q-81 0 -142 -42.5t-118 -119.5v-696h-201v1028h183l8 -125q49 64 130.5 105t190.5 41q111 0 192 -49t126 -140
q133 189 368 189z" />
    <glyph glyph-name="n" unicode="n" horiz-adv-x="1179" 
d="M659 1049q183 0 286.5 -120t103.5 -321v-608h-201v596q0 118 -65 190t-173 72q-151 0 -266 -164v-694h-201v1028h183l8 -125q49 64 132 105t193 41z" />
    <glyph glyph-name="o" unicode="o" 
d="M598 1049q150 0 271 -69.5t189 -192t68 -275.5q0 -231 -149.5 -381.5t-378.5 -150.5t-377.5 150t-148.5 382t149 384.5t377 152.5zM598 870q-141 0 -232.5 -101.5t-91.5 -256.5q0 -154 91.5 -254t232.5 -100t233.5 100t92.5 254q0 155 -92.5 256.5t-233.5 101.5z" />
    <glyph glyph-name="p" unicode="p" horiz-adv-x="1210" 
d="M664 1049q211 0 343 -151t132 -384t-132 -383.5t-343 -150.5q-209 0 -320 131v-582h-201v1499h183l8 -125q49 64 132.5 105t197.5 41zM627 870q-177 0 -283 -174v-364q106 -174 283 -174q136 0 222.5 98.5t86.5 257.5t-86.5 257.5t-222.5 98.5z" />
    <glyph glyph-name="q" unicode="q" horiz-adv-x="1210" 
d="M547 1049q114 0 197.5 -41t132.5 -105l8 125h182v-1499h-201v582q-111 -131 -319 -131q-211 0 -343 150.5t-132 383.5t132 384t343 151zM584 870q-136 0 -223 -98.5t-87 -257.5t87 -257.5t223 -98.5q176 0 282 174v364q-106 174 -282 174z" />
    <glyph glyph-name="r" unicode="r" horiz-adv-x="669" 
d="M641 1049v-201h-18q-89 0 -155 -44.5t-124 -127.5v-676h-201v1028h183l10 -139q43 69 121 114.5t184 45.5z" />
    <glyph glyph-name="s" unicode="s" horiz-adv-x="931" 
d="M485 1049q100 0 195.5 -28.5t159.5 -72.5l-84 -160q-126 86 -279 86q-180 0 -180 -118q0 -59 44.5 -86.5t164.5 -55.5q184 -44 269 -119.5t85 -191.5q0 -148 -111 -235.5t-300 -87.5q-243 0 -392 118l93 162q125 -106 301 -106q96 0 151 32.5t55 96.5q0 61 -46.5 92.5
t-164.5 58.5q-187 43 -268.5 112.5t-81.5 188.5q0 147 104 230.5t285 83.5z" />
    <glyph glyph-name="t" unicode="t" horiz-adv-x="815" 
d="M426 1376v-348h324v-172h-324v-512q0 -86 47 -134t123 -48q78 0 154 37l57 -164q-87 -55 -221 -55q-167 0 -264 94.5t-97 269.5v512h-200v172h200v348h201z" />
    <glyph glyph-name="u" unicode="u" horiz-adv-x="1163" 
d="M1020 1028v-1028h-182l-9 125q-113 -145 -329 -145q-174 0 -270.5 118t-96.5 318v612h201v-602q0 -115 58.5 -185.5t158.5 -70.5q89 0 151 43.5t117 120.5v694h201z" />
    <glyph glyph-name="v" unicode="v" horiz-adv-x="1095" 
d="M1081 1028l-528 -1048h-8l-531 1048h211l324 -659l325 659h207z" />
    <glyph glyph-name="w" unicode="w" horiz-adv-x="1550" 
d="M1536 1028l-457 -1048h-8l-295 610l-297 -610h-8l-457 1048h207l264 -625l287 625h8l285 -625l266 625h205z" />
    <glyph glyph-name="x" unicode="x" horiz-adv-x="1024" 
d="M981 1028l-338 -506l352 -522h-227l-260 393l-258 -393h-227l352 522l-338 506h225l246 -379l248 379h225z" />
    <glyph glyph-name="y" unicode="y" horiz-adv-x="1095" 
d="M1081 1028l-751 -1499h-230l338 639l-424 860h209l322 -668l327 668h209z" />
    <glyph glyph-name="z" unicode="z" horiz-adv-x="927" 
d="M879 1028v-8l-519 -848h517v-172h-830v8l516 848h-485v172h801z" />
    <glyph glyph-name="braceleft" unicode="{" horiz-adv-x="706" 
d="M635 1575v-164q-114 0 -174.5 -66.5t-46.5 -209.5l18 -174q23 -213 -117 -267q140 -54 117 -266l-18 -174q-14 -143 47 -210t174 -67v-163q-226 0 -331 118.5t-79 358.5l19 170q19 181 -191 229v8q210 48 191 230l-19 170q-26 240 79 358.5t331 118.5z" />
    <glyph glyph-name="bar" unicode="|" horiz-adv-x="483" 
d="M338 1432v-1680h-193v1680h193z" />
    <glyph glyph-name="braceright" unicode="}" horiz-adv-x="706" 
d="M72 1575q227 0 333.5 -119t77.5 -358l-20 -170q-22 -182 190 -230v-8q-212 -48 -190 -229l20 -170q29 -239 -77.5 -358t-333.5 -119v163q113 0 174 67t47 210l-19 174q-23 212 117 266q-140 54 -117 267l19 174q14 143 -46.5 209.5t-174.5 66.5v164z" />
    <glyph glyph-name="asciitilde" unicode="~" horiz-adv-x="1261" 
d="M418 903q59 0 110.5 -18.5t88 -44.5t70.5 -52t74 -44.5t83 -18.5q79 0 133 44.5t82 117.5l121 -92q-47 -119 -134.5 -187.5t-201.5 -68.5q-61 0 -111.5 18.5t-85 44.5t-67 52t-73.5 44.5t-89 18.5q-79 0 -133 -44t-82 -118l-121 92q47 120 133.5 188t202.5 68z" />
    <glyph glyph-name="exclamdown" unicode="&#xa1;" horiz-adv-x="536" 
d="M270 768q-59 0 -97 37.5t-38 97.5t38 98.5t97 38.5q60 0 99 -38.5t39 -98.5q0 -59 -39 -97t-99 -38zM170 -485v1085h201v-1085h-201z" />
    <glyph glyph-name="cent" unicode="&#xa2;" horiz-adv-x="1042" 
d="M1004 205q-130 -193 -338 -221v-283h-170v285q-194 31 -309 175.5t-115 352.5t115 352.5t309 175.5v267h170v-265q203 -28 333 -221l-141 -108q-101 157 -268 157q-148 0 -232 -100.5t-84 -257.5t84 -257.5t232 -100.5q90 0 158.5 44t113.5 113z" />
    <glyph glyph-name="sterling" unicode="&#xa3;" horiz-adv-x="1187" 
d="M915 408h199q0 -408 -377 -408h-704v8q5 9 33.5 56t37.5 63.5t34 63t34.5 72t26.5 71t22 80.5t10 80.5t1 90.5t-15 91h-172v162h133q-33 125 -33 215q0 223 121 351t328 128q162 0 271.5 -89.5t150.5 -215.5l-195 -58q-24 83 -84 133t-149 50q-118 0 -180 -77t-62 -208
q0 -73 37 -229h367v-162h-328q16 -78 16 -133q0 -181 -104 -363h366q111 0 163 53t52 175z" />
    <glyph glyph-name="currency" unicode="&#xa4;" horiz-adv-x="1335" 
d="M1130 1137l130 -129l-248 -246q63 -97 63 -223q0 -130 -63 -224l248 -245l-130 -129l-249 247q-92 -61 -213 -61q-120 0 -215 61l-248 -247l-129 129l248 245q-66 98 -66 224q0 122 66 223l-248 246l129 129l248 -248q91 63 215 63q121 0 215 -63zM668 799
q-104 0 -172 -74.5t-68 -185.5t68 -184.5t172 -73.5q102 0 169.5 73.5t67.5 184.5t-67.5 185.5t-169.5 74.5z" />
    <glyph glyph-name="yen" unicode="&#xa5;" horiz-adv-x="1347" 
d="M1335 1503l-477 -735h258v-152h-338v-172h338v-151h-338v-293h-209v293h-336v151h336v172h-336v152h254l-475 735h244l418 -659l416 659h245z" />
    <glyph glyph-name="brokenbar" unicode="&#xa6;" horiz-adv-x="483" 
d="M338 1432v-631h-193v631h193zM338 383v-631h-193v631h193z" />
    <glyph glyph-name="section" unicode="&#xa7;" horiz-adv-x="878" 
d="M471 1532q183 0 299 -119l-113 -125q-75 78 -186 78q-88 0 -140 -44t-52 -118q0 -118 135 -162q24 -8 74 -17t75 -17q116 -34 186 -126t70 -212q0 -97 -47.5 -173.5t-128.5 -115.5q145 -74 145 -231q0 -145 -111 -244t-288 -99q-211 0 -334 144l121 123q84 -101 215 -101
q94 0 151.5 47.5t57.5 126.5q0 54 -29.5 89t-91.5 59q-19 7 -40 12t-47.5 9.5t-41.5 7.5q-128 28 -206 122t-78 224q0 96 47 172t129 114q-152 78 -152 246q0 139 104.5 234.5t276.5 95.5zM442 862q-87 0 -141.5 -53.5t-54.5 -138.5t54 -138t142 -53q87 0 143 53.5t56 137.5
t-56 138t-143 54z" />
    <glyph glyph-name="dieresis" unicode="&#xa8;" horiz-adv-x="655" 
d="M152 1423q49 0 80.5 -31t31.5 -79t-31.5 -79.5t-80.5 -31.5q-47 0 -79 32t-32 79t32 78.5t79 31.5zM502 1423q47 0 79.5 -31.5t32.5 -78.5t-32.5 -79t-79.5 -32t-79 32t-32 79t32 78.5t79 31.5z" />
    <glyph glyph-name="copyright" unicode="&#xa9;" horiz-adv-x="1648" 
d="M823 1532q212 0 382.5 -101.5t266 -280t95.5 -400.5q0 -166 -56 -310.5t-154 -247t-236.5 -161t-297.5 -58.5q-160 0 -298.5 58.5t-235.5 161t-152 247t-55 310.5q0 222 94 400.5t263.5 280t383.5 101.5zM823 1401q-174 0 -313 -84.5t-216 -233t-77 -333.5t77 -332.5
t215.5 -230.5t313.5 -83q174 0 312.5 83t216.5 230.5t78 332.5q0 184 -78 333t-217 233.5t-312 84.5zM852 1178q181 0 297 -125l-98 -117q-76 86 -199 86q-119 0 -190.5 -75t-71.5 -199q0 -126 71 -199.5t191 -73.5q125 0 201 86l98 -117q-115 -127 -299 -127
q-185 0 -305.5 122t-120.5 309q0 185 121 307.5t305 122.5z" />
    <glyph glyph-name="ordfeminine" unicode="&#xaa;" horiz-adv-x="880" 
d="M377 1532q149 0 231 -98l6 84h150v-723h-150l-6 84q-83 -99 -231 -99q-142 0 -233 106t-91 269t91 270t233 107zM418 1386q-88 0 -143.5 -63.5t-55.5 -167.5t55.5 -167.5t143.5 -63.5q107 0 180 106v252q-71 104 -180 104z" />
    <glyph glyph-name="guillemotleft" unicode="&#xab;" horiz-adv-x="1071" 
d="M537 938l-277 -414l277 -413h-189l-282 409v8l282 410h189zM1006 938l-279 -414l279 -413h-189l-282 409v8l282 410h189z" />
    <glyph glyph-name="logicalnot" unicode="&#xac;" horiz-adv-x="1191" 
d="M1116 889v-570h-143v429h-897v141h1040z" />
    <glyph glyph-name="registered" unicode="&#xae;" horiz-adv-x="1372" 
d="M686 1608q174 0 314.5 -84t219 -231.5t78.5 -329.5q0 -183 -78.5 -329.5t-218.5 -229t-315 -82.5q-176 0 -316 82.5t-218 229t-78 329.5t77.5 330t218 231t316.5 84zM686 446q210 0 346.5 146t136.5 371q0 224 -136.5 372t-346.5 148q-211 0 -347 -148t-136 -372
q0 -225 135.5 -371t347.5 -146zM946 1083q0 -71 -35 -124t-94 -80l162 -267h-156l-147 242h-101v-242h-135v695h256q106 0 178 -60.5t72 -163.5zM575 1184v-207h109q127 0 127 104q0 51 -33.5 77t-93.5 26h-109z" />
    <glyph glyph-name="macron" unicode="&#xaf;" horiz-adv-x="614" 
d="M573 1362v-139h-532v139h532z" />
    <glyph glyph-name="degree" unicode="&#xb0;" horiz-adv-x="702" 
d="M354 1530q123 0 205 -82t82 -205q0 -124 -81.5 -204.5t-205.5 -80.5q-128 0 -210.5 80.5t-82.5 204.5q0 123 83 205t210 82zM354 1399q-67 0 -110 -44t-43 -112q0 -66 43 -109.5t110 -43.5q63 0 106.5 43.5t43.5 109.5q0 67 -43.5 111.5t-106.5 44.5z" />
    <glyph glyph-name="plusminus" unicode="&#xb1;" horiz-adv-x="995" 
d="M588 1343v-321h325v-186h-325v-324h-185v324h-323v186h323v321h185zM913 362v-184h-833v184h833z" />
    <glyph glyph-name="two.sups" unicode="&#xb2;" horiz-adv-x="706" 
d="M356 1681q128 0 207.5 -74t79.5 -192q0 -71 -26 -128t-82 -126l-183 -219h299v-135h-559v8l316 424q45 55 63 93.5t18 84.5q0 59 -37 94t-96 35q-119 0 -143 -133l-137 31q47 237 280 237z" />
    <glyph glyph-name="three.sups" unicode="&#xb3;" horiz-adv-x="696" 
d="M358 1681q122 0 198.5 -73t76.5 -183q0 -123 -113 -176q64 -26 100.5 -75t36.5 -119q0 -117 -80 -190.5t-212 -73.5q-236 0 -297 223l135 33q20 -59 58 -89t104 -30q63 0 102 37t39 98q0 56 -42.5 93.5t-109.5 37.5h-96v117h100q54 2 89.5 31.5t35.5 84.5q0 53 -36.5 86
t-92.5 33q-104 0 -139 -108l-131 57q62 186 274 186z" />
    <glyph glyph-name="acute" unicode="&#xb4;" horiz-adv-x="604" 
d="M553 1448l-320 -268h-202l280 268h242z" />
    <glyph glyph-name="mu" unicode="&#xb5;" horiz-adv-x="1204" 
d="M1044 1028v-1028h-182l-8 125q-50 -64 -128.5 -104.5t-180.5 -40.5q-119 0 -187 47v-498h-200v1499h200v-602q0 -115 58.5 -185.5t158.5 -70.5q89 0 151.5 43.5t117.5 120.5v694h200z" />
    <glyph glyph-name="paragraph" unicode="&#xb6;" horiz-adv-x="1435" 
d="M1362 1505v-159h-182v-1571h-172v1571h-222v-1571h-172v852h-6q-93 0 -175 16t-152.5 50t-121.5 84t-79.5 121.5t-28.5 158.5q0 218 153 333t406 115h752z" />
    <glyph glyph-name="periodcentered" unicode="&#xb7;" horiz-adv-x="434" 
d="M217 659q59 0 97 -38.5t38 -96.5q0 -57 -38.5 -95t-96.5 -38t-96.5 38t-38.5 95q0 58 38 96.5t97 38.5z" />
    <glyph glyph-name="cedilla" unicode="&#xb8;" horiz-adv-x="501" 
d="M188 33l119 -8l-31 -129q77 -5 134 -51t57 -130q0 -83 -63.5 -134.5t-157.5 -51.5q-131 0 -203 82l80 92q50 -57 117 -57q88 0 88 69q0 72 -90 78q-46 5 -99 -10l-6 8z" />
    <glyph glyph-name="one.sups" unicode="&#xb9;" horiz-adv-x="526" 
d="M416 1681v-874h-152v631l-145 -92l-66 137l359 198h4z" />
    <glyph glyph-name="ordmasculine" unicode="&#xba;" horiz-adv-x="854" 
d="M428 1532q160 0 266.5 -108t106.5 -269q0 -162 -106.5 -268.5t-266.5 -106.5q-164 0 -269.5 106t-105.5 269q0 162 106 269.5t269 107.5zM428 1386q-92 0 -150.5 -65.5t-58.5 -165.5t58.5 -165.5t150.5 -65.5q89 0 148 65.5t59 165.5t-59 165.5t-148 65.5z" />
    <glyph glyph-name="guillemotright" unicode="&#xbb;" horiz-adv-x="1071" 
d="M254 938l283 -410v-8l-283 -409h-188l278 413l-278 414h188zM723 938l283 -410v-8l-283 -409h-188l276 413l-276 414h188z" />
    <glyph glyph-name="onequarter" unicode="&#xbc;" horiz-adv-x="1515" 
d="M1227 1503l-746 -1503h-166l746 1503h166zM416 1477v-875h-152v631l-145 -92l-66 137l359 199h4zM1352 877v-623h112v-123h-112v-131h-148v133h-442v4l586 740h4zM1206 502l-192 -250h192v250z" />
    <glyph glyph-name="onehalf" unicode="&#xbd;" horiz-adv-x="1638" 
d="M1212 1503l-745 -1503h-166l746 1503h165zM416 1477v-875h-152v631l-145 -92l-66 137l359 199h4zM1270 874q128 0 207 -74t79 -192q0 -71 -26 -128t-82 -126l-182 -219h299v-135h-559v8l315 424q46 56 64 94t18 84q0 59 -37 94t-96 35q-120 0 -144 -133l-137 31
q47 237 281 237z" />
    <glyph glyph-name="threequarters" unicode="&#xbe;" horiz-adv-x="1685" 
d="M1376 1503l-745 -1503h-166l745 1503h166zM358 1477q122 0 198.5 -73t76.5 -183q0 -124 -113 -177q64 -26 100.5 -75t36.5 -119q0 -117 -80 -190.5t-212 -73.5q-236 0 -297 223l135 33q20 -59 58 -89t104 -30q63 0 102 37t39 98q0 56 -42.5 93.5t-109.5 37.5h-96v117h100
q53 2 89 32t36 85q0 53 -36.5 85.5t-92.5 32.5q-104 0 -139 -108l-131 57q62 187 274 187zM1522 877v-623h112v-123h-112v-131h-148v133h-442v4l586 740h4zM1376 502l-192 -250h192v250z" />
    <glyph glyph-name="questiondown" unicode="&#xbf;" horiz-adv-x="1005" 
d="M516 768q-59 0 -97 37.5t-38 97.5t38 98.5t97 38.5q60 0 98.5 -38.5t38.5 -98.5q0 -59 -38.5 -97t-98.5 -38zM518 -512q-195 0 -318.5 117t-123.5 295q0 71 19 130.5t48.5 100t66 75.5t73 66t66 62.5t48.5 73.5t19 92v100h202v-125q0 -62 -18.5 -114t-47.5 -88.5
t-64 -69.5t-70.5 -64.5t-64.5 -64t-47.5 -76.5t-18.5 -96q0 -107 65.5 -168.5t167.5 -61.5q204 0 246 213l199 -35q-38 -174 -150 -268t-297 -94z" />
    <glyph glyph-name="Agrave" unicode="&#xc0;" horiz-adv-x="1429" 
d="M553 1837l270 -235h-221l-301 235h252zM719 1532l692 -1532h-223l-135 307h-676l-135 -307h-224l693 1532h8zM715 1071l-260 -582h520z" />
    <glyph glyph-name="Aacute" unicode="&#xc1;" horiz-adv-x="1429" 
d="M1102 1837l-301 -235h-221l270 235h252zM719 1532l692 -1532h-223l-135 307h-676l-135 -307h-224l693 1532h8zM715 1071l-260 -582h520z" />
    <glyph glyph-name="Acircumflex" unicode="&#xc2;" horiz-adv-x="1429" 
d="M711 1898l325 -299h-186l-139 123l-140 -123h-186zM719 1532l692 -1532h-223l-135 307h-676l-135 -307h-224l693 1532h8zM715 1071l-260 -582h520z" />
    <glyph glyph-name="Atilde" unicode="&#xc3;" horiz-adv-x="1429" 
d="M586 1894q48 0 84.5 -16.5t57.5 -40t38 -46.5t38 -39.5t46 -16.5q65 0 65 147h132q0 -140 -58 -212.5t-151 -72.5q-49 0 -84.5 16.5t-55 40t-35 47t-36 40t-47.5 16.5q-70 0 -70 -147h-133q0 143 58 213.5t151 70.5zM719 1532l692 -1532h-223l-135 307h-676l-135 -307
h-224l693 1532h8zM715 1071l-260 -582h520z" />
    <glyph glyph-name="Adieresis" unicode="&#xc4;" horiz-adv-x="1429" 
d="M535 1829q49 0 80.5 -31.5t31.5 -79.5t-31.5 -79t-80.5 -31q-47 0 -79 31.5t-32 78.5t32 79t79 32zM885 1829q47 0 79.5 -32t32.5 -79t-32.5 -78.5t-79.5 -31.5t-79 31.5t-32 78.5t32 79t79 32zM719 1532l692 -1532h-223l-135 307h-676l-135 -307h-224l693 1532h8z
M715 1071l-260 -582h520z" />
    <glyph glyph-name="Aring" unicode="&#xc5;" horiz-adv-x="1429" 
d="M713 2040q95 0 159 -63t64 -158q0 -96 -63.5 -159t-159.5 -63q-97 0 -161.5 63t-64.5 159q0 95 64.5 158t161.5 63zM713 1927q-45 0 -76 -31.5t-31 -76.5q0 -47 31 -77t76 -30t75.5 30t30.5 77q0 46 -31 77t-75 31zM719 1532l692 -1532h-223l-135 307h-676l-135 -307
h-224l693 1532h8zM715 1071l-260 -582h520z" />
    <glyph glyph-name="AE" unicode="&#xc6;" horiz-adv-x="1800" 
d="M1702 1505v-192h-840l191 -461h561v-178h-488l201 -481h391v-193h-540l-131 317h-666l-129 -317h-234l654 1505h1030zM715 1133l-266 -652h532z" />
    <glyph glyph-name="Ccedilla" unicode="&#xc7;" horiz-adv-x="1421" 
d="M1374 199q-207 -226 -547 -226l-18 -77q77 -5 133.5 -51t56.5 -130q0 -83 -63.5 -134.5t-157.5 -51.5q-131 0 -203 82l80 92q50 -57 117 -57q88 0 88 69q0 72 -90 78q-46 4 -98 -10l-6 8l43 191q-185 27 -329 132.5t-224 271.5t-80 366q0 222 96 400t268 279t387 101
q323 0 539 -219l-133 -152q-164 178 -406 178q-238 0 -389 -165.5t-151 -421.5q0 -167 68 -301t191.5 -209.5t280.5 -75.5q253 0 416 188z" />
    <glyph glyph-name="Egrave" unicode="&#xc8;" 
d="M494 1837l270 -235h-221l-301 235h252zM1100 1505v-192h-723v-457h635v-186h-635v-477h739v-193h-948v1505h932z" />
    <glyph glyph-name="Eacute" unicode="&#xc9;" 
d="M1042 1837l-301 -235h-221l271 235h251zM1100 1505v-192h-723v-457h635v-186h-635v-477h739v-193h-948v1505h932z" />
    <glyph glyph-name="Ecircumflex" unicode="&#xca;" 
d="M651 1898l326 -299h-186l-140 123l-139 -123h-186zM1100 1505v-192h-723v-457h635v-186h-635v-477h739v-193h-948v1505h932z" />
    <glyph glyph-name="Edieresis" unicode="&#xcb;" 
d="M475 1829q49 0 81 -31.5t32 -79.5q0 -47 -32 -78.5t-81 -31.5q-47 0 -78.5 31.5t-31.5 78.5t31.5 79t78.5 32zM825 1829q47 0 80 -32t33 -79t-32.5 -78.5t-80.5 -31.5q-47 0 -78.5 31.5t-31.5 78.5t31.5 79t78.5 32zM1100 1505v-192h-723v-457h635v-186h-635v-477h739
v-193h-948v1505h932z" />
    <glyph glyph-name="Igrave" unicode="&#xcc;" horiz-adv-x="544" 
d="M115 1837l270 -235h-221l-301 235h252zM377 1505v-1505h-209v1505h209z" />
    <glyph glyph-name="Iacute" unicode="&#xcd;" horiz-adv-x="544" 
d="M664 1837l-302 -235h-221l271 235h252zM377 1505v-1505h-209v1505h209z" />
    <glyph glyph-name="Icircumflex" unicode="&#xce;" horiz-adv-x="544" 
d="M272 1898l326 -299h-186l-140 123l-139 -123h-186zM377 1505v-1505h-209v1505h209z" />
    <glyph glyph-name="Idieresis" unicode="&#xcf;" horiz-adv-x="544" 
d="M96 1829q49 0 81 -31.5t32 -79.5q0 -47 -32 -78.5t-81 -31.5q-47 0 -78.5 31.5t-31.5 78.5t31.5 79t78.5 32zM446 1829q47 0 80 -32t33 -79t-32.5 -78.5t-80.5 -31.5q-47 0 -78.5 31.5t-31.5 78.5t31.5 79t78.5 32zM377 1505v-1505h-209v1505h209z" />
    <glyph glyph-name="Eth" unicode="&#xd0;" horiz-adv-x="1544" 
d="M659 1505q382 0 595.5 -197.5t213.5 -553.5q0 -357 -212.5 -555.5t-596.5 -198.5h-454v702h-178v142h178v661h454zM653 193q291 0 447.5 147t156.5 414q0 265 -157.5 411t-446.5 146h-239v-467h233v-142h-233v-509h239z" />
    <glyph glyph-name="Ntilde" unicode="&#xd1;" horiz-adv-x="1492" 
d="M614 1894q48 0 84.5 -16.5t57.5 -40t38.5 -46.5t38.5 -39.5t46 -16.5q65 0 65 147h131q0 -140 -58 -212.5t-151 -72.5q-49 0 -84.5 16.5t-55 40t-35 47t-36 40t-47.5 16.5q-69 0 -69 -147h-133q0 143 58 213.5t150 70.5zM176 1532l940 -1036v1009h209v-1532h-8l-940 1039
v-1012h-209v1532h8z" />
    <glyph glyph-name="Ograve" unicode="&#xd2;" horiz-adv-x="1669" 
d="M676 1858l270 -236h-221l-301 236h252zM834 1532q161 0 302 -59t241.5 -162t158 -248t57.5 -311q0 -222 -98.5 -400.5t-272 -278.5t-388.5 -100q-162 0 -303 58.5t-241 161.5t-157 247.5t-57 311.5q0 166 57 311t157 248t241 162t303 59zM834 1339q-239 0 -393 -166
t-154 -421t154 -420.5t393 -165.5t392.5 165.5t153.5 420.5q0 168 -69.5 302t-194.5 209.5t-282 75.5z" />
    <glyph glyph-name="Oacute" unicode="&#xd3;" horiz-adv-x="1669" 
d="M1225 1858l-301 -236h-222l271 236h252zM834 1532q161 0 302 -59t241.5 -162t158 -248t57.5 -311q0 -222 -98.5 -400.5t-272 -278.5t-388.5 -100q-162 0 -303 58.5t-241 161.5t-157 247.5t-57 311.5q0 166 57 311t157 248t241 162t303 59zM834 1339q-239 0 -393 -166
t-154 -421t154 -420.5t393 -165.5t392.5 165.5t153.5 420.5q0 168 -69.5 302t-194.5 209.5t-282 75.5z" />
    <glyph glyph-name="Ocircumflex" unicode="&#xd4;" horiz-adv-x="1669" 
d="M834 1919l325 -299h-186l-139 123l-140 -123h-186zM834 1532q161 0 302 -59t241.5 -162t158 -248t57.5 -311q0 -222 -98.5 -400.5t-272 -278.5t-388.5 -100q-162 0 -303 58.5t-241 161.5t-157 247.5t-57 311.5q0 166 57 311t157 248t241 162t303 59zM834 1339
q-239 0 -393 -166t-154 -421t154 -420.5t393 -165.5t392.5 165.5t153.5 420.5q0 168 -69.5 302t-194.5 209.5t-282 75.5z" />
    <glyph glyph-name="Otilde" unicode="&#xd5;" horiz-adv-x="1669" 
d="M709 1915q48 0 84.5 -16.5t57.5 -40t38 -47t38 -40t46 -16.5q65 0 65 148h131q0 -140 -57.5 -212.5t-150.5 -72.5q-49 0 -85 16.5t-55 40t-35 47t-36.5 40t-47.5 16.5q-69 0 -69 -148h-133q0 143 58 214t151 71zM834 1532q161 0 302 -59t241.5 -162t158 -248t57.5 -311
q0 -222 -98.5 -400.5t-272 -278.5t-388.5 -100q-162 0 -303 58.5t-241 161.5t-157 247.5t-57 311.5q0 166 57 311t157 248t241 162t303 59zM834 1339q-239 0 -393 -166t-154 -421t154 -420.5t393 -165.5t392.5 165.5t153.5 420.5q0 168 -69.5 302t-194.5 209.5t-282 75.5z
" />
    <glyph glyph-name="Odieresis" unicode="&#xd6;" horiz-adv-x="1669" 
d="M657 1849q49 0 81 -31.5t32 -78.5q0 -48 -32 -79.5t-81 -31.5q-47 0 -78.5 32t-31.5 79t31.5 78.5t78.5 31.5zM1008 1849q47 0 79.5 -31.5t32.5 -78.5t-32.5 -79t-79.5 -32t-79 32t-32 79t32 78.5t79 31.5zM834 1532q161 0 302 -59t241.5 -162t158 -248t57.5 -311
q0 -222 -98.5 -400.5t-272 -278.5t-388.5 -100q-162 0 -303 58.5t-241 161.5t-157 247.5t-57 311.5q0 166 57 311t157 248t241 162t303 59zM834 1339q-239 0 -393 -166t-154 -421t154 -420.5t393 -165.5t392.5 165.5t153.5 420.5q0 168 -69.5 302t-194.5 209.5t-282 75.5z
" />
    <glyph glyph-name="multiply" unicode="&#xd7;" horiz-adv-x="931" 
d="M711 1092l131 -129l-246 -246l246 -246l-131 -131l-244 246l-246 -246l-131 131l246 246l-246 244l131 131l246 -244z" />
    <glyph glyph-name="Oslash" unicode="&#xd8;" horiz-adv-x="1669" 
d="M1278 1395q148 -104 231.5 -272t83.5 -371q0 -222 -98.5 -400.5t-272 -278.5t-388.5 -100q-160 0 -304 58l-106 -195h-184l149 273q-147 104 -230 271.5t-83 371.5q0 166 57 311t157 248t241 162t303 59q164 0 303 -59l108 196h182zM287 752q0 -146 52.5 -266t147.5 -199
l555 1013q-98 39 -208 39q-239 0 -393 -166t-154 -421zM834 166q239 0 392.5 165.5t153.5 420.5q0 146 -52.5 266t-147.5 199l-555 -1012q98 -39 209 -39z" />
    <glyph glyph-name="Ugrave" unicode="&#xd9;" horiz-adv-x="1443" 
d="M565 1837l271 -235h-222l-301 235h252zM1296 1505v-975q0 -258 -149 -407.5t-424 -149.5q-277 0 -426.5 149.5t-149.5 407.5v975h209v-962q0 -174 95 -275.5t272 -101.5q174 0 269 102t95 275v962h209z" />
    <glyph glyph-name="Uacute" unicode="&#xda;" horiz-adv-x="1443" 
d="M1114 1837l-301 -235h-221l270 235h252zM1296 1505v-975q0 -258 -149 -407.5t-424 -149.5q-277 0 -426.5 149.5t-149.5 407.5v975h209v-962q0 -174 95 -275.5t272 -101.5q174 0 269 102t95 275v962h209z" />
    <glyph glyph-name="Ucircumflex" unicode="&#xdb;" horiz-adv-x="1443" 
d="M723 1898l326 -299h-187l-139 123l-139 -123h-187zM1296 1505v-975q0 -258 -149 -407.5t-424 -149.5q-277 0 -426.5 149.5t-149.5 407.5v975h209v-962q0 -174 95 -275.5t272 -101.5q174 0 269 102t95 275v962h209z" />
    <glyph glyph-name="Udieresis" unicode="&#xdc;" horiz-adv-x="1443" 
d="M547 1829q49 0 80.5 -31.5t31.5 -79.5t-31.5 -79t-80.5 -31q-47 0 -79 31.5t-32 78.5t32 79t79 32zM897 1829q47 0 80 -32t33 -79t-32.5 -78.5t-80.5 -31.5q-47 0 -79 31.5t-32 78.5t32 79t79 32zM1296 1505v-975q0 -258 -149 -407.5t-424 -149.5q-277 0 -426.5 149.5
t-149.5 407.5v975h209v-962q0 -174 95 -275.5t272 -101.5q174 0 269 102t95 275v962h209z" />
    <glyph glyph-name="Yacute" unicode="&#xdd;" horiz-adv-x="1351" 
d="M1067 1837l-301 -235h-221l270 235h252zM1337 1503l-557 -866v-637h-209v633l-557 870h244l418 -659l416 659h245z" />
    <glyph glyph-name="Thorn" unicode="&#xde;" horiz-adv-x="1159" 
d="M377 1505v-270h254q94 0 178.5 -29t150 -81.5t104 -134t38.5 -179.5q0 -99 -38.5 -180.5t-104 -134t-150 -81t-178.5 -28.5h-254v-387h-209v1505h209zM612 1051h-235v-482h235q119 0 199 64.5t80 177.5q0 112 -80 176t-199 64z" />
    <glyph glyph-name="germandbls" unicode="&#xdf;" horiz-adv-x="1220" 
d="M610 1532q198 0 323.5 -117.5t125.5 -298.5q0 -108 -51.5 -182.5t-135.5 -112.5q42 -12 80.5 -31.5t77 -53t66.5 -76t45.5 -102.5t17.5 -130q0 -205 -129.5 -330t-349.5 -125q-126 0 -215 50l43 180q78 -45 170 -45q120 0 198 72.5t78 199.5q0 97 -56 164.5t-155 95.5
q-88 25 -174 25v153q73 0 148 35q60 28 98.5 78t38.5 121q0 113 -71.5 180.5t-172.5 67.5q-120 0 -190 -69t-70 -204v-1077h-205v1067q0 214 132 339.5t333 125.5z" />
    <glyph glyph-name="agrave" unicode="&#xe0;" horiz-adv-x="1193" 
d="M434 1448l281 -268h-203l-319 268h241zM539 1049q211 0 321 -146l8 125h183v-1028h-183l-8 125q-110 -145 -321 -145q-209 0 -338 150t-129 384t129 384.5t338 150.5zM575 870q-134 0 -217.5 -98.5t-83.5 -257.5t83.5 -257.5t217.5 -98.5q95 0 159.5 45.5t115.5 128.5
v364q-51 83 -115.5 128.5t-159.5 45.5z" />
    <glyph glyph-name="aacute" unicode="&#xe1;" horiz-adv-x="1193" 
d="M1008 1448l-320 -268h-203l281 268h242zM539 1049q211 0 321 -146l8 125h183v-1028h-183l-8 125q-110 -145 -321 -145q-209 0 -338 150t-129 384t129 384.5t338 150.5zM575 870q-134 0 -217.5 -98.5t-83.5 -257.5t83.5 -257.5t217.5 -98.5q95 0 159.5 45.5t115.5 128.5
v364q-51 83 -115.5 128.5t-159.5 45.5z" />
    <glyph glyph-name="acircumflex" unicode="&#xe2;" horiz-adv-x="1193" 
d="M604 1524l316 -344h-183l-133 131l-135 -131h-182zM539 1049q211 0 321 -146l8 125h183v-1028h-183l-8 125q-110 -145 -321 -145q-209 0 -338 150t-129 384t129 384.5t338 150.5zM575 870q-134 0 -217.5 -98.5t-83.5 -257.5t83.5 -257.5t217.5 -98.5q95 0 159.5 45.5
t115.5 128.5v364q-51 83 -115.5 128.5t-159.5 45.5z" />
    <glyph glyph-name="atilde" unicode="&#xe3;" horiz-adv-x="1193" 
d="M479 1468q48 0 84.5 -16.5t57.5 -40t38 -46.5t38 -39.5t46 -16.5q66 0 66 147h131q0 -140 -58 -212.5t-151 -72.5q-49 0 -84.5 16.5t-55 40t-35 47t-36 40t-47.5 16.5q-70 0 -70 -147h-133q0 143 58 213.5t151 70.5zM539 1049q211 0 321 -146l8 125h183v-1028h-183
l-8 125q-110 -145 -321 -145q-209 0 -338 150t-129 384t129 384.5t338 150.5zM575 870q-134 0 -217.5 -98.5t-83.5 -257.5t83.5 -257.5t217.5 -98.5q95 0 159.5 45.5t115.5 128.5v364q-51 83 -115.5 128.5t-159.5 45.5z" />
    <glyph glyph-name="adieresis" unicode="&#xe4;" horiz-adv-x="1193" 
d="M428 1423q49 0 81 -31.5t32 -78.5q0 -48 -32 -79.5t-81 -31.5q-47 0 -79 32t-32 79t32 78.5t79 31.5zM778 1423q48 0 80.5 -31.5t32.5 -78.5t-33 -79t-80 -32t-78.5 32t-31.5 79t31.5 78.5t78.5 31.5zM539 1049q211 0 321 -146l8 125h183v-1028h-183l-8 125
q-110 -145 -321 -145q-209 0 -338 150t-129 384t129 384.5t338 150.5zM575 870q-134 0 -217.5 -98.5t-83.5 -257.5t83.5 -257.5t217.5 -98.5q95 0 159.5 45.5t115.5 128.5v364q-51 83 -115.5 128.5t-159.5 45.5z" />
    <glyph glyph-name="aring" unicode="&#xe5;" horiz-adv-x="1193" 
d="M606 1612q95 0 159 -64t64 -159t-63.5 -157.5t-159.5 -62.5q-97 0 -161 62.5t-64 157.5t64 159t161 64zM606 1497q-44 0 -75 -31t-31 -77q0 -45 30.5 -75t75.5 -30t76 30t31 75t-31.5 76.5t-75.5 31.5zM539 1049q211 0 321 -146l8 125h183v-1028h-183l-8 125
q-110 -145 -321 -145q-209 0 -338 150t-129 384t129 384.5t338 150.5zM575 870q-134 0 -217.5 -98.5t-83.5 -257.5t83.5 -257.5t217.5 -98.5q95 0 159.5 45.5t115.5 128.5v364q-51 83 -115.5 128.5t-159.5 45.5z" />
    <glyph glyph-name="ae" unicode="&#xe6;" horiz-adv-x="1927" 
d="M1386 1049q222 0 348 -148.5t126 -384.5v-74h-773q11 -141 94 -215.5t240 -74.5q96 0 170 36.5t115 94.5l133 -111q-156 -192 -418 -192q-130 0 -228.5 40t-145.5 105l-9 -125h-170l-8 125q-110 -145 -321 -145q-209 0 -338 150t-129 384t129 384.5t338 150.5
q211 0 321 -146l8 125h172l9 -125q135 146 337 146zM1378 877q-78 0 -139.5 -28t-103.5 -90t-50 -153h576q-6 123 -80 197t-203 74zM575 870q-134 0 -217.5 -98.5t-83.5 -257.5t83.5 -257.5t217.5 -98.5q95 0 159.5 45.5t115.5 128.5v364q-51 83 -115.5 128.5t-159.5 45.5z
" />
    <glyph glyph-name="ccedilla" unicode="&#xe7;" horiz-adv-x="1042" 
d="M590 -20l-21 -84q77 -5 134 -51t57 -130q0 -83 -63.5 -134.5t-157.5 -51.5q-131 0 -203 82l80 92q50 -57 116 -57q89 0 89 69q0 72 -91 78q-46 4 -98 -10l-6 8l45 201q-184 37 -291.5 178.5t-107.5 343.5q0 235 142.5 385t375.5 150q259 0 409 -226l-141 -108
q-101 157 -268 157q-148 0 -232 -100.5t-84 -257.5t84 -257.5t232 -100.5q90 0 158.5 44t113.5 113l142 -108q-149 -225 -414 -225z" />
    <glyph glyph-name="egrave" unicode="&#xe8;" horiz-adv-x="1095" 
d="M401 1448l281 -268h-203l-319 268h241zM563 1049q112 0 201.5 -41.5t146.5 -114t87 -167t30 -204.5v-80h-754q9 -139 90.5 -213.5t225.5 -74.5q96 0 169.5 35.5t114.5 93.5l134 -111q-156 -192 -418 -192q-235 0 -376.5 148.5t-141.5 383.5q0 233 137.5 385t353.5 152z
M563 877q-124 0 -202.5 -74t-86.5 -197h555q-5 124 -74.5 197.5t-191.5 73.5z" />
    <glyph glyph-name="eacute" unicode="&#xe9;" horiz-adv-x="1095" 
d="M975 1448l-320 -268h-202l280 268h242zM563 1049q112 0 201.5 -41.5t146.5 -114t87 -167t30 -204.5v-80h-754q9 -139 90.5 -213.5t225.5 -74.5q96 0 169.5 35.5t114.5 93.5l134 -111q-156 -192 -418 -192q-235 0 -376.5 148.5t-141.5 383.5q0 233 137.5 385t353.5 152z
M563 877q-124 0 -202.5 -74t-86.5 -197h555q-5 124 -74.5 197.5t-191.5 73.5z" />
    <glyph glyph-name="ecircumflex" unicode="&#xea;" horiz-adv-x="1095" 
d="M571 1524l316 -344h-182l-134 131l-135 -131h-182zM563 1049q112 0 201.5 -41.5t146.5 -114t87 -167t30 -204.5v-80h-754q9 -139 90.5 -213.5t225.5 -74.5q96 0 169.5 35.5t114.5 93.5l134 -111q-156 -192 -418 -192q-235 0 -376.5 148.5t-141.5 383.5q0 233 137.5 385
t353.5 152zM563 877q-124 0 -202.5 -74t-86.5 -197h555q-5 124 -74.5 197.5t-191.5 73.5z" />
    <glyph glyph-name="edieresis" unicode="&#xeb;" horiz-adv-x="1095" 
d="M395 1423q49 0 81 -31.5t32 -78.5q0 -48 -32 -79.5t-81 -31.5q-47 0 -78.5 32t-31.5 79t31.5 78.5t78.5 31.5zM745 1423q48 0 80.5 -31.5t32.5 -78.5t-33 -79t-80 -32t-78.5 32t-31.5 79t31.5 78.5t78.5 31.5zM563 1049q112 0 201.5 -41.5t146.5 -114t87 -167t30 -204.5
v-80h-754q9 -139 90.5 -213.5t225.5 -74.5q96 0 169.5 35.5t114.5 93.5l134 -111q-156 -192 -418 -192q-235 0 -376.5 148.5t-141.5 383.5q0 233 137.5 385t353.5 152zM563 877q-124 0 -202.5 -74t-86.5 -197h555q-5 124 -74.5 197.5t-191.5 73.5z" />
    <glyph glyph-name="igrave" unicode="&#xec;" horiz-adv-x="518" 
d="M88 1448l281 -268h-203l-320 268h242zM344 1028v-1028h-201v1028h201z" />
    <glyph glyph-name="iacute" unicode="&#xed;" horiz-adv-x="518" 
d="M662 1448l-320 -268h-203l281 268h242zM344 1028v-1028h-201v1028h201z" />
    <glyph glyph-name="icircumflex" unicode="&#xee;" horiz-adv-x="487" 
d="M244 1524l315 -344h-182l-133 131l-135 -131h-183zM344 1028v-1028h-201v1028h201z" />
    <glyph glyph-name="idieresis" unicode="&#xef;" horiz-adv-x="518" 
d="M84 1423q49 0 81 -31.5t32 -78.5q0 -48 -32 -79.5t-81 -31.5q-47 0 -79 32t-32 79t32 78.5t79 31.5zM434 1423q48 0 80.5 -31.5t32.5 -78.5t-33 -79t-80 -32t-78.5 32t-31.5 79t31.5 78.5t78.5 31.5zM344 1028v-1028h-201v1028h201z" />
    <glyph glyph-name="eth" unicode="&#xf0;" horiz-adv-x="1161" 
d="M1014 770q84 -125 84 -285q0 -220 -145.5 -362.5t-368.5 -142.5t-367.5 142.5t-144.5 362.5q0 219 145 363.5t367 144.5q22 0 34 -2l-120 180h-353v152h252l-157 233h243l158 -233h356v-152h-254zM584 147q135 0 224 96t89 242t-89 243t-224 97t-223.5 -97t-88.5 -243
t88.5 -242t223.5 -96z" />
    <glyph glyph-name="ntilde" unicode="&#xf1;" horiz-adv-x="1179" 
d="M471 1468q48 0 84.5 -16.5t57.5 -40t38 -46.5t38 -39.5t46 -16.5q66 0 66 147h131q0 -140 -58 -212.5t-151 -72.5q-49 0 -84.5 16.5t-55 40t-35 47t-36 40t-47.5 16.5q-70 0 -70 -147h-133q0 143 58 213.5t151 70.5zM659 1049q183 0 286.5 -120t103.5 -321v-608h-201v596
q0 118 -65 190t-173 72q-151 0 -266 -164v-694h-201v1028h183l8 -125q49 64 132 105t193 41z" />
    <glyph glyph-name="ograve" unicode="&#xf2;" 
d="M428 1448l281 -268h-203l-320 268h242zM598 1049q150 0 271 -69.5t189 -192t68 -275.5q0 -231 -149.5 -381.5t-378.5 -150.5t-377.5 150t-148.5 382t149 384.5t377 152.5zM598 870q-141 0 -232.5 -101.5t-91.5 -256.5q0 -154 91.5 -254t232.5 -100t233.5 100t92.5 254
q0 155 -92.5 256.5t-233.5 101.5z" />
    <glyph glyph-name="oacute" unicode="&#xf3;" 
d="M1001 1448l-319 -268h-203l281 268h241zM598 1049q150 0 271 -69.5t189 -192t68 -275.5q0 -231 -149.5 -381.5t-378.5 -150.5t-377.5 150t-148.5 382t149 384.5t377 152.5zM598 870q-141 0 -232.5 -101.5t-91.5 -256.5q0 -154 91.5 -254t232.5 -100t233.5 100t92.5 254
q0 155 -92.5 256.5t-233.5 101.5z" />
    <glyph glyph-name="ocircumflex" unicode="&#xf4;" 
d="M598 1524l315 -344h-182l-133 131l-135 -131h-182zM598 1049q150 0 271 -69.5t189 -192t68 -275.5q0 -231 -149.5 -381.5t-378.5 -150.5t-377.5 150t-148.5 382t149 384.5t377 152.5zM598 870q-141 0 -232.5 -101.5t-91.5 -256.5q0 -154 91.5 -254t232.5 -100t233.5 100
t92.5 254q0 155 -92.5 256.5t-233.5 101.5z" />
    <glyph glyph-name="otilde" unicode="&#xf5;" 
d="M473 1468q48 0 84.5 -16.5t57.5 -40t38 -46.5t38 -39.5t46 -16.5q66 0 66 147h131q0 -140 -58 -212.5t-151 -72.5q-49 0 -84.5 16.5t-55 40t-35 47t-36 40t-47.5 16.5q-70 0 -70 -147h-133q0 143 58 213.5t151 70.5zM598 1049q150 0 271 -69.5t189 -192t68 -275.5
q0 -231 -149.5 -381.5t-378.5 -150.5t-377.5 150t-148.5 382t149 384.5t377 152.5zM598 870q-141 0 -232.5 -101.5t-91.5 -256.5q0 -154 91.5 -254t232.5 -100t233.5 100t92.5 254q0 155 -92.5 256.5t-233.5 101.5z" />
    <glyph glyph-name="odieresis" unicode="&#xf6;" 
d="M422 1423q49 0 81 -31.5t32 -78.5q0 -48 -32 -79.5t-81 -31.5q-47 0 -79 32t-32 79t32 78.5t79 31.5zM772 1423q48 0 80.5 -31.5t32.5 -78.5t-33 -79t-80 -32t-78.5 32t-31.5 79t31.5 78.5t78.5 31.5zM598 1049q150 0 271 -69.5t189 -192t68 -275.5q0 -231 -149.5 -381.5
t-378.5 -150.5t-377.5 150t-148.5 382t149 384.5t377 152.5zM598 870q-141 0 -232.5 -101.5t-91.5 -256.5q0 -154 91.5 -254t232.5 -100t233.5 100t92.5 254q0 155 -92.5 256.5t-233.5 101.5z" />
    <glyph glyph-name="divide" unicode="&#xf7;" horiz-adv-x="995" 
d="M496 1237q57 0 93 -37t36 -94q0 -54 -36.5 -90.5t-92.5 -36.5q-55 0 -91 36.5t-36 90.5q0 57 36 94t91 37zM913 809v-184h-833v184h833zM496 449q57 0 93 -36.5t36 -93.5q0 -56 -36 -92.5t-93 -36.5q-55 0 -91 36.5t-36 92.5t36 93t91 37z" />
    <glyph glyph-name="oslash" unicode="&#xf8;" 
d="M907 954q103 -72 161 -187t58 -255q0 -231 -149.5 -381.5t-378.5 -150.5q-112 0 -199 34l-86 -157h-137l117 213q-104 71 -162.5 186t-58.5 256q0 232 149 384.5t377 152.5q112 0 205 -37l86 159h135zM264 512q0 -178 115 -283l340 629q-61 23 -121 23q-146 0 -240 -105
t-94 -264zM598 147q145 0 239.5 103.5t94.5 261.5q0 174 -113 281l-338 -625q55 -21 117 -21z" />
    <glyph glyph-name="ugrave" unicode="&#xf9;" horiz-adv-x="1163" 
d="M416 1448l280 -268h-202l-320 268h242zM1020 1028v-1028h-182l-9 125q-113 -145 -329 -145q-174 0 -270.5 118t-96.5 318v612h201v-602q0 -115 58.5 -185.5t158.5 -70.5q89 0 151 43.5t117 120.5v694h201z" />
    <glyph glyph-name="uacute" unicode="&#xfa;" horiz-adv-x="1163" 
d="M989 1448l-319 -268h-203l281 268h241zM1020 1028v-1028h-182l-9 125q-113 -145 -329 -145q-174 0 -270.5 118t-96.5 318v612h201v-602q0 -115 58.5 -185.5t158.5 -70.5q89 0 151 43.5t117 120.5v694h201z" />
    <glyph glyph-name="ucircumflex" unicode="&#xfb;" horiz-adv-x="1163" 
d="M586 1524l315 -344h-182l-133 131l-135 -131h-183zM1020 1028v-1028h-182l-9 125q-113 -145 -329 -145q-174 0 -270.5 118t-96.5 318v612h201v-602q0 -115 58.5 -185.5t158.5 -70.5q89 0 151 43.5t117 120.5v694h201z" />
    <glyph glyph-name="udieresis" unicode="&#xfc;" horiz-adv-x="1163" 
d="M410 1423q49 0 80.5 -31t31.5 -79t-31.5 -79.5t-80.5 -31.5q-47 0 -79 32t-32 79t32 78.5t79 31.5zM760 1423q47 0 79.5 -31.5t32.5 -78.5t-32.5 -79t-79.5 -32t-79 32t-32 79t32 78.5t79 31.5zM1020 1028v-1028h-182l-9 125q-113 -145 -329 -145q-174 0 -270.5 118
t-96.5 318v612h201v-602q0 -115 58.5 -185.5t158.5 -70.5q89 0 151 43.5t117 120.5v694h201z" />
    <glyph glyph-name="yacute" unicode="&#xfd;" horiz-adv-x="1095" 
d="M934 1448l-320 -268h-202l280 268h242zM1081 1028l-751 -1499h-230l338 639l-424 860h209l322 -668l327 668h209z" />
    <glyph glyph-name="thorn" unicode="&#xfe;" horiz-adv-x="1214" 
d="M348 1556v-638q111 131 320 131q211 0 343 -151t132 -384t-132 -383.5t-343 -150.5q-209 0 -320 131v-582h-201v2027h201zM631 870q-177 0 -283 -174v-364q106 -174 283 -174q136 0 222.5 98.5t86.5 257.5t-86.5 257.5t-222.5 98.5z" />
    <glyph glyph-name="ydieresis" unicode="&#xff;" horiz-adv-x="1095" 
d="M354 1423q49 0 81 -31.5t32 -78.5q0 -48 -32 -79.5t-81 -31.5q-47 0 -78.5 32t-31.5 79t31.5 78.5t78.5 31.5zM705 1423q47 0 79.5 -31.5t32.5 -78.5t-32.5 -79t-79.5 -32t-79 32t-32 79t32 78.5t79 31.5zM1081 1028l-751 -1499h-230l338 639l-424 860h209l322 -668
l327 668h209z" />
    <glyph glyph-name="Amacron" unicode="&#x100;" horiz-adv-x="1429" 
d="M977 1776v-142h-533v142h533zM719 1532l692 -1532h-223l-135 307h-676l-135 -307h-224l693 1532h8zM715 1071l-260 -582h520z" />
    <glyph glyph-name="amacron" unicode="&#x101;" horiz-adv-x="1193" 
d="M870 1362v-139h-532v139h532zM539 1049q211 0 321 -146l8 125h183v-1028h-183l-8 125q-110 -145 -321 -145q-209 0 -338 150t-129 384t129 384.5t338 150.5zM575 870q-134 0 -217.5 -98.5t-83.5 -257.5t83.5 -257.5t217.5 -98.5q95 0 159.5 45.5t115.5 128.5v364
q-51 83 -115.5 128.5t-159.5 45.5z" />
    <glyph glyph-name="Abreve" unicode="&#x102;" horiz-adv-x="1429" 
d="M1022 1898q0 -129 -88.5 -214t-222.5 -85t-224 85t-90 214h146q0 -66 47.5 -112.5t120.5 -46.5t119.5 46.5t46.5 112.5h145zM719 1532l692 -1532h-223l-135 307h-676l-135 -307h-224l693 1532h8zM715 1071l-260 -582h520z" />
    <glyph glyph-name="abreve" unicode="&#x103;" horiz-adv-x="1193" 
d="M915 1483q0 -132 -88.5 -219.5t-222.5 -87.5t-223.5 87.5t-89.5 219.5h147q0 -71 46.5 -117.5t119.5 -46.5q72 0 118 46.5t46 117.5h147zM539 1049q211 0 321 -146l8 125h183v-1028h-183l-8 125q-110 -145 -321 -145q-209 0 -338 150t-129 384t129 384.5t338 150.5z
M575 870q-134 0 -217.5 -98.5t-83.5 -257.5t83.5 -257.5t217.5 -98.5q95 0 159.5 45.5t115.5 128.5v364q-51 83 -115.5 128.5t-159.5 45.5z" />
    <glyph glyph-name="Aogonek" unicode="&#x104;" horiz-adv-x="1429" 
d="M1434 -338l36 -113q-44 -20 -116 -20q-119 0 -196 65.5t-77 184.5q0 135 103 231l-131 297h-676l-135 -307h-224l693 1532h8l692 -1532h-43q-151 -79 -151 -221q0 -62 40 -95.5t101 -33.5q40 0 76 12zM455 489h520l-260 582z" />
    <glyph glyph-name="aogonek" unicode="&#x105;" horiz-adv-x="1193" 
d="M1100 -338l37 -113q-44 -20 -117 -20q-119 0 -195.5 65.5t-76.5 184.5q0 148 118 248l-6 98q-110 -145 -321 -145q-209 0 -338 150t-129 384t129 384.5t338 150.5q211 0 321 -146l8 125h183v-1028h-17q-151 -79 -151 -221q0 -62 39.5 -95.5t101.5 -33.5q40 0 76 12z
M850 332v364q-51 83 -115.5 128.5t-159.5 45.5q-134 0 -217.5 -98.5t-83.5 -257.5t83.5 -257.5t217.5 -98.5q95 0 159.5 45.5t115.5 128.5z" />
    <glyph glyph-name="Cacute" unicode="&#x106;" horiz-adv-x="1421" 
d="M1212 1858l-301 -236h-221l271 236h251zM827 1532q323 0 539 -219l-133 -152q-164 178 -406 178q-238 0 -389 -165.5t-151 -421.5q0 -167 68 -301t191.5 -209.5t280.5 -75.5q253 0 416 188l131 -155q-207 -226 -547 -226q-161 0 -301 59.5t-238.5 162.5t-155 247.5
t-56.5 309.5q0 222 96 400t268 279t387 101z" />
    <glyph glyph-name="cacute" unicode="&#x107;" horiz-adv-x="1042" 
d="M987 1448l-319 -268h-203l280 268h242zM590 1049q259 0 409 -226l-141 -108q-101 157 -268 157q-148 0 -232 -100.5t-84 -257.5t84 -257.5t232 -100.5q90 0 158.5 44t113.5 113l142 -108q-149 -225 -414 -225q-155 0 -273.5 69t-181.5 190t-63 275q0 235 142.5 385
t375.5 150z" />
    <glyph glyph-name="Ccircumflex" unicode="&#x108;" horiz-adv-x="1421" 
d="M821 1919l326 -299h-186l-140 123l-139 -123h-186zM827 1532q323 0 539 -219l-133 -152q-164 178 -406 178q-238 0 -389 -165.5t-151 -421.5q0 -167 68 -301t191.5 -209.5t280.5 -75.5q253 0 416 188l131 -155q-207 -226 -547 -226q-161 0 -301 59.5t-238.5 162.5
t-155 247.5t-56.5 309.5q0 222 96 400t268 279t387 101z" />
    <glyph glyph-name="ccircumflex" unicode="&#x109;" horiz-adv-x="1042" 
d="M584 1524l315 -344h-182l-133 131l-135 -131h-183zM590 1049q259 0 409 -226l-141 -108q-101 157 -268 157q-148 0 -232 -100.5t-84 -257.5t84 -257.5t232 -100.5q90 0 158.5 44t113.5 113l142 -108q-149 -225 -414 -225q-155 0 -273.5 69t-181.5 190t-63 275
q0 235 142.5 385t375.5 150z" />
    <glyph glyph-name="Cdotaccent" unicode="&#x10a;" horiz-adv-x="1421" 
d="M821 1860q53 0 86 -33t33 -86q0 -51 -33.5 -84t-85.5 -33q-51 0 -83.5 33t-32.5 84q0 52 32.5 85.5t83.5 33.5zM827 1532q323 0 539 -219l-133 -152q-164 178 -406 178q-238 0 -389 -165.5t-151 -421.5q0 -167 68 -301t191.5 -209.5t280.5 -75.5q253 0 416 188l131 -155
q-207 -226 -547 -226q-161 0 -301 59.5t-238.5 162.5t-155 247.5t-56.5 309.5q0 222 96 400t268 279t387 101z" />
    <glyph glyph-name="cdotaccent" unicode="&#x10b;" horiz-adv-x="1042" 
d="M584 1458q52 0 85 -33t33 -86q0 -51 -33 -83.5t-85 -32.5q-51 0 -84 32.5t-33 83.5q0 52 33 85.5t84 33.5zM590 1049q259 0 409 -226l-141 -108q-101 157 -268 157q-148 0 -232 -100.5t-84 -257.5t84 -257.5t232 -100.5q90 0 158.5 44t113.5 113l142 -108
q-149 -225 -414 -225q-155 0 -273.5 69t-181.5 190t-63 275q0 235 142.5 385t375.5 150z" />
    <glyph glyph-name="Ccaron" unicode="&#x10c;" horiz-adv-x="1421" 
d="M1155 1898l-326 -296l-325 296h186l139 -120l140 120h186zM827 1532q323 0 539 -219l-133 -152q-164 178 -406 178q-238 0 -389 -165.5t-151 -421.5q0 -167 68 -301t191.5 -209.5t280.5 -75.5q253 0 416 188l131 -155q-207 -226 -547 -226q-161 0 -301 59.5t-238.5 162.5
t-155 247.5t-56.5 309.5q0 222 96 400t268 279t387 101z" />
    <glyph glyph-name="ccaron" unicode="&#x10d;" horiz-adv-x="1042" 
d="M899 1509l-315 -344l-318 344h183l135 -131l133 131h182zM590 1049q259 0 409 -226l-141 -108q-101 157 -268 157q-148 0 -232 -100.5t-84 -257.5t84 -257.5t232 -100.5q90 0 158.5 44t113.5 113l142 -108q-149 -225 -414 -225q-155 0 -273.5 69t-181.5 190t-63 275
q0 235 142.5 385t375.5 150z" />
    <glyph glyph-name="Dcaron" unicode="&#x10e;" horiz-adv-x="1507" 
d="M1024 1878l-326 -297l-325 297h186l139 -121l140 121h186zM623 1505q382 0 595.5 -197.5t213.5 -553.5q0 -357 -212.5 -555.5t-596.5 -198.5h-455v1505h455zM616 1311h-239v-1118h239q292 0 448.5 147t156.5 414q0 265 -158 411t-447 146z" />
    <glyph glyph-name="dcaron" unicode="&#x10f;" horiz-adv-x="1214" 
d="M1262 1561q61 0 101 -41t40 -101q0 -57 -29 -96l-155 -195h-9v424q24 9 52 9zM1067 1556v-1556h-182l-8 125q-49 -64 -132.5 -104.5t-197.5 -40.5q-211 0 -343 150.5t-132 383.5t132 384t343 151q208 0 319 -131v638h201zM584 870q-136 0 -223 -98.5t-87 -257.5
t87 -257.5t223 -98.5q176 0 282 174v364q-106 174 -282 174z" />
    <glyph glyph-name="Dcroat" unicode="&#x110;" horiz-adv-x="1544" 
d="M659 1505q382 0 595.5 -197.5t213.5 -553.5q0 -357 -212.5 -555.5t-596.5 -198.5h-454v702h-178v142h178v661h454zM653 193q291 0 447.5 147t156.5 414q0 265 -157.5 411t-446.5 146h-239v-467h233v-142h-233v-509h239z" />
    <glyph glyph-name="dcroat" unicode="&#x111;" horiz-adv-x="1214" 
d="M1225 1337v-141h-158v-1196h-182l-8 125q-49 -64 -132.5 -104.5t-197.5 -40.5q-211 0 -343 150.5t-132 383.5t132 384t343 151q208 0 319 -131v278h-264v141h264v219h201v-219h158zM866 332v364q-106 174 -282 174q-136 0 -223 -98.5t-87 -257.5t87 -257.5t223 -98.5
q176 0 282 174z" />
    <glyph glyph-name="Emacron" unicode="&#x112;" 
d="M918 1776v-142h-533v142h533zM1100 1505v-192h-723v-457h635v-186h-635v-477h739v-193h-948v1505h932z" />
    <glyph glyph-name="emacron" unicode="&#x113;" horiz-adv-x="1095" 
d="M838 1362v-139h-533v139h533zM563 1049q112 0 201.5 -41.5t146.5 -114t87 -167t30 -204.5v-80h-754q9 -139 90.5 -213.5t225.5 -74.5q96 0 169.5 35.5t114.5 93.5l134 -111q-156 -192 -418 -192q-235 0 -376.5 148.5t-141.5 383.5q0 233 137.5 385t353.5 152zM563 877
q-124 0 -202.5 -74t-86.5 -197h555q-5 124 -74.5 197.5t-191.5 73.5z" />
    <glyph glyph-name="Ebreve" unicode="&#x114;" 
d="M963 1898q0 -129 -89 -214t-223 -85t-223.5 85t-89.5 214h145q0 -66 47.5 -112.5t120.5 -46.5t119.5 46.5t46.5 112.5h146zM1100 1505v-192h-723v-457h635v-186h-635v-477h739v-193h-948v1505h932z" />
    <glyph glyph-name="ebreve" unicode="&#x115;" horiz-adv-x="1095" 
d="M883 1483q0 -132 -89 -219.5t-223 -87.5t-223.5 87.5t-89.5 219.5h148q0 -71 46 -117.5t119 -46.5q72 0 118 46.5t46 117.5h148zM563 1049q112 0 201.5 -41.5t146.5 -114t87 -167t30 -204.5v-80h-754q9 -139 90.5 -213.5t225.5 -74.5q96 0 169.5 35.5t114.5 93.5
l134 -111q-156 -192 -418 -192q-235 0 -376.5 148.5t-141.5 383.5q0 233 137.5 385t353.5 152zM563 877q-124 0 -202.5 -74t-86.5 -197h555q-5 124 -74.5 197.5t-191.5 73.5z" />
    <glyph glyph-name="Edotaccent" unicode="&#x116;" 
d="M651 1839q53 0 86 -33.5t33 -85.5q0 -51 -33.5 -83.5t-85.5 -32.5q-51 0 -83.5 32.5t-32.5 83.5q0 52 32.5 85.5t83.5 33.5zM1100 1505v-192h-723v-457h635v-186h-635v-477h739v-193h-948v1505h932z" />
    <glyph glyph-name="edotaccent" unicode="&#x117;" horiz-adv-x="1095" 
d="M571 1458q53 0 86 -33t33 -86q0 -51 -33.5 -83.5t-85.5 -32.5q-51 0 -83.5 32.5t-32.5 83.5q0 52 32.5 85.5t83.5 33.5zM563 1049q112 0 201.5 -41.5t146.5 -114t87 -167t30 -204.5v-80h-754q9 -139 90.5 -213.5t225.5 -74.5q96 0 169.5 35.5t114.5 93.5l134 -111
q-156 -192 -418 -192q-235 0 -376.5 148.5t-141.5 383.5q0 233 137.5 385t353.5 152zM563 877q-124 0 -202.5 -74t-86.5 -197h555q-5 124 -74.5 197.5t-191.5 73.5z" />
    <glyph glyph-name="Eogonek" unicode="&#x118;" 
d="M1004 0q-152 -79 -152 -221q0 -62 40 -95.5t101 -33.5q40 0 76 12l37 -113q-44 -20 -117 -20q-119 0 -195.5 65.5t-76.5 184.5q0 126 92 221h-641v1505h932v-192h-723v-457h635v-186h-635v-477h739v-193h-112z" />
    <glyph glyph-name="eogonek" unicode="&#x119;" horiz-adv-x="1095" 
d="M1028 522v-80h-754q9 -139 90.5 -213.5t225.5 -74.5q96 0 169.5 35.5t114.5 93.5l134 -111q-72 -91 -172 -139q-140 -80 -140 -215q0 -62 40 -95.5t102 -33.5q39 0 75 12l37 -113q-44 -20 -116 -20q-119 0 -196 65.5t-77 184.5q0 92 45 162h-16q-235 0 -376.5 148.5
t-141.5 383.5q0 233 137.5 385t353.5 152q112 0 201.5 -41.5t146.5 -114t87 -167t30 -204.5zM274 606h555q-5 124 -74.5 197.5t-191.5 73.5q-124 0 -202.5 -74t-86.5 -197z" />
    <glyph glyph-name="Ecaron" unicode="&#x11a;" 
d="M985 1878l-326 -297l-325 297h186l139 -121l140 121h186zM1100 1505v-192h-723v-457h635v-186h-635v-477h739v-193h-948v1505h932z" />
    <glyph glyph-name="ecaron" unicode="&#x11b;" horiz-adv-x="1095" 
d="M887 1509l-316 -344l-317 344h182l135 -131l134 131h182zM563 1049q112 0 201.5 -41.5t146.5 -114t87 -167t30 -204.5v-80h-754q9 -139 90.5 -213.5t225.5 -74.5q96 0 169.5 35.5t114.5 93.5l134 -111q-156 -192 -418 -192q-235 0 -376.5 148.5t-141.5 383.5
q0 233 137.5 385t353.5 152zM563 877q-124 0 -202.5 -74t-86.5 -197h555q-5 124 -74.5 197.5t-191.5 73.5z" />
    <glyph glyph-name="Gcircumflex" unicode="&#x11c;" horiz-adv-x="1523" 
d="M823 1919l326 -299h-186l-140 123l-139 -123h-186zM827 1532q323 0 539 -219l-133 -152q-164 178 -406 178q-238 0 -389 -165.5t-151 -421.5q0 -168 70.5 -301t200.5 -209t296 -76q195 0 340 106v338h-383v183h592v-623q-212 -197 -549 -197q-224 0 -402 101.5t-277 279
t-99 398.5q0 222 96 400t268 279t387 101z" />
    <glyph glyph-name="gcircumflex" unicode="&#x11d;" horiz-adv-x="1210" 
d="M586 1524l315 -344h-182l-133 131l-135 -131h-183zM547 1049q114 0 197.5 -41t132.5 -105l8 125h182v-1001q0 -240 -141 -379.5t-377 -139.5q-290 0 -473 216l133 131q141 -168 338 -168q147 0 233 91.5t86 244.5v88q-111 -131 -319 -131q-211 0 -343 150.5t-132 383.5
t132 384t343 151zM584 870q-136 0 -223 -98.5t-87 -257.5t87 -257.5t223 -98.5q176 0 282 174v364q-106 174 -282 174z" />
    <glyph glyph-name="Gbreve" unicode="&#x11e;" horiz-adv-x="1523" 
d="M1135 1919q0 -129 -89 -214t-223 -85t-223.5 85t-89.5 214h145q0 -66 47.5 -113t120.5 -47t119.5 47t46.5 113h146zM827 1532q323 0 539 -219l-133 -152q-164 178 -406 178q-238 0 -389 -165.5t-151 -421.5q0 -168 70.5 -301t200.5 -209t296 -76q195 0 340 106v338h-383
v183h592v-623q-212 -197 -549 -197q-224 0 -402 101.5t-277 279t-99 398.5q0 222 96 400t268 279t387 101z" />
    <glyph glyph-name="gbreve" unicode="&#x11f;" horiz-adv-x="1210" 
d="M897 1483q0 -132 -88.5 -219.5t-222.5 -87.5t-224 87.5t-90 219.5h148q0 -71 46.5 -117.5t119.5 -46.5q72 0 118 46.5t46 117.5h147zM547 1049q114 0 197.5 -41t132.5 -105l8 125h182v-1001q0 -240 -141 -379.5t-377 -139.5q-290 0 -473 216l133 131q141 -168 338 -168
q147 0 233 91.5t86 244.5v88q-111 -131 -319 -131q-211 0 -343 150.5t-132 383.5t132 384t343 151zM584 870q-136 0 -223 -98.5t-87 -257.5t87 -257.5t223 -98.5q176 0 282 174v364q-106 174 -282 174z" />
    <glyph glyph-name="Gdotaccent" unicode="&#x120;" horiz-adv-x="1523" 
d="M823 1860q53 0 86 -33t33 -86q0 -51 -33.5 -84t-85.5 -33q-51 0 -83.5 33t-32.5 84q0 52 32.5 85.5t83.5 33.5zM827 1532q323 0 539 -219l-133 -152q-164 178 -406 178q-238 0 -389 -165.5t-151 -421.5q0 -168 70.5 -301t200.5 -209t296 -76q195 0 340 106v338h-383v183
h592v-623q-212 -197 -549 -197q-224 0 -402 101.5t-277 279t-99 398.5q0 222 96 400t268 279t387 101z" />
    <glyph glyph-name="gdotaccent" unicode="&#x121;" horiz-adv-x="1210" 
d="M586 1458q52 0 85.5 -33t33.5 -86q0 -51 -33.5 -83.5t-85.5 -32.5q-51 0 -84 32.5t-33 83.5q0 52 33 85.5t84 33.5zM547 1049q114 0 197.5 -41t132.5 -105l8 125h182v-1001q0 -240 -141 -379.5t-377 -139.5q-290 0 -473 216l133 131q141 -168 338 -168q147 0 233 91.5
t86 244.5v88q-111 -131 -319 -131q-211 0 -343 150.5t-132 383.5t132 384t343 151zM584 870q-136 0 -223 -98.5t-87 -257.5t87 -257.5t223 -98.5q176 0 282 174v364q-106 174 -282 174z" />
    <glyph glyph-name="Gcommaaccent" unicode="&#x122;" horiz-adv-x="1523" 
d="M827 1532q323 0 539 -219l-133 -152q-164 178 -406 178q-238 0 -389 -165.5t-151 -421.5q0 -168 70.5 -301t200.5 -209t296 -76q195 0 340 106v338h-383v183h592v-623q-212 -197 -549 -197q-224 0 -402 101.5t-277 279t-99 398.5q0 222 96 400t268 279t387 101zM782 -104
q62 0 102 -32t40 -85q0 -66 -39 -105l-146 -145h-8v358q24 9 51 9z" />
    <glyph glyph-name="gcommaaccent" unicode="&#x123;" horiz-adv-x="1210" 
d="M623 1137q-63 0 -102.5 31.5t-39.5 84.5q0 66 39 105l146 145h8v-358q-21 -8 -51 -8zM547 1049q114 0 197.5 -41t132.5 -105l8 125h182v-1001q0 -240 -141 -379.5t-377 -139.5q-290 0 -473 216l133 131q141 -168 338 -168q147 0 233 91.5t86 244.5v88
q-111 -131 -319 -131q-211 0 -343 150.5t-132 383.5t132 384t343 151zM584 870q-136 0 -223 -98.5t-87 -257.5t87 -257.5t223 -98.5q176 0 282 174v364q-106 174 -282 174z" />
    <glyph glyph-name="Hcircumflex" unicode="&#x124;" horiz-adv-x="1501" 
d="M750 1898l325 -299h-186l-139 123l-140 -123h-186zM1333 1505v-1505h-209v674h-747v-674h-209v1505h209v-639h747v639h209z" />
    <glyph glyph-name="hcircumflex" unicode="&#x125;" horiz-adv-x="1183" 
d="M268 1925l326 -299h-186l-140 123l-139 -123h-186zM348 1556v-641q60 65 133.5 99.5t182.5 34.5q183 0 286 -120t103 -321v-608h-201v596q0 118 -65 190t-173 72q-151 0 -266 -164v-694h-201v1556h201z" />
    <glyph glyph-name="Hbar" unicode="&#x126;" horiz-adv-x="1552" 
d="M1528 1235v-141h-170v-1094h-209v664h-748v-664h-208v1094h-168v141h168v270h208v-270h748v270h209v-270h170zM1149 848v246h-748v-246h748z" />
    <glyph glyph-name="hbar" unicode="&#x127;" horiz-adv-x="1183" 
d="M664 1049q183 0 286 -120t103 -321v-608h-201v596q0 118 -65 190t-173 72q-151 0 -266 -164v-694h-201v1196h-157v141h157v219h201v-219h264v-141h-264v-281q60 65 133.5 99.5t182.5 34.5z" />
    <glyph glyph-name="Itilde" unicode="&#x128;" horiz-adv-x="544" 
d="M147 1894q48 0 84.5 -16.5t57.5 -40t38.5 -46.5t38.5 -39.5t46 -16.5q65 0 65 147h131q0 -140 -58 -212.5t-151 -72.5q-49 0 -84.5 16.5t-55 40t-35 47t-36 40t-47.5 16.5q-69 0 -69 -147h-133q0 143 58 213.5t150 70.5zM377 1505v-1505h-209v1505h209z" />
    <glyph glyph-name="itilde" unicode="&#x129;" horiz-adv-x="518" 
d="M133 1468q48 0 84.5 -16.5t57.5 -40t38 -46.5t38 -39.5t46 -16.5q66 0 66 147h131q0 -140 -58 -212.5t-151 -72.5q-49 0 -84.5 16.5t-55 40t-35 47t-36 40t-47.5 16.5q-70 0 -70 -147h-133q0 143 58 213.5t151 70.5zM344 1028v-1028h-201v1028h201z" />
    <glyph glyph-name="Imacron" unicode="&#x12a;" horiz-adv-x="544" 
d="M539 1776v-142h-533v142h533zM377 1505v-1505h-209v1505h209z" />
    <glyph glyph-name="imacron" unicode="&#x12b;" horiz-adv-x="518" 
d="M526 1362v-139h-532v139h532zM344 1028v-1028h-201v1028h201z" />
    <glyph glyph-name="Ibreve" unicode="&#x12c;" horiz-adv-x="544" 
d="M584 1898q0 -129 -89 -214t-223 -85t-223.5 85t-89.5 214h145q0 -66 47.5 -112.5t120.5 -46.5t119.5 46.5t46.5 112.5h146zM377 1505v-1505h-209v1505h209z" />
    <glyph glyph-name="ibreve" unicode="&#x12d;" horiz-adv-x="518" 
d="M571 1483q0 -132 -88.5 -219.5t-222.5 -87.5t-223.5 87.5t-89.5 219.5h147q0 -71 46.5 -117.5t119.5 -46.5q72 0 118 46.5t46 117.5h147zM344 1028v-1028h-201v1028h201z" />
    <glyph glyph-name="Iogonek" unicode="&#x12e;" horiz-adv-x="544" 
d="M354 -338l37 -113q-44 -20 -117 -20q-119 0 -195.5 65.5t-76.5 184.5q0 169 166 282v1444h209v-1505h-88q-152 -79 -152 -221q0 -62 40 -95.5t102 -33.5q39 0 75 12z" />
    <glyph glyph-name="iogonek" unicode="&#x12f;" horiz-adv-x="487" 
d="M244 1229q-57 0 -94 37t-37 94q0 56 37 93.5t94 37.5q56 0 93.5 -37.5t37.5 -93.5q0 -57 -37.5 -94t-93.5 -37zM383 -338l37 -113q-44 -20 -117 -20q-119 0 -195.5 65.5t-76.5 184.5q0 143 112 241v1008h201v-1028h-27q-151 -79 -151 -221q0 -62 40 -95.5t101 -33.5
q40 0 76 12z" />
    <glyph glyph-name="Idotaccent" unicode="&#x130;" horiz-adv-x="544" 
d="M272 1839q52 0 85.5 -33.5t33.5 -85.5q0 -51 -33.5 -83.5t-85.5 -32.5q-51 0 -83.5 32.5t-32.5 83.5q0 52 32.5 85.5t83.5 33.5zM377 1505v-1505h-209v1505h209z" />
    <glyph glyph-name="dotlessi" unicode="&#x131;" horiz-adv-x="487" 
d="M344 1028v-1028h-201v1028h201z" />
    <glyph glyph-name="IJ" unicode="&#x132;" horiz-adv-x="1589" 
d="M377 1505v-1505h-209v1505h209zM1444 1505v-1075q0 -208 -126.5 -332.5t-330.5 -124.5q-94 0 -177 32.5t-147 93t-101.5 154.5t-37.5 210h205q0 -140 67.5 -218.5t184.5 -78.5q119 0 186.5 72.5t67.5 201.5v1065h209z" />
    <glyph glyph-name="ij" unicode="&#x133;" horiz-adv-x="964" 
d="M244 1491q56 0 93.5 -37.5t37.5 -93.5q0 -57 -37.5 -94t-93.5 -37q-57 0 -94 37t-37 94q0 56 37 93.5t94 37.5zM721 1491q55 0 93 -37.5t38 -93.5q0 -57 -37.5 -94t-93.5 -37q-57 0 -94 37t-37 94q0 56 37 93.5t94 37.5zM344 1028v-1028h-201v1028h201zM442 -492
q-154 0 -262 82l107 156q73 -59 162 -59q75 0 123.5 52t48.5 140v1149h200v-1147q0 -161 -107 -267t-272 -106z" />
    <glyph glyph-name="Jcircumflex" unicode="&#x134;" horiz-adv-x="1105" 
d="M850 1898l326 -299h-187l-139 123l-139 -123h-187zM961 1505v-1075q0 -208 -126.5 -332.5t-330.5 -124.5q-94 0 -177 32.5t-147 93t-101.5 154.5t-37.5 210h205q0 -140 67.5 -218.5t184.5 -78.5q119 0 186.5 72.5t67.5 201.5v1065h209z" />
    <glyph glyph-name="jcircumflex" unicode="&#x135;" horiz-adv-x="499" 
d="M262 1524l316 -344h-183l-133 131l-135 -131h-182zM-23 -492q-154 0 -262 82l107 156q73 -59 162 -59q75 0 123.5 52t48.5 140v1149h200v-1147q0 -161 -107 -267t-272 -106z" />
    <glyph glyph-name="Kcommaaccent" unicode="&#x136;" horiz-adv-x="1355" 
d="M1262 1505l-451 -733l516 -772h-252l-383 582l-362 -582h-162v1505h209v-1089l649 1089h236zM664 -104q62 0 101.5 -32t39.5 -85q0 -66 -39 -105l-145 -145h-9v358q24 9 52 9z" />
    <glyph glyph-name="kcommaaccent" unicode="&#x137;" horiz-adv-x="1097" 
d="M348 1556v-1191l457 663h227l-315 -450l366 -578h-235l-258 412l-281 -412h-162v1556h201zM545 -104q62 0 101.5 -32t39.5 -85q0 -66 -39 -105l-145 -145h-8v358q24 9 51 9z" />
    <glyph glyph-name="Lacute" unicode="&#x139;" horiz-adv-x="1120" 
d="M668 1837l-301 -235h-222l271 235h252zM377 1505v-1319h717v-186h-926v1505h209z" />
    <glyph glyph-name="lacute" unicode="&#x13a;" horiz-adv-x="495" 
d="M668 1880l-301 -235h-222l271 235h252zM348 1556v-1556h-201v1556h201z" />
    <glyph glyph-name="Lcommaaccent" unicode="&#x13b;" horiz-adv-x="1120" 
d="M377 1505v-1319h717v-186h-926v1505h209zM584 -104q62 0 101.5 -32t39.5 -85q0 -66 -39 -105l-145 -145h-9v358q24 9 52 9z" />
    <glyph glyph-name="lcommaaccent" unicode="&#x13c;" horiz-adv-x="495" 
d="M348 1556v-1556h-201v1556h201zM207 -104q62 0 101.5 -32t39.5 -85q0 -66 -39 -105l-145 -145h-8v358q24 9 51 9z" />
    <glyph glyph-name="Lcaron" unicode="&#x13d;" horiz-adv-x="1120" 
d="M612 1520q61 0 101.5 -41t40.5 -101q0 -57 -29 -96l-156 -195h-8v424q24 9 51 9zM377 1505v-1319h717v-186h-926v1505h209z" />
    <glyph glyph-name="lcaron" unicode="&#x13e;" horiz-adv-x="495" 
d="M543 1561q61 0 101 -41t40 -101q0 -57 -29 -96l-155 -195h-8v424q24 9 51 9zM348 1556v-1556h-201v1556h201z" />
    <glyph glyph-name="Ldot" unicode="&#x13f;" horiz-adv-x="1120" 
d="M377 1505v-1319h717v-186h-926v1505h209zM762 821q58 0 96.5 -38.5t38.5 -96.5q0 -57 -38.5 -95t-96.5 -38t-96.5 38t-38.5 95q0 58 38.5 96.5t96.5 38.5z" />
    <glyph glyph-name="ldot" unicode="&#x140;" horiz-adv-x="882" 
d="M348 1556v-1556h-201v1556h201zM698 659q59 0 97.5 -38.5t38.5 -96.5q0 -57 -39 -95t-97 -38t-96.5 38t-38.5 95q0 58 38.5 96.5t96.5 38.5z" />
    <glyph glyph-name="Lslash" unicode="&#x141;" horiz-adv-x="1173" 
d="M430 186h717v-186h-926v504l-166 -82l-59 149l225 111v823h209v-719l211 105l59 -148l-270 -135v-422z" />
    <glyph glyph-name="lslash" unicode="&#x142;" horiz-adv-x="563" 
d="M592 782l-217 -108v-674h-201v575l-147 -73l-56 129l203 100v825h201v-727l164 80z" />
    <glyph glyph-name="Nacute" unicode="&#x143;" horiz-adv-x="1492" 
d="M1130 1837l-301 -235h-221l271 235h251zM176 1532l940 -1036v1009h209v-1532h-8l-940 1039v-1012h-209v1532h8z" />
    <glyph glyph-name="nacute" unicode="&#x144;" horiz-adv-x="1179" 
d="M999 1448l-319 -268h-203l281 268h241zM659 1049q183 0 286.5 -120t103.5 -321v-608h-201v596q0 118 -65 190t-173 72q-151 0 -266 -164v-694h-201v1028h183l8 -125q49 64 132 105t193 41z" />
    <glyph glyph-name="Ncommaaccent" unicode="&#x145;" horiz-adv-x="1492" 
d="M176 1532l940 -1036v1009h209v-1532h-8l-940 1039v-1012h-209v1532h8zM766 -104q62 0 101.5 -32t39.5 -85q0 -66 -39 -105l-145 -145h-8v358q24 9 51 9z" />
    <glyph glyph-name="ncommaaccent" unicode="&#x146;" horiz-adv-x="1179" 
d="M659 1049q183 0 286.5 -120t103.5 -321v-608h-201v596q0 118 -65 190t-173 72q-151 0 -266 -164v-694h-201v1028h183l8 -125q49 64 132 105t193 41zM584 -104q62 0 101.5 -32t39.5 -85q0 -66 -39 -105l-145 -145h-9v358q24 9 52 9z" />
    <glyph glyph-name="Ncaron" unicode="&#x147;" horiz-adv-x="1492" 
d="M1073 1878l-325 -297l-326 297h186l140 -121l139 121h186zM176 1532l940 -1036v1009h209v-1532h-8l-940 1039v-1012h-209v1532h8z" />
    <glyph glyph-name="ncaron" unicode="&#x148;" horiz-adv-x="1179" 
d="M911 1509l-315 -344l-317 344h182l135 -131l133 131h182zM659 1049q183 0 286.5 -120t103.5 -321v-608h-201v596q0 118 -65 190t-173 72q-151 0 -266 -164v-694h-201v1028h183l8 -125q49 64 132 105t193 41z" />
    <glyph glyph-name="Eng" unicode="&#x14a;" horiz-adv-x="1492" 
d="M1116 1505h209v-1532v-8q0 -208 -126.5 -332.5t-334.5 -124.5v207q118 0 185 68.5t67 196.5v215l-739 817v-1012h-209v1532h8l940 -1036v1009z" />
    <glyph glyph-name="eng" unicode="&#x14b;" horiz-adv-x="1179" 
d="M659 1049q183 0 286.5 -120t103.5 -321v-725q0 -161 -109.5 -268t-275.5 -107v187q83 0 133.5 46.5t50.5 127.5v727q0 118 -65 190t-173 72q-151 0 -266 -164v-694h-201v1028h183l8 -125q49 64 132 105t193 41z" />
    <glyph glyph-name="Omacron" unicode="&#x14c;" horiz-adv-x="1669" 
d="M1100 1796v-141h-533v141h533zM834 1532q161 0 302 -59t241.5 -162t158 -248t57.5 -311q0 -222 -98.5 -400.5t-272 -278.5t-388.5 -100q-162 0 -303 58.5t-241 161.5t-157 247.5t-57 311.5q0 166 57 311t157 248t241 162t303 59zM834 1339q-239 0 -393 -166t-154 -421
t154 -420.5t393 -165.5t392.5 165.5t153.5 420.5q0 168 -69.5 302t-194.5 209.5t-282 75.5z" />
    <glyph glyph-name="omacron" unicode="&#x14d;" 
d="M864 1362v-139h-532v139h532zM598 1049q150 0 271 -69.5t189 -192t68 -275.5q0 -231 -149.5 -381.5t-378.5 -150.5t-377.5 150t-148.5 382t149 384.5t377 152.5zM598 870q-141 0 -232.5 -101.5t-91.5 -256.5q0 -154 91.5 -254t232.5 -100t233.5 100t92.5 254
q0 155 -92.5 256.5t-233.5 101.5z" />
    <glyph glyph-name="Obreve" unicode="&#x14e;" horiz-adv-x="1669" 
d="M1145 1919q0 -129 -88.5 -214t-222.5 -85t-224 85t-90 214h146q0 -66 47.5 -113t120.5 -47t119 47t46 113h146zM834 1532q161 0 302 -59t241.5 -162t158 -248t57.5 -311q0 -222 -98.5 -400.5t-272 -278.5t-388.5 -100q-162 0 -303 58.5t-241 161.5t-157 247.5t-57 311.5
q0 166 57 311t157 248t241 162t303 59zM834 1339q-239 0 -393 -166t-154 -421t154 -420.5t393 -165.5t392.5 165.5t153.5 420.5q0 168 -69.5 302t-194.5 209.5t-282 75.5z" />
    <glyph glyph-name="obreve" unicode="&#x14f;" 
d="M909 1483q0 -132 -88.5 -219.5t-222.5 -87.5t-223.5 87.5t-89.5 219.5h147q0 -71 46.5 -117.5t119.5 -46.5q72 0 118 46.5t46 117.5h147zM598 1049q150 0 271 -69.5t189 -192t68 -275.5q0 -231 -149.5 -381.5t-378.5 -150.5t-377.5 150t-148.5 382t149 384.5t377 152.5z
M598 870q-141 0 -232.5 -101.5t-91.5 -256.5q0 -154 91.5 -254t232.5 -100t233.5 100t92.5 254q0 155 -92.5 256.5t-233.5 101.5z" />
    <glyph glyph-name="Ohungarumlaut" unicode="&#x150;" horiz-adv-x="1669" 
d="M946 1870l-201 -244h-174l197 244h178zM1278 1870l-201 -244h-174l197 244h178zM834 1532q161 0 302 -59t241.5 -162t158 -248t57.5 -311q0 -222 -98.5 -400.5t-272 -278.5t-388.5 -100q-162 0 -303 58.5t-241 161.5t-157 247.5t-57 311.5q0 166 57 311t157 248t241 162
t303 59zM834 1339q-239 0 -393 -166t-154 -421t154 -420.5t393 -165.5t392.5 165.5t153.5 420.5q0 168 -69.5 302t-194.5 209.5t-282 75.5z" />
    <glyph glyph-name="ohungarumlaut" unicode="&#x151;" 
d="M713 1464l-219 -295h-179l220 295h178zM1057 1464l-217 -295h-181l220 295h178zM598 1049q150 0 271 -69.5t189 -192t68 -275.5q0 -231 -149.5 -381.5t-378.5 -150.5t-377.5 150t-148.5 382t149 384.5t377 152.5zM598 870q-141 0 -232.5 -101.5t-91.5 -256.5
q0 -154 91.5 -254t232.5 -100t233.5 100t92.5 254q0 155 -92.5 256.5t-233.5 101.5z" />
    <glyph glyph-name="OE" unicode="&#x152;" horiz-adv-x="2412" 
d="M1591 193h740v-193h-949v231q-99 -123 -239.5 -190.5t-308.5 -67.5q-162 0 -303 58.5t-241 161.5t-157 247.5t-57 311.5q0 166 57 311t157 248t241 162t303 59q169 0 309 -68t239 -192v233h932v-192h-723v-457h635v-186h-635v-477zM834 166q239 0 392.5 165.5
t153.5 420.5q0 168 -69.5 302t-194.5 209.5t-282 75.5q-239 0 -393 -166t-154 -421t154 -420.5t393 -165.5z" />
    <glyph glyph-name="oe" unicode="&#x153;" horiz-adv-x="1945" 
d="M1878 522v-80h-754q9 -139 90.5 -213.5t225.5 -74.5q96 0 169.5 35.5t114.5 93.5l134 -111q-156 -192 -418 -192q-137 0 -245 52.5t-175 147.5q-71 -95 -180.5 -147.5t-241.5 -52.5q-229 0 -377.5 150t-148.5 382t149 384.5t377 152.5q131 0 240.5 -54t181.5 -149
q66 96 167.5 149.5t225.5 53.5q112 0 201.5 -41.5t146.5 -114t87 -167t30 -204.5zM1124 606h555q-5 124 -74.5 197.5t-191.5 73.5q-124 0 -202.5 -74t-86.5 -197zM598 158q141 0 232.5 100t91.5 254q0 155 -91.5 256.5t-232.5 101.5t-232.5 -101.5t-91.5 -256.5
q0 -154 91.5 -254t232.5 -100z" />
    <glyph glyph-name="Racute" unicode="&#x154;" horiz-adv-x="1294" 
d="M1018 1837l-301 -235h-221l270 235h252zM1266 0h-246l-352 571h-4h-291v-571h-209v1505h500q151 0 270 -53t189.5 -160.5t70.5 -253.5q0 -160 -81.5 -270.5t-223.5 -159.5zM373 1321v-565h272q157 0 247.5 72.5t90.5 209.5q0 135 -91.5 209t-246.5 74h-272z" />
    <glyph glyph-name="racute" unicode="&#x155;" horiz-adv-x="669" 
d="M821 1448l-319 -268h-203l281 268h241zM641 1049v-201h-18q-89 0 -155 -44.5t-124 -127.5v-676h-201v1028h183l10 -139q43 69 121 114.5t184 45.5z" />
    <glyph glyph-name="Rcommaaccent" unicode="&#x156;" horiz-adv-x="1294" 
d="M889 608l377 -608h-246l-352 571h-4h-291v-571h-209v1505h500q151 0 270 -53t189.5 -160.5t70.5 -253.5q0 -160 -81.5 -270.5t-223.5 -159.5zM373 1321v-565h272q157 0 247.5 72.5t90.5 209.5q0 135 -91.5 209t-246.5 74h-272zM643 -104q62 0 101.5 -32t39.5 -85
q0 -66 -39 -105l-145 -145h-8v358q24 9 51 9z" />
    <glyph glyph-name="rcommaaccent" unicode="&#x157;" horiz-adv-x="669" 
d="M641 1049v-201h-18q-89 0 -155 -44.5t-124 -127.5v-676h-201v1028h183l10 -139q43 69 121 114.5t184 45.5zM209 -104q62 0 101.5 -32t39.5 -85q0 -66 -39 -105l-145 -145h-8v358q24 9 51 9z" />
    <glyph glyph-name="Rcaron" unicode="&#x158;" horiz-adv-x="1294" 
d="M961 1878l-326 -297l-326 297h187l139 -121l139 121h187zM1266 0h-246l-352 571h-4h-291v-571h-209v1505h500q151 0 270 -53t189.5 -160.5t70.5 -253.5q0 -160 -81.5 -270.5t-223.5 -159.5zM373 1321v-565h272q157 0 247.5 72.5t90.5 209.5q0 135 -91.5 209t-246.5 74
h-272z" />
    <glyph glyph-name="rcaron" unicode="&#x159;" horiz-adv-x="669" 
d="M733 1509l-315 -344l-318 344h183l135 -131l133 131h182zM641 1049v-201h-18q-89 0 -155 -44.5t-124 -127.5v-676h-201v1028h183l10 -139q43 69 121 114.5t184 45.5z" />
    <glyph glyph-name="Sacute" unicode="&#x15a;" horiz-adv-x="1214" 
d="M991 1858l-301 -236h-221l270 236h252zM602 1532q276 0 500 -160l-101 -178q-187 147 -401 147q-129 0 -208 -59t-79 -176q0 -100 70 -152t260 -92q274 -60 388 -158t114 -272q0 -206 -146 -332.5t-391 -126.5q-330 0 -551 193l117 174q80 -80 199 -128t241 -48
q145 0 233.5 65t88.5 183q0 98 -81 157t-271 99q-183 40 -288 97t-148.5 135t-43.5 194q0 198 137.5 318t360.5 120z" />
    <glyph glyph-name="sacute" unicode="&#x15b;" horiz-adv-x="931" 
d="M877 1448l-320 -268h-203l281 268h242zM485 1049q100 0 195.5 -28.5t159.5 -72.5l-84 -160q-126 86 -279 86q-180 0 -180 -118q0 -59 44.5 -86.5t164.5 -55.5q184 -44 269 -119.5t85 -191.5q0 -148 -111 -235.5t-300 -87.5q-243 0 -392 118l93 162q125 -106 301 -106
q96 0 151 32.5t55 96.5q0 61 -46.5 92.5t-164.5 58.5q-187 43 -268.5 112.5t-81.5 188.5q0 147 104 230.5t285 83.5z" />
    <glyph glyph-name="Scircumflex" unicode="&#x15c;" horiz-adv-x="1214" 
d="M600 1919l326 -299h-187l-139 123l-139 -123h-187zM602 1532q276 0 500 -160l-101 -178q-187 147 -401 147q-129 0 -208 -59t-79 -176q0 -100 70 -152t260 -92q274 -60 388 -158t114 -272q0 -206 -146 -332.5t-391 -126.5q-330 0 -551 193l117 174q80 -80 199 -128
t241 -48q145 0 233.5 65t88.5 183q0 98 -81 157t-271 99q-183 40 -288 97t-148.5 135t-43.5 194q0 198 137.5 318t360.5 120z" />
    <glyph glyph-name="scircumflex" unicode="&#x15d;" horiz-adv-x="931" 
d="M473 1524l315 -344h-182l-133 131l-135 -131h-182zM485 1049q100 0 195.5 -28.5t159.5 -72.5l-84 -160q-126 86 -279 86q-180 0 -180 -118q0 -59 44.5 -86.5t164.5 -55.5q184 -44 269 -119.5t85 -191.5q0 -148 -111 -235.5t-300 -87.5q-243 0 -392 118l93 162
q125 -106 301 -106q96 0 151 32.5t55 96.5q0 61 -46.5 92.5t-164.5 58.5q-187 43 -268.5 112.5t-81.5 188.5q0 147 104 230.5t285 83.5z" />
    <glyph glyph-name="Scedilla" unicode="&#x15e;" horiz-adv-x="1214" 
d="M1145 432q0 -195 -132 -320t-356 -137l-18 -79q77 -5 133.5 -51t56.5 -130q0 -83 -63.5 -134.5t-157.5 -51.5q-130 0 -202 82l79 92q50 -57 117 -57q88 0 88 69q0 72 -90 78q-46 4 -98 -10l-6 8l43 184q-287 21 -482 191l117 174q80 -80 199 -128t241 -48q145 0 233.5 65
t88.5 183q0 98 -81 157t-271 99q-183 40 -288 97t-148.5 135t-43.5 194q0 198 137.5 318t360.5 120q276 0 500 -160l-101 -178q-187 147 -401 147q-129 0 -208 -59t-79 -176q0 -100 70 -152t260 -92q274 -60 388 -158t114 -272z" />
    <glyph glyph-name="scedilla" unicode="&#x15f;" horiz-adv-x="931" 
d="M860 303q0 -133 -92 -218.5t-252 -100.5l-20 -88q77 -5 133.5 -51t56.5 -130q0 -83 -63.5 -134.5t-157.5 -51.5q-131 0 -203 82l80 92q50 -57 117 -57q88 0 88 69q0 72 -90 78q-46 5 -99 -10l-6 8l43 191q-207 12 -338 116l93 162q125 -106 301 -106q96 0 151 32.5
t55 96.5q0 61 -46.5 92.5t-164.5 58.5q-187 43 -268.5 112.5t-81.5 188.5q0 147 104 230.5t285 83.5q100 0 195.5 -28.5t159.5 -72.5l-84 -160q-126 86 -279 86q-180 0 -180 -118q0 -59 44.5 -86.5t164.5 -55.5q184 -44 269 -119.5t85 -191.5z" />
    <glyph glyph-name="Scaron" unicode="&#x160;" horiz-adv-x="1214" 
d="M934 1898l-326 -296l-325 296h186l139 -120l140 120h186zM602 1532q276 0 500 -160l-101 -178q-187 147 -401 147q-129 0 -208 -59t-79 -176q0 -100 70 -152t260 -92q274 -60 388 -158t114 -272q0 -206 -146 -332.5t-391 -126.5q-330 0 -551 193l117 174q80 -80 199 -128
t241 -48q145 0 233.5 65t88.5 183q0 98 -81 157t-271 99q-183 40 -288 97t-148.5 135t-43.5 194q0 198 137.5 318t360.5 120z" />
    <glyph glyph-name="scaron" unicode="&#x161;" horiz-adv-x="931" 
d="M788 1509l-315 -344l-317 344h182l135 -131l133 131h182zM485 1049q100 0 195.5 -28.5t159.5 -72.5l-84 -160q-126 86 -279 86q-180 0 -180 -118q0 -59 44.5 -86.5t164.5 -55.5q184 -44 269 -119.5t85 -191.5q0 -148 -111 -235.5t-300 -87.5q-243 0 -392 118l93 162
q125 -106 301 -106q96 0 151 32.5t55 96.5q0 61 -46.5 92.5t-164.5 58.5q-187 43 -268.5 112.5t-81.5 188.5q0 147 104 230.5t285 83.5z" />
    <glyph glyph-name="Tcedilla" unicode="&#x162;" horiz-adv-x="1316" 
d="M762 0h-47l-25 -104q77 -5 134 -51t57 -130q0 -83 -64 -134.5t-158 -51.5q-130 0 -202 82l80 92q50 -57 116 -57q88 0 88 69q0 72 -90 78q-46 4 -98 -10l-6 8l47 209h-41v1319h-526v186h1263v-186h-528v-1319z" />
    <glyph glyph-name="tcedilla" unicode="&#x163;" horiz-adv-x="815" 
d="M512 -104q77 -5 133.5 -51t56.5 -130q0 -83 -63.5 -134.5t-157.5 -51.5q-130 0 -202 82l79 92q50 -57 117 -57q88 0 88 69q0 72 -90 78q-46 4 -98 -10l-6 8l49 219q-92 39 -142.5 124t-50.5 210v512h-200v172h200v348h201v-348h324v-172h-324v-512q0 -86 47 -134t123 -48
q78 0 154 37l57 -164q-87 -55 -221 -55q-38 0 -54 2z" />
    <glyph glyph-name="Tcaron" unicode="&#x164;" horiz-adv-x="1316" 
d="M991 1878l-325 -297l-326 297h186l140 -121l139 121h186zM1290 1505v-186h-528v-1319h-209v1319h-526v186h1263z" />
    <glyph glyph-name="tcaron" unicode="&#x165;" horiz-adv-x="815" 
d="M621 1561q61 0 101 -41t40 -101q0 -57 -29 -96l-155 -195h-9v424q24 9 52 9zM426 1376v-348h324v-172h-324v-512q0 -86 47 -134t123 -48q78 0 154 37l57 -164q-87 -55 -221 -55q-167 0 -264 94.5t-97 269.5v512h-200v172h200v348h201z" />
    <glyph glyph-name="Tbar" unicode="&#x166;" horiz-adv-x="1316" 
d="M1290 1319h-528v-524h305v-142h-305v-653h-209v653h-305v142h305v524h-526v186h1263v-186z" />
    <glyph glyph-name="tbar" unicode="&#x167;" horiz-adv-x="815" 
d="M750 199l57 -164q-87 -55 -221 -55q-167 0 -264 94.5t-97 269.5v184h-200v140h200v219h-200v141h200v348h201v-348h324v-141h-324v-219h324v-140h-324v-184q0 -86 47 -134t123 -48q78 0 154 37z" />
    <glyph glyph-name="Utilde" unicode="&#x168;" horiz-adv-x="1443" 
d="M598 1894q48 0 84.5 -16.5t57.5 -40t38 -46.5t38 -39.5t46 -16.5q66 0 66 147h131q0 -140 -58 -212.5t-151 -72.5q-49 0 -84.5 16.5t-55 40t-35 47t-36 40t-47.5 16.5q-70 0 -70 -147h-133q0 143 58 213.5t151 70.5zM1296 1505v-975q0 -258 -149 -407.5t-424 -149.5
q-277 0 -426.5 149.5t-149.5 407.5v975h209v-962q0 -174 95 -275.5t272 -101.5q174 0 269 102t95 275v962h209z" />
    <glyph glyph-name="utilde" unicode="&#x169;" horiz-adv-x="1163" 
d="M461 1468q48 0 84.5 -16.5t57.5 -40t38 -46.5t38 -39.5t46 -16.5q66 0 66 147h131q0 -140 -58 -212.5t-151 -72.5q-49 0 -84.5 16.5t-55 40t-35 47t-36 40t-47.5 16.5q-70 0 -70 -147h-133q0 143 58 213.5t151 70.5zM1020 1028v-1028h-182l-9 125q-113 -145 -329 -145
q-174 0 -270.5 118t-96.5 318v612h201v-602q0 -115 58.5 -185.5t158.5 -70.5q89 0 151 43.5t117 120.5v694h201z" />
    <glyph glyph-name="Umacron" unicode="&#x16a;" horiz-adv-x="1443" 
d="M989 1776v-142h-532v142h532zM1296 1505v-975q0 -258 -149 -407.5t-424 -149.5q-277 0 -426.5 149.5t-149.5 407.5v975h209v-962q0 -174 95 -275.5t272 -101.5q174 0 269 102t95 275v962h209z" />
    <glyph glyph-name="umacron" unicode="&#x16b;" horiz-adv-x="1163" 
d="M852 1362v-139h-533v139h533zM1020 1028v-1028h-182l-9 125q-113 -145 -329 -145q-174 0 -270.5 118t-96.5 318v612h201v-602q0 -115 58.5 -185.5t158.5 -70.5q89 0 151 43.5t117 120.5v694h201z" />
    <glyph glyph-name="Ubreve" unicode="&#x16c;" horiz-adv-x="1443" 
d="M1034 1898q0 -129 -88.5 -214t-222.5 -85t-223.5 85t-89.5 214h145q0 -66 47.5 -112.5t120.5 -46.5t119.5 46.5t46.5 112.5h145zM1296 1505v-975q0 -258 -149 -407.5t-424 -149.5q-277 0 -426.5 149.5t-149.5 407.5v975h209v-962q0 -174 95 -275.5t272 -101.5
q174 0 269 102t95 275v962h209z" />
    <glyph glyph-name="ubreve" unicode="&#x16d;" horiz-adv-x="1163" 
d="M897 1483q0 -132 -88.5 -219.5t-222.5 -87.5t-224 87.5t-90 219.5h148q0 -71 46.5 -117.5t119.5 -46.5q72 0 118 46.5t46 117.5h147zM1020 1028v-1028h-182l-9 125q-113 -145 -329 -145q-174 0 -270.5 118t-96.5 318v612h201v-602q0 -115 58.5 -185.5t158.5 -70.5
q89 0 151 43.5t117 120.5v694h201z" />
    <glyph glyph-name="Uring" unicode="&#x16e;" horiz-adv-x="1443" 
d="M725 2040q95 0 159 -63t64 -158q0 -96 -63.5 -159t-159.5 -63q-97 0 -161 63t-64 159q0 95 64 158t161 63zM725 1927q-45 0 -76 -31.5t-31 -76.5q0 -47 31 -77t76 -30t75.5 30t30.5 77q0 46 -31 77t-75 31zM1296 1505v-975q0 -258 -149 -407.5t-424 -149.5
q-277 0 -426.5 149.5t-149.5 407.5v975h209v-962q0 -174 95 -275.5t272 -101.5q174 0 269 102t95 275v962h209z" />
    <glyph glyph-name="uring" unicode="&#x16f;" horiz-adv-x="1163" 
d="M588 1612q95 0 159 -64t64 -159t-63.5 -157.5t-159.5 -62.5q-97 0 -161.5 62.5t-64.5 157.5t64.5 159t161.5 64zM588 1497q-44 0 -75.5 -31.5t-31.5 -76.5t31 -75t76 -30t75.5 30t30.5 75q0 46 -31 77t-75 31zM1020 1028v-1028h-182l-9 125q-113 -145 -329 -145
q-174 0 -270.5 118t-96.5 318v612h201v-602q0 -115 58.5 -185.5t158.5 -70.5q89 0 151 43.5t117 120.5v694h201z" />
    <glyph glyph-name="Uhungarumlaut" unicode="&#x170;" horiz-adv-x="1443" 
d="M836 1849l-201 -243h-174l196 243h179zM1167 1849l-200 -243h-174l196 243h178zM1296 1505v-975q0 -258 -149 -407.5t-424 -149.5q-277 0 -426.5 149.5t-149.5 407.5v975h209v-962q0 -174 95 -275.5t272 -101.5q174 0 269 102t95 275v962h209z" />
    <glyph glyph-name="uhungarumlaut" unicode="&#x171;" horiz-adv-x="1163" 
d="M700 1464l-219 -295h-178l219 295h178zM1044 1464l-217 -295h-180l219 295h178zM1020 1028v-1028h-182l-9 125q-113 -145 -329 -145q-174 0 -270.5 118t-96.5 318v612h201v-602q0 -115 58.5 -185.5t158.5 -70.5q89 0 151 43.5t117 120.5v694h201z" />
    <glyph glyph-name="Uogonek" unicode="&#x172;" horiz-adv-x="1443" 
d="M1087 1505h209v-975q0 -208 -99 -347.5t-286 -186.5q-114 -78 -114 -201q0 -62 39.5 -95.5t101.5 -33.5q40 0 76 12l37 -112q-47 -21 -117 -21q-119 0 -195.5 65.5t-76.5 184.5q0 101 55 178q-183 1 -312 70.5t-193.5 193.5t-64.5 293v975h209v-962q0 -174 95 -275.5
t272 -101.5q174 0 269 102t95 275v962z" />
    <glyph glyph-name="uogonek" unicode="&#x173;" horiz-adv-x="1163" 
d="M1059 -338l37 -113q-44 -20 -117 -20q-119 0 -195.5 65.5t-76.5 184.5q0 152 129 254l-7 92q-113 -145 -329 -145q-174 0 -270.5 118t-96.5 318v612h201v-602q0 -115 58.5 -185.5t158.5 -70.5q89 0 151 43.5t117 120.5v694h201v-1028h-27q-151 -79 -151 -221
q0 -62 40 -95.5t101 -33.5q40 0 76 12z" />
    <glyph glyph-name="Wcircumflex" unicode="&#x174;" horiz-adv-x="1982" 
d="M991 1898l326 -299h-187l-139 123l-139 -123h-186zM1952 1505l-580 -1530h-8l-373 981l-373 -981h-8l-579 1530h231l352 -979l373 979h8l373 -979l352 979h232z" />
    <glyph glyph-name="wcircumflex" unicode="&#x175;" horiz-adv-x="1550" 
d="M776 1524l316 -344h-183l-133 131l-135 -131h-182zM1536 1028l-457 -1048h-8l-295 610l-297 -610h-8l-457 1048h207l264 -625l287 625h8l285 -625l266 625h205z" />
    <glyph glyph-name="Ycircumflex" unicode="&#x176;" horiz-adv-x="1351" 
d="M676 1898l325 -299h-186l-139 123l-139 -123h-187zM1337 1503l-557 -866v-637h-209v633l-557 870h244l418 -659l416 659h245z" />
    <glyph glyph-name="ycircumflex" unicode="&#x177;" horiz-adv-x="1095" 
d="M530 1524l316 -344h-182l-134 131l-135 -131h-182zM1081 1028l-751 -1499h-230l338 639l-424 860h209l322 -668l327 668h209z" />
    <glyph glyph-name="Ydieresis" unicode="&#x178;" horiz-adv-x="1351" 
d="M500 1829q49 0 80.5 -31.5t31.5 -79.5t-31.5 -79t-80.5 -31q-47 0 -79 31.5t-32 78.5t32 79t79 32zM850 1829q47 0 80 -32t33 -79t-32.5 -78.5t-80.5 -31.5q-47 0 -79 31.5t-32 78.5t32 79t79 32zM1337 1503l-557 -866v-637h-209v633l-557 870h244l418 -659l416 659h245z
" />
    <glyph glyph-name="Zacute" unicode="&#x179;" horiz-adv-x="1187" 
d="M983 1837l-301 -235h-221l270 235h252zM1110 1505v-8l-727 -1307h750v-190h-1082v8l733 1307h-700v190h1026z" />
    <glyph glyph-name="zacute" unicode="&#x17a;" horiz-adv-x="927" 
d="M866 1448l-319 -268h-203l281 268h241zM879 1028v-8l-519 -848h517v-172h-830v8l516 848h-485v172h801z" />
    <glyph glyph-name="Zdotaccent" unicode="&#x17b;" horiz-adv-x="1187" 
d="M592 1839q52 0 85.5 -33.5t33.5 -85.5q0 -51 -33.5 -83.5t-85.5 -32.5q-51 0 -84 32.5t-33 83.5q0 52 33 85.5t84 33.5zM1110 1505v-8l-727 -1307h750v-190h-1082v8l733 1307h-700v190h1026z" />
    <glyph glyph-name="zdotaccent" unicode="&#x17c;" horiz-adv-x="927" 
d="M463 1458q53 0 86 -33t33 -86q0 -51 -33.5 -83.5t-85.5 -32.5q-51 0 -84 32.5t-33 83.5q0 52 33 85.5t84 33.5zM879 1028v-8l-519 -848h517v-172h-830v8l516 848h-485v172h801z" />
    <glyph glyph-name="Zcaron" unicode="&#x17d;" horiz-adv-x="1187" 
d="M926 1878l-326 -297l-326 297h187l139 -121l139 121h187zM1110 1505v-8l-727 -1307h750v-190h-1082v8l733 1307h-700v190h1026z" />
    <glyph glyph-name="zcaron" unicode="&#x17e;" horiz-adv-x="927" 
d="M778 1509l-315 -344l-318 344h183l135 -131l133 131h182zM879 1028v-8l-519 -848h517v-172h-830v8l516 848h-485v172h801z" />
    <glyph glyph-name="florin" unicode="&#x192;" horiz-adv-x="856" 
d="M670 1544q135 0 225 -74l-78 -159q-55 55 -137 55q-74 0 -117.5 -52t-52.5 -143l-16 -143h229l-18 -172h-230l-110 -1006q-18 -153 -114 -247.5t-247 -94.5q-137 0 -225 72l78 160q53 -53 137 -53q74 0 117.5 51t52.5 143l106 975h-153l18 172h156l18 172
q18 153 113.5 248.5t247.5 95.5z" />
    <glyph glyph-name="Aringacute" unicode="&#x1fa;" horiz-adv-x="1429" 
d="M1147 2191l-320 -268h-202l280 268h242zM768 1423l643 -1423h-223l-135 307h-676l-135 -307h-224l644 1423q-77 15 -125 73.5t-48 139.5q0 95 64.5 159.5t161.5 64.5q95 0 159 -64.5t64 -159.5q0 -81 -47 -139.5t-123 -73.5zM608 1636q0 -45 31 -74.5t76 -29.5t75.5 29.5
t30.5 74.5q0 46 -31 77.5t-75 31.5t-75.5 -31.5t-31.5 -77.5zM455 489h520l-260 582z" />
    <glyph glyph-name="aringacute" unicode="&#x1fb;" horiz-adv-x="1193" 
d="M1004 1855l-302 -235h-221l271 235h252zM602 1563q95 0 159 -64.5t64 -159.5t-63.5 -157t-159.5 -62q-97 0 -161 62t-64 157t64.5 159.5t160.5 64.5zM602 1448q-44 0 -75 -31.5t-31 -77.5q0 -45 30.5 -74.5t75.5 -29.5t76 29.5t31 74.5q0 46 -31.5 77.5t-75.5 31.5z
M539 1049q211 0 321 -146l8 125h183v-1028h-183l-8 125q-110 -145 -321 -145q-209 0 -338 150t-129 384t129 384.5t338 150.5zM575 870q-134 0 -217.5 -98.5t-83.5 -257.5t83.5 -257.5t217.5 -98.5q95 0 159.5 45.5t115.5 128.5v364q-51 83 -115.5 128.5t-159.5 45.5z" />
    <glyph glyph-name="AEacute" unicode="&#x1fc;" horiz-adv-x="1800" 
d="M1411 1837l-301 -235h-221l270 235h252zM1702 1505v-192h-840l191 -461h561v-178h-488l201 -481h391v-193h-540l-131 317h-666l-129 -317h-234l654 1505h1030zM715 1133l-266 -652h532z" />
    <glyph glyph-name="aeacute" unicode="&#x1fd;" horiz-adv-x="1927" 
d="M1360 1448l-320 -268h-202l280 268h242zM1386 1049q222 0 348 -148.5t126 -384.5v-74h-773q11 -141 94 -215.5t240 -74.5q96 0 170 36.5t115 94.5l133 -111q-156 -192 -418 -192q-130 0 -228.5 40t-145.5 105l-9 -125h-170l-8 125q-110 -145 -321 -145q-209 0 -338 150
t-129 384t129 384.5t338 150.5q211 0 321 -146l8 125h172l9 -125q135 146 337 146zM1378 877q-78 0 -139.5 -28t-103.5 -90t-50 -153h576q-6 123 -80 197t-203 74zM575 870q-134 0 -217.5 -98.5t-83.5 -257.5t83.5 -257.5t217.5 -98.5q95 0 159.5 45.5t115.5 128.5v364
q-51 83 -115.5 128.5t-159.5 45.5z" />
    <glyph glyph-name="Oslashacute" unicode="&#x1fe;" horiz-adv-x="1669" 
d="M1225 1858l-301 -236h-222l271 236h252zM1278 1395q148 -104 231.5 -272t83.5 -371q0 -222 -98.5 -400.5t-272 -278.5t-388.5 -100q-160 0 -304 58l-106 -195h-184l149 273q-147 104 -230 271.5t-83 371.5q0 166 57 311t157 248t241 162t303 59q164 0 303 -59l108 196
h182zM287 752q0 -146 52.5 -266t147.5 -199l555 1013q-98 39 -208 39q-239 0 -393 -166t-154 -421zM834 166q239 0 392.5 165.5t153.5 420.5q0 146 -52.5 266t-147.5 199l-555 -1012q98 -39 209 -39z" />
    <glyph glyph-name="oslashacute" unicode="&#x1ff;" 
d="M1018 1448l-320 -268h-202l280 268h242zM907 954q103 -72 161 -187t58 -255q0 -231 -149.5 -381.5t-378.5 -150.5q-112 0 -199 34l-86 -157h-137l117 213q-104 71 -162.5 186t-58.5 256q0 232 149 384.5t377 152.5q112 0 205 -37l86 159h135zM264 512q0 -178 115 -283
l340 629q-61 23 -121 23q-146 0 -240 -105t-94 -264zM598 147q145 0 239.5 103.5t94.5 261.5q0 174 -113 281l-338 -625q55 -21 117 -21z" />
    <glyph glyph-name="Scommaaccent" unicode="&#x218;" horiz-adv-x="1214" 
d="M602 1532q276 0 500 -160l-101 -178q-187 147 -401 147q-129 0 -208 -59t-79 -176q0 -100 70 -152t260 -92q274 -60 388 -158t114 -272q0 -206 -146 -332.5t-391 -126.5q-330 0 -551 193l117 174q80 -80 199 -128t241 -48q145 0 233.5 65t88.5 183q0 98 -81 157t-271 99
q-183 40 -288 97t-148.5 135t-43.5 194q0 198 137.5 318t360.5 120zM588 -104q62 0 101.5 -32t39.5 -85q0 -66 -39 -105l-145 -145h-8v358q24 9 51 9z" />
    <glyph glyph-name="scommaaccent" unicode="&#x219;" horiz-adv-x="931" 
d="M485 1049q100 0 195.5 -28.5t159.5 -72.5l-84 -160q-126 86 -279 86q-180 0 -180 -118q0 -59 44.5 -86.5t164.5 -55.5q184 -44 269 -119.5t85 -191.5q0 -148 -111 -235.5t-300 -87.5q-243 0 -392 118l93 162q125 -106 301 -106q96 0 151 32.5t55 96.5q0 61 -46.5 92.5
t-164.5 58.5q-187 43 -268.5 112.5t-81.5 188.5q0 147 104 230.5t285 83.5zM420 -104q62 0 101.5 -32t39.5 -85q0 -66 -39 -105l-145 -145h-8v358q24 9 51 9z" />
    <glyph glyph-name="Tcommaaccent" unicode="&#x21a;" horiz-adv-x="1316" 
d="M1290 1505v-186h-528v-1319h-209v1319h-526v186h1263zM618 -104q62 0 102 -32t40 -85q0 -66 -39 -105l-146 -145h-8v358q24 9 51 9z" />
    <glyph glyph-name="tcommaaccent" unicode="&#x21b;" horiz-adv-x="815" 
d="M426 1376v-348h324v-172h-324v-512q0 -86 47 -134t123 -48q78 0 154 37l57 -164q-87 -55 -221 -55q-167 0 -264 94.5t-97 269.5v512h-200v172h200v348h201zM426 -104q62 0 101.5 -32t39.5 -85q0 -66 -39 -105l-145 -145h-8v358q24 9 51 9z" />
    <glyph glyph-name="circumflex" unicode="&#x2c6;" horiz-adv-x="716" 
d="M358 1524l316 -344h-182l-134 131l-135 -131h-182z" />
    <glyph glyph-name="caron" unicode="&#x2c7;" horiz-adv-x="716" 
d="M674 1509l-316 -344l-317 344h182l135 -131l134 131h182z" />
    <glyph glyph-name="breve" unicode="&#x2d8;" horiz-adv-x="706" 
d="M666 1483q0 -132 -89 -219.5t-223 -87.5t-223.5 87.5t-89.5 219.5h147q0 -71 46.5 -117.5t119.5 -46.5q72 0 118 46.5t46 117.5h148z" />
    <glyph glyph-name="dotaccent" unicode="&#x2d9;" horiz-adv-x="344" 
d="M172 1458q52 0 85.5 -33t33.5 -86q0 -51 -33.5 -83.5t-85.5 -32.5q-51 0 -84 32.5t-33 83.5q0 52 33 85.5t84 33.5z" />
    <glyph glyph-name="ring" unicode="&#x2da;" horiz-adv-x="532" 
d="M266 1612q95 0 159 -64t64 -159t-63.5 -157.5t-159.5 -62.5q-97 0 -161 62.5t-64 157.5t64 159t161 64zM266 1497q-44 0 -75 -31t-31 -77q0 -45 30.5 -75t75.5 -30t76 30t31 75t-31.5 76.5t-75.5 31.5z" />
    <glyph glyph-name="ogonek" unicode="&#x2db;" horiz-adv-x="471" 
d="M225 100l56 -100q-152 -79 -152 -221q0 -62 39.5 -95.5t101.5 -33.5q40 0 76 12l37 -113q-44 -20 -117 -20q-119 0 -195.5 65.5t-76.5 184.5q0 198 231 321z" />
    <glyph glyph-name="tilde" unicode="&#x2dc;" horiz-adv-x="753" 
d="M250 1468q48 0 84.5 -16.5t57.5 -40t38 -46.5t38 -39.5t46 -16.5q66 0 66 147h131q0 -140 -58 -212.5t-151 -72.5q-49 0 -84.5 16.5t-55 40t-35 47t-36 40t-47.5 16.5q-70 0 -70 -147h-133q0 143 58 213.5t151 70.5z" />
    <glyph glyph-name="hungarumlaut" unicode="&#x2dd;" horiz-adv-x="796" 
d="M494 1464l-220 -295h-178l219 295h179zM838 1464l-217 -295h-181l219 295h179z" />
    <glyph glyph-name="uni03A9" unicode="&#x3a9;" horiz-adv-x="1757" 
d="M887 1534q200 0 356.5 -91.5t242 -251.5t85.5 -360q0 -110 -23.5 -208.5t-65.5 -174.5t-81.5 -128t-89.5 -103h372v-217h-690v207q353 254 353 616q0 221 -123 357.5t-336 136.5q-212 0 -335.5 -137t-123.5 -357q0 -363 352 -616v-207h-688v217h373q-50 51 -89.5 103
t-81.5 128t-65.5 174.5t-23.5 208.5q0 200 85.5 360t242 251.5t354.5 91.5z" />
    <glyph glyph-name="pi" unicode="&#x3c0;" horiz-adv-x="1456" 
d="M1274 1180l153 -93q-22 -59 -47 -100t-65 -75t-98.5 -51t-137.5 -17h-28l-68 -518q-9 -78 8 -112t70 -34q76 0 137 51l72 -141q-66 -50 -131 -75t-154 -25q-66 0 -109 22t-61 60.5t-23 91.5t5 115l73 565h-235l-68 -506q-28 -196 -92 -338h-203q92 191 115 371l66 473
h-56q-86 0 -147.5 -34t-114.5 -95l-94 139q63 62 110 95t125.5 55t186.5 22h518q72 0 120 8.5t80.5 29.5t51.5 46.5t41 69.5z" />
    <glyph glyph-name="Wgrave" unicode="&#x1e80;" horiz-adv-x="1982" 
d="M834 1837l270 -235h-221l-301 235h252zM1952 1505l-580 -1530h-8l-373 981l-373 -981h-8l-579 1530h231l352 -979l373 979h8l373 -979l352 979h232z" />
    <glyph glyph-name="wgrave" unicode="&#x1e81;" horiz-adv-x="1550" 
d="M606 1448l281 -268h-203l-319 268h241zM1536 1028l-457 -1048h-8l-295 610l-297 -610h-8l-457 1048h207l264 -625l287 625h8l285 -625l266 625h205z" />
    <glyph glyph-name="Wacute" unicode="&#x1e82;" horiz-adv-x="1982" 
d="M1382 1837l-301 -235h-221l270 235h252zM1952 1505l-580 -1530h-8l-373 981l-373 -981h-8l-579 1530h231l352 -979l373 979h8l373 -979l352 979h232z" />
    <glyph glyph-name="wacute" unicode="&#x1e83;" horiz-adv-x="1550" 
d="M1180 1448l-320 -268h-203l281 268h242zM1536 1028l-457 -1048h-8l-295 610l-297 -610h-8l-457 1048h207l264 -625l287 625h8l285 -625l266 625h205z" />
    <glyph glyph-name="Wdieresis" unicode="&#x1e84;" horiz-adv-x="1982" 
d="M815 1829q49 0 81 -31.5t32 -79.5q0 -47 -32 -78.5t-81 -31.5q-47 0 -78.5 31.5t-31.5 78.5t31.5 79t78.5 32zM1165 1829q47 0 80 -32t33 -79t-32.5 -78.5t-80.5 -31.5q-47 0 -78.5 31.5t-31.5 78.5t31.5 79t78.5 32zM1952 1505l-580 -1530h-8l-373 981l-373 -981h-8
l-579 1530h231l352 -979l373 979h8l373 -979l352 979h232z" />
    <glyph glyph-name="wdieresis" unicode="&#x1e85;" horiz-adv-x="1550" 
d="M600 1423q49 0 81 -31.5t32 -78.5q0 -48 -32 -79.5t-81 -31.5q-47 0 -79 32t-32 79t32 78.5t79 31.5zM950 1423q48 0 80.5 -31.5t32.5 -78.5t-33 -79t-80 -32t-78.5 32t-31.5 79t31.5 78.5t78.5 31.5zM1536 1028l-457 -1048h-8l-295 610l-297 -610h-8l-457 1048h207
l264 -625l287 625h8l285 -625l266 625h205z" />
    <glyph glyph-name="Ygrave" unicode="&#x1ef2;" horiz-adv-x="1351" 
d="M518 1837l270 -235h-221l-301 235h252zM1337 1503l-557 -866v-637h-209v633l-557 870h244l418 -659l416 659h245z" />
    <glyph glyph-name="ygrave" unicode="&#x1ef3;" horiz-adv-x="1095" 
d="M360 1448l281 -268h-203l-319 268h241zM1081 1028l-751 -1499h-230l338 639l-424 860h209l322 -668l327 668h209z" />
    <glyph glyph-name="endash" unicode="&#x2013;" horiz-adv-x="1138" 
d="M1055 637v-186h-973v186h973z" />
    <glyph glyph-name="emdash" unicode="&#x2014;" horiz-adv-x="1638" 
d="M1556 637v-186h-1474v186h1474z" />
    <glyph glyph-name="quoteleft" unicode="&#x2018;" horiz-adv-x="399" 
d="M287 1513v-561q-27 -10 -56 -10q-66 0 -107.5 40.5t-41.5 102.5q0 9 1.5 18t5 18.5t5.5 14.5t8 16.5t7 14.5l170 346h8z" />
    <glyph glyph-name="quoteright" unicode="&#x2019;" horiz-adv-x="399" 
d="M170 1513q66 0 106.5 -39.5t40.5 -101.5q0 -34 -24 -84l-172 -346h-8v563q21 8 57 8z" />
    <glyph glyph-name="quotesinglbase" unicode="&#x201a;" horiz-adv-x="399" 
d="M170 246q65 0 106 -40t41 -102q0 -34 -24 -84l-172 -346h-8v564q21 8 57 8z" />
    <glyph glyph-name="quotedblleft" unicode="&#x201c;" horiz-adv-x="763" 
d="M287 1513v-561q-27 -10 -56 -10q-66 0 -107.5 40.5t-41.5 102.5q0 9 1.5 18t5 18.5t5.5 14.5t8 16.5t7 14.5l170 346h8zM651 1513v-561q-27 -10 -55 -10q-66 0 -108 40.5t-42 102.5q0 9 1.5 18t5 18.5t5.5 14.5t8 16.5t7 14.5l170 346h8z" />
    <glyph glyph-name="quotedblright" unicode="&#x201d;" horiz-adv-x="763" 
d="M170 1513q66 0 106.5 -39.5t40.5 -101.5q0 -34 -24 -84l-172 -346h-8v563q21 8 57 8zM535 1513q66 0 106.5 -39.5t40.5 -101.5q0 -32 -25 -84l-172 -346h-8v563q21 8 58 8z" />
    <glyph glyph-name="quotedblbase" unicode="&#x201e;" horiz-adv-x="763" 
d="M170 246q65 0 106 -40t41 -102q0 -34 -24 -84l-172 -346h-8v564q21 8 57 8zM535 246q65 0 106 -40t41 -102q0 -32 -25 -84l-172 -346h-8v564q21 8 58 8z" />
    <glyph glyph-name="dagger" unicode="&#x2020;" horiz-adv-x="1007" 
d="M602 1505v-364h346v-183h-346v-958h-199v958h-344v183h344v364h199z" />
    <glyph glyph-name="daggerdbl" unicode="&#x2021;" horiz-adv-x="1007" 
d="M604 1505v-364h346v-183h-346v-411h344v-182h-344v-365h-198v365h-347v182h347v411h-347v183h347v364h198z" />
    <glyph glyph-name="bullet" unicode="&#x2022;" horiz-adv-x="604" 
d="M301 758q100 0 164.5 -65t64.5 -165q0 -98 -64.5 -162.5t-164.5 -64.5q-98 0 -162.5 64.5t-64.5 162.5q0 100 64.5 165t162.5 65z" />
    <glyph glyph-name="ellipsis" unicode="&#x2026;" horiz-adv-x="1499" 
d="M250 262q62 0 101.5 -39t39.5 -102q0 -61 -39.5 -101t-101.5 -40t-101.5 40t-39.5 101t39.5 101t101.5 40zM750 262q62 0 101.5 -39t39.5 -102q0 -61 -39.5 -101t-101.5 -40t-102 40t-40 101t40 101t102 40zM1249 262q62 0 102 -39t40 -102q0 -61 -40 -101t-102 -40
q-61 0 -101 40t-40 101t40 101t101 40z" />
    <glyph glyph-name="perthousand" unicode="&#x2030;" horiz-adv-x="2621" 
d="M434 1532q157 0 261 -108.5t104 -272.5q0 -162 -104 -268.5t-261 -106.5q-160 0 -263 106t-103 269q0 165 103.5 273t262.5 108zM1470 1505l-981 -1505h-178l981 1505h178zM434 1382q-92 0 -151.5 -65t-59.5 -166q0 -98 59.5 -162.5t151.5 -64.5q91 0 150 64.5t59 162.5
q0 101 -59 166t-150 65zM1350 729q158 0 262 -107.5t104 -271.5t-103.5 -269.5t-262.5 -105.5q-160 0 -263.5 105.5t-103.5 269.5t103.5 271.5t263.5 107.5zM2175 729q157 0 261 -107.5t104 -271.5t-104 -269.5t-261 -105.5q-160 0 -263.5 105.5t-103.5 269.5t103.5 271.5
t263.5 107.5zM1350 582q-92 0 -151.5 -66t-59.5 -166q0 -98 59.5 -162.5t151.5 -64.5q91 0 151 64.5t60 162.5q0 100 -60 166t-151 66zM2175 582q-92 0 -151.5 -66t-59.5 -166q0 -98 59.5 -162.5t151.5 -64.5q91 0 150 64.5t59 162.5q0 100 -59 166t-150 66z" />
    <glyph glyph-name="guilsinglleft" unicode="&#x2039;" horiz-adv-x="602" 
d="M537 938l-277 -414l277 -413h-189l-282 409v8l282 410h189z" />
    <glyph glyph-name="guilsinglright" unicode="&#x203a;" horiz-adv-x="602" 
d="M254 938l283 -410v-8l-283 -409h-188l276 413l-276 414h188z" />
    <glyph glyph-name="fraction" unicode="&#x2044;" horiz-adv-x="403" 
d="M657 1503l-745 -1503h-166l746 1503h165z" />
    <glyph glyph-name="zero.sups" unicode="&#x2070;" horiz-adv-x="780" 
d="M401 1681q150 0 235 -120t85 -324t-85.5 -325t-234.5 -121q-152 0 -237.5 120.5t-85.5 325.5t85.5 324.5t237.5 119.5zM401 1546q-85 0 -127.5 -81.5t-42.5 -227.5t42.5 -228.5t127.5 -82.5q82 0 124 83t42 228t-41.5 227t-124.5 82z" />
    <glyph glyph-name="four.sups" unicode="&#x2074;" horiz-adv-x="749" 
d="M604 1683v-622h113v-123h-113v-131h-147v133h-443v4l586 739h4zM459 1309l-193 -250h193v250z" />
    <glyph glyph-name="five.sups" unicode="&#x2075;" horiz-adv-x="718" 
d="M614 1665v-135h-338v-209q46 22 99 22q131 0 214 -72.5t83 -205.5q0 -120 -81 -197t-214 -77q-226 0 -297 190l125 66q39 -119 162 -119q66 0 108.5 40.5t42.5 104.5q0 62 -43.5 103t-114.5 41q-77 0 -135 -46l-100 43v451h489z" />
    <glyph glyph-name="six.sups" unicode="&#x2076;" horiz-adv-x="733" 
d="M381 1364q125 -2 212 -83.5t87 -203.5q0 -124 -89 -205t-216 -81t-215 81t-88 205q0 88 57 170l283 418h172zM375 920q67 0 111 43.5t44 113.5t-44 115t-111 45q-65 0 -109.5 -45t-44.5 -115q0 -69 44 -113t110 -44z" />
    <glyph glyph-name="seven.sups" unicode="&#x2077;" horiz-adv-x="720" 
d="M692 1665v-8l-444 -850h-166l387 719h-401v139h624z" />
    <glyph glyph-name="eight.sups" unicode="&#x2078;" horiz-adv-x="733" 
d="M371 1681q112 0 191 -68.5t79 -172.5q0 -57 -28 -103t-76 -75q65 -35 102 -88.5t37 -118.5q0 -114 -88.5 -189t-216.5 -75q-125 0 -213 75t-88 189q0 65 37 119.5t100 85.5q-103 66 -103 180q0 104 78 172.5t189 68.5zM371 1556q-56 0 -93.5 -35t-37.5 -87
q0 -55 37.5 -89t93.5 -34q58 0 95.5 34t37.5 89q0 52 -38 87t-95 35zM371 1188q-65 0 -109.5 -39t-44.5 -98t44.5 -97.5t109.5 -38.5q68 0 112.5 38t44.5 98t-44.5 98.5t-112.5 38.5z" />
    <glyph glyph-name="nine.sups" unicode="&#x2079;" horiz-adv-x="733" 
d="M377 1681q127 0 215 -81t88 -205q0 -88 -57 -170l-283 -418h-172l203 301q-125 2 -212 83.5t-87 203.5q0 124 89 205t216 81zM377 1235q65 0 109 45t44 115q0 69 -44 113t-109 44q-67 0 -111.5 -43.5t-44.5 -113.5t44.5 -115t111.5 -45z" />
    <glyph glyph-name="n.sups" unicode="&#x207f;" horiz-adv-x="866" 
d="M494 1532q130 0 201 -85t71 -230v-422h-166v413q0 76 -39.5 122t-107.5 46q-98 0 -170 -100v-481h-164v723h147l6 -82q34 39 91.5 67.5t130.5 28.5z" />
    <glyph glyph-name="Euro" unicode="&#x20ac;" horiz-adv-x="1349" 
d="M1163 309l125 -145q-183 -193 -457 -193q-230 0 -391 142.5t-217 394.5h-151v137h131q-4 70 -4 107q0 38 4 112h-131v137h151q56 250 215 390.5t389 140.5q277 0 453 -191l-125 -145q-60 70 -137 111t-191 41q-142 0 -242 -91t-145 -256h432v-137h-454q-6 -55 -6 -112
q0 -37 4 -107h456v-137h-432q43 -167 145 -259.5t246 -92.5q112 0 190 41t142 112z" />
    <glyph glyph-name="afii61289" unicode="&#x2113;" horiz-adv-x="1196" 
d="M680 1536q147 0 233 -83.5t86 -227.5q0 -79 -26.5 -160.5t-67 -150t-104.5 -145t-122.5 -134t-137.5 -129.5v-191q0 -90 29.5 -127.5t113.5 -37.5q22 0 44 5.5t39 11t38 21t32.5 23t32 31t28 31t28 36.5t24.5 34t25 36l117 -92q-184 -310 -424 -310q-82 0 -143.5 26
t-96 71.5t-50.5 98.5t-16 114v80q-153 -135 -180 -156l-96 139q148 123 268 236v594q0 180 78.5 268t247.5 88zM680 1384q-154 0 -154 -188v-491q308 287 308 512q0 77 -38.5 122t-115.5 45z" />
    <glyph glyph-name="trademark" unicode="&#x2122;" horiz-adv-x="1730" 
d="M1653 1520v-785h-150v348l-252 -354h-8l-250 354v-348h-149v785h4l399 -543l402 543h4zM725 1505v-145h-264v-625h-152v625h-264v145h680z" />
    <glyph glyph-name="Omega" unicode="&#x2126;" horiz-adv-x="1757" 
d="M887 1534q200 0 356.5 -91.5t242 -251.5t85.5 -360q0 -110 -23.5 -208.5t-65.5 -174.5t-81.5 -128t-89.5 -103h372v-217h-690v207q353 254 353 616q0 221 -123 357.5t-336 136.5q-212 0 -335.5 -137t-123.5 -357q0 -363 352 -616v-207h-688v217h373q-50 51 -89.5 103
t-81.5 128t-65.5 174.5t-23.5 208.5q0 200 85.5 360t242 251.5t354.5 91.5z" />
    <glyph glyph-name="estimated" unicode="&#x212e;" horiz-adv-x="1210" 
d="M631 1098q145 0 259 -60.5t181.5 -181.5t67.5 -287h-834v-338q0 -80 64 -118q108 -80 262 -80q281 0 454 260l48 -29q-86 -136 -214 -212.5t-288 -76.5q-156 0 -283 69.5t-201.5 199t-74.5 293.5q0 163 74.5 292t201.5 199t283 70zM631 1040q-76 0 -147.5 -22t-112.5 -57
q-66 -39 -66 -117v-217h613v223q0 52 -12 79.5t-46 47.5q-91 63 -229 63z" />
    <glyph glyph-name="partialdiff" unicode="&#x2202;" horiz-adv-x="1101" 
d="M514 1532q92 0 167.5 -28.5t128.5 -76t93.5 -117t64.5 -144.5t39.5 -165.5t21 -172.5t5.5 -173q0 -138 -13.5 -235.5t-55.5 -179.5q-62 -126 -169 -191t-243 -65q-209 0 -347 135.5t-138 347.5q0 213 134.5 349t338.5 136q107 0 178 -45t112 -102q-4 166 -39 283.5
t-108.5 185t-183.5 67.5q-174 0 -271 -151l-137 127q155 215 422 215zM555 764q-122 0 -203.5 -84.5t-81.5 -212.5q0 -127 81 -210t204 -83q122 0 201.5 83t79.5 210q0 129 -79.5 213t-201.5 84z" />
    <glyph glyph-name="uni2206" unicode="&#x2206;" horiz-adv-x="1476" 
d="M739 1323l666 -1323h-1333zM739 961l-403 -803h805z" />
    <glyph glyph-name="product" unicode="&#x220f;" horiz-adv-x="1445" 
d="M1374 1516v-189h-258v-1534h-186v1534h-414v-1534h-188v1534h-256v189h1302z" />
    <glyph glyph-name="summation" unicode="&#x2211;" horiz-adv-x="1249" 
d="M1153 1516v-201h-797l375 -531l-389 -583h836v-201h-1106v137l426 643l-420 598v138h1075z" />
    <glyph glyph-name="minus" unicode="&#x2212;" horiz-adv-x="995" 
d="M913 809v-184h-833v184h833z" />
    <glyph glyph-name="radical" unicode="&#x221a;" horiz-adv-x="1427" 
d="M1198 1423l168 -71l-606 -1502l-354 685l-246 -146l-92 148l438 260l248 -506z" />
    <glyph glyph-name="infinity" unicode="&#x221e;" horiz-adv-x="1533" 
d="M1114 958q157 0 255.5 -106.5t98.5 -263.5q0 -158 -98.5 -265.5t-255.5 -107.5q-44 0 -88 13t-75 29t-69 46t-57 48t-51 50l-39 41l-35 -41q-151 -155 -299 -155q-147 0 -234 97t-87 243t87 244t234 98q85 0 152.5 -41.5t144.5 -120.5l37 -41l27 33q44 48 76 77.5
t76.5 61t94 46.5t105.5 15zM1116 786q-36 0 -68.5 -12t-64.5 -38.5t-54.5 -49.5t-56.5 -63l-30 -39l37 -41q36 -40 51 -55.5t49.5 -45.5t67.5 -42.5t69 -12.5q81 0 131.5 58t50.5 143t-50 141.5t-132 56.5zM397 762q-71 0 -114 -50.5t-43 -125.5q0 -74 42.5 -124t114.5 -50
q105 0 205 129l33 43l-35 41q-54 67 -101.5 102t-101.5 35z" />
    <glyph glyph-name="integral" unicode="&#x222b;" horiz-adv-x="888" 
d="M608 1536q136 0 236 -49l-39 -156q-76 37 -152 37q-125 0 -125 -174v-1235q0 -185 -65.5 -266.5t-202.5 -81.5q-140 0 -240 49l39 156q68 -37 156 -37q133 0 133 180v1235q0 182 64 262t196 80z" />
    <glyph glyph-name="approxequal" unicode="&#x2248;" horiz-adv-x="1290" 
d="M446 1122q59 0 110.5 -18.5t88 -44.5t70.5 -52t74 -44.5t83 -18.5q79 0 133 44.5t82 117.5l121 -92q-47 -119 -134.5 -187.5t-201.5 -68.5q-61 0 -111.5 18.5t-85 44.5t-67 52t-73.5 44.5t-89 18.5q-79 0 -133 -44t-82 -118l-120 92q47 120 133 188t202 68zM418 668
q59 0 110.5 -18.5t88 -45t70.5 -52.5t74 -44.5t83 -18.5q79 0 133 44.5t82 117.5l121 -92q-47 -119 -134.5 -187.5t-201.5 -68.5q-61 0 -111.5 18.5t-85 45t-67 53t-73.5 45t-89 18.5q-79 0 -133 -44t-82 -117l-121 92q47 119 133.5 186.5t202.5 67.5z" />
    <glyph glyph-name="notequal" unicode="&#x2260;" horiz-adv-x="995" 
d="M913 866h-272l-113 -303h385v-184h-452l-74 -201h-176l74 201h-205v184h272l113 303h-385v187h452l91 241h176l-90 -241h204v-187z" />
    <glyph glyph-name="lessequal" unicode="&#x2264;" horiz-adv-x="806" 
d="M725 1227l-387 -344l387 -342h-262l-381 338v8l381 340h262zM725 428v-184h-643v184h643z" />
    <glyph glyph-name="greaterequal" unicode="&#x2265;" horiz-adv-x="806" 
d="M344 1227l381 -340v-8l-381 -338h-262l387 342l-387 344h262zM725 428v-184h-643v184h643z" />
    <glyph glyph-name="lozenge" unicode="&#x25ca;" horiz-adv-x="1165" 
d="M657 1511l455 -823l-455 -821h-125l-456 821l456 823h125zM596 1223l-313 -535l313 -536l311 536z" />
    <glyph glyph-name="commaaccent" unicode="&#xf6c3;" horiz-adv-x="0" 
d="M-203 -104q62 0 102 -32t40 -85q0 -66 -39 -105l-146 -145h-8v358q24 9 51 9z" />
    <glyph glyph-name="CR" horiz-adv-x="512" 
 />
    <glyph glyph-name="germandbls.cap" horiz-adv-x="1351" 
d="M678 1532q116 0 215 -32.5t168.5 -82.5t134.5 -123l-264 -399q53 -16 100.5 -40t95 -62t81 -86t54.5 -115t21 -146q0 -207 -140 -340t-366 -133q-180 0 -289 66l74 176q48 -27 93 -38t122 -11q116 0 199.5 79.5t83.5 203.5q0 79 -34 139t-94 95.5t-136.5 53t-167.5 17.5
l-4 10l317 487q-92 86 -264 86q-149 0 -238.5 -87t-89.5 -244v-1006h-205v1006q0 237 151 381.5t382 144.5z" />
    <glyph glyph-name="endash_guilsinglright" horiz-adv-x="1355" 
d="M680 1104l592 -537l-592 -536l-96 116l377 336h-879v166h881l-379 338z" />
    <glyph glyph-name="emdash_guilsinglright" horiz-adv-x="2021" 
d="M1346 1104l593 -537l-593 -536l-97 116l377 336h-1544v166h1546l-379 338z" />
    <glyph glyph-name="guilsinglleft_endash" horiz-adv-x="1355" 
d="M678 1104l94 -117l-379 -338h879v-166h-877l377 -336l-94 -116l-596 536z" />
    <glyph glyph-name="guilsinglleft_emdash" horiz-adv-x="2021" 
d="M678 1104l94 -117l-379 -338h1546v-166h-1544l377 -336l-94 -116l-596 536z" />
    <glyph glyph-name="at.cap" horiz-adv-x="1759" 
d="M879 1561q239 0 425 -101t289 -283t103 -415q0 -208 -93 -333.5t-257 -125.5q-158 0 -209 123l-4 10q-105 -133 -297 -133q-171 0 -280.5 126t-109.5 319q0 194 109.5 320t280.5 126q192 0 282 -117l6 101h156v-635q0 -90 84 -90q80 0 125 85t45 224q0 186 -81 332.5
t-231 229.5t-343 83q-190 0 -339.5 -85t-232 -234t-82.5 -336q0 -141 47.5 -262.5t131.5 -207.5t204 -135t260 -49q143 0 265 49l47 -145q-142 -57 -312 -57q-175 0 -325 60t-255.5 166t-165 256t-59.5 325q0 232 103.5 416.5t290 288.5t422.5 104zM874 1044
q-113 0 -184.5 -81.5t-71.5 -214.5t71.5 -214t184.5 -81q144 0 236 133v325q-96 133 -236 133z" />
    <glyph glyph-name="grave.cap" horiz-adv-x="604" 
d="M303 1837l270 -235h-221l-301 235h252z" />
    <glyph glyph-name="acute.cap" horiz-adv-x="604" 
d="M553 1837l-301 -235h-221l270 235h252z" />
    <glyph glyph-name="circumflex.cap" horiz-adv-x="735" 
d="M367 1898l325 -299h-186l-139 123l-140 -123h-186z" />
    <glyph glyph-name="caron.cap" horiz-adv-x="735" 
d="M692 1878l-325 -297l-326 297h186l140 -121l139 121h186z" />
    <glyph glyph-name="tilde.cap" horiz-adv-x="753" 
d="M250 1894q48 0 84.5 -16.5t57.5 -40t38 -46.5t38 -39.5t46 -16.5q66 0 66 147h131q0 -140 -58 -212.5t-151 -72.5q-49 0 -84.5 16.5t-55 40t-35 47t-36 40t-47.5 16.5q-70 0 -70 -147h-133q0 143 58 213.5t151 70.5z" />
    <glyph glyph-name="dieresis.cap" horiz-adv-x="655" 
d="M152 1829q49 0 80.5 -31.5t31.5 -79.5t-31.5 -79t-80.5 -31q-47 0 -79 31.5t-32 78.5t32 79t79 32zM502 1829q47 0 79.5 -32t32.5 -79t-32.5 -78.5t-79.5 -31.5t-79 31.5t-32 78.5t32 79t79 32z" />
    <glyph glyph-name="macron.cap" horiz-adv-x="614" 
d="M573 1776v-142h-532v142h532z" />
    <glyph glyph-name="breve.cap" horiz-adv-x="706" 
d="M666 1898q0 -129 -89 -214t-223 -85t-223.5 85t-89.5 214h145q0 -66 47.5 -112.5t120.5 -46.5t119.5 46.5t46.5 112.5h146z" />
    <glyph glyph-name="ring.cap" horiz-adv-x="532" 
d="M266 2040q95 0 159 -63t64 -158q0 -96 -63.5 -159t-159.5 -63q-97 0 -161 63t-64 159q0 95 64 158t161 63zM266 1927q-44 0 -75 -31t-31 -77q0 -47 30.5 -77t75.5 -30t76 30t31 77q0 45 -31.5 76.5t-75.5 31.5z" />
    <glyph glyph-name="hungarumlaut.cap" horiz-adv-x="796" 
d="M496 1849l-201 -243h-174l196 243h179zM827 1849l-200 -243h-174l196 243h178z" />
    <glyph glyph-name="dotaccent.cap" horiz-adv-x="327" 
d="M162 1839q52 0 85.5 -33.5t33.5 -85.5q0 -51 -33.5 -83.5t-85.5 -32.5q-51 0 -84 32.5t-33 83.5q0 52 33 85.5t84 33.5z" />
    <glyph glyph-name="parenleft.cap" horiz-adv-x="626" 
d="M403 1628l152 -110q-56 -72 -98 -140t-84 -162t-64 -212t-22 -252t22 -252t64 -212t84 -162t98 -140l-152 -111q-307 386 -307 877q0 151 26.5 286.5t74.5 244.5t96 188t110 157z" />
    <glyph glyph-name="parenright.cap" horiz-adv-x="626" 
d="M223 1628q62 -78 110.5 -157.5t96 -188t74 -244t26.5 -286.5q0 -496 -307 -877l-151 111q57 71 99.5 139.5t83.5 162.5t63 212t22 252t-22 252t-63 212t-83.5 162.5t-99.5 139.5z" />
    <glyph glyph-name="bracketleft.cap" horiz-adv-x="651" 
d="M580 1632v-164h-275v-1433h275v-164h-467v1761h467z" />
    <glyph glyph-name="bracketright.cap" horiz-adv-x="663" 
d="M551 1632v-1761h-479v164h284v1433h-284v164h479z" />
    <glyph glyph-name="braceleft.cap" horiz-adv-x="706" 
d="M635 1632v-164q-114 0 -174.5 -66.5t-46.5 -209.5l18 -174q23 -212 -117 -266q140 -54 117 -267l-18 -174q-14 -143 46.5 -209.5t174.5 -66.5v-164q-226 0 -331 118.5t-79 358.5l19 170q19 182 -191 230v8q210 48 191 229l-19 170q-26 240 79 358.5t331 118.5z" />
    <glyph glyph-name="braceright.cap" horiz-adv-x="706" 
d="M72 1632q227 0 333.5 -119t77.5 -358l-20 -170q-22 -181 190 -229v-8q-212 -48 -190 -230l20 -170q29 -239 -77.5 -358t-333.5 -119v164q114 0 174.5 66.5t46.5 209.5l-19 174q-23 213 117 267q-140 54 -117 266l19 174q14 143 -46.5 209.5t-174.5 66.5v164z" />
    <glyph glyph-name="guilsinglleft.cap" horiz-adv-x="622" 
d="M557 1180l-297 -455l297 -455h-190l-301 451v8l301 451h190z" />
    <glyph glyph-name="guilsinglright.cap" horiz-adv-x="622" 
d="M256 1180l301 -451v-8l-301 -451h-190l296 455l-296 455h190z" />
    <glyph glyph-name="guillemotleft.cap" horiz-adv-x="1089" 
d="M557 1180l-297 -455l297 -455h-190l-301 451v8l301 451h190zM1024 1180l-297 -455l297 -455h-188l-301 451v8l301 451h188z" />
    <glyph glyph-name="guillemotright.cap" horiz-adv-x="1089" 
d="M254 1180l303 -451v-8l-303 -451h-188l296 455l-296 455h188zM723 1180l301 -451v-8l-301 -451h-188l294 455l-294 455h188z" />
    <glyph glyph-name="exclamdown.cap" horiz-adv-x="536" 
d="M270 1253q-59 0 -97 38t-38 98t38 98.5t97 38.5q60 0 99 -38.5t39 -98.5q0 -59 -39 -97.5t-99 -38.5zM170 0v1085h201v-1085h-201z" />
    <glyph glyph-name="questiondown.cap" horiz-adv-x="1005" 
d="M516 1253q-59 0 -97 38t-38 98t38 98.5t97 38.5q60 0 98.5 -38.5t38.5 -98.5q0 -59 -38.5 -97.5t-98.5 -38.5zM518 -27q-195 0 -318.5 117t-123.5 295q0 71 19 130.5t48.5 100t66 75.5t73 66t66 62.5t48.5 73.5t19 92v100h202v-124q0 -62 -18.5 -114t-47.5 -89t-64 -70
t-70.5 -64t-64.5 -64t-47.5 -77t-18.5 -96q0 -107 65.5 -168t167.5 -61q204 0 246 213l199 -35q-38 -174 -150 -268.5t-297 -94.5z" />
    <glyph glyph-name="endash.cap" horiz-adv-x="1138" 
d="M1055 823v-186h-973v186h973z" />
    <glyph glyph-name="periodcentered.cap" horiz-adv-x="434" 
d="M217 860q59 0 97 -38t38 -97q0 -57 -38.5 -95t-96.5 -38t-96.5 38t-38.5 95q0 59 38 97t97 38z" />
    <glyph glyph-name="emdash.cap" horiz-adv-x="1638" 
d="M1556 823v-186h-1474v186h1474z" />
    <glyph glyph-name="hyphen.cap" horiz-adv-x="790" 
d="M709 823v-186h-627v186h627z" />
    <glyph glyph-name="zero.dnom" horiz-adv-x="798" 
d="M401 874q150 0 235 -120t85 -324t-85.5 -325t-234.5 -121q-152 0 -237.5 120.5t-85.5 325.5t85.5 324.5t237.5 119.5zM401 739q-85 0 -127.5 -81.5t-42.5 -227.5t42.5 -228.5t127.5 -82.5q82 0 124 83t42 228t-41.5 227t-124.5 82z" />
    <glyph glyph-name="one.dnom" horiz-adv-x="544" 
d="M416 874v-874h-152v631l-145 -92l-66 137l359 198h4z" />
    <glyph glyph-name="two.dnom" horiz-adv-x="724" 
d="M356 874q128 0 207.5 -74t79.5 -192q0 -71 -26 -128t-82 -126l-183 -219h299v-135h-559v8l316 424q45 55 63 93.5t18 84.5q0 59 -37 94t-96 35q-119 0 -143 -133l-137 31q46 237 280 237z" />
    <glyph glyph-name="three.dnom" horiz-adv-x="716" 
d="M358 874q122 0 198.5 -73t76.5 -183q0 -123 -113 -176q64 -26 100.5 -75t36.5 -119q0 -117 -80 -190.5t-212 -73.5q-236 0 -297 223l135 33q20 -59 58 -89t104 -30q63 0 102 37t39 98q0 56 -42.5 93.5t-109.5 37.5h-96v117h100q53 2 89 32t36 85q0 53 -36.5 85.5
t-92.5 32.5q-104 0 -139 -108l-131 57q62 186 274 186z" />
    <glyph glyph-name="four.dnom" horiz-adv-x="768" 
d="M604 877v-623h113v-123h-113v-131h-147v133h-443v4l586 740h4zM459 502l-193 -250h193v250z" />
    <glyph glyph-name="five.dnom" horiz-adv-x="737" 
d="M614 858v-135h-338v-209q48 23 99 23q131 0 214 -73t83 -206q0 -120 -81 -197t-214 -77q-226 0 -297 190l125 66q39 -119 162 -119q66 0 108.5 40.5t42.5 104.5q0 62 -43.5 103t-114.5 41q-78 0 -135 -45l-100 43v450h489z" />
    <glyph glyph-name="six.dnom" horiz-adv-x="751" 
d="M381 557q125 -2 212 -83.5t87 -203.5q0 -124 -89 -205t-216 -81t-215 81t-88 205q0 88 57 170l283 418h172zM375 113q67 0 111 43.5t44 113.5t-44 115t-111 45q-65 0 -109.5 -45t-44.5 -115q0 -69 44 -113t110 -44z" />
    <glyph glyph-name="seven.dnom" horiz-adv-x="739" 
d="M692 858v-8l-444 -850h-166l387 719h-401v139h624z" />
    <glyph glyph-name="eight.dnom" horiz-adv-x="751" 
d="M371 874q112 0 191 -68.5t79 -172.5q0 -57 -28 -103t-76 -75q65 -35 102 -88.5t37 -118.5q0 -114 -88.5 -189t-216.5 -75q-125 0 -213 75t-88 189q0 65 37 119.5t100 85.5q-103 66 -103 180q0 104 78 172.5t189 68.5zM371 750q-56 0 -93.5 -35.5t-37.5 -87.5
q0 -55 37.5 -89t93.5 -34q58 0 95.5 34t37.5 89q0 53 -38 88t-95 35zM371 381q-65 0 -109.5 -39t-44.5 -98t44.5 -97t109.5 -38q68 0 112.5 37.5t44.5 97.5t-44.5 98.5t-112.5 38.5z" />
    <glyph glyph-name="nine.dnom" horiz-adv-x="751" 
d="M377 874q127 0 215 -81t88 -205q0 -88 -57 -170l-283 -418h-172l203 301q-125 2 -212 83.5t-87 203.5q0 124 89 205t216 81zM377 428q65 0 109 45t44 115t-44 113.5t-109 43.5q-67 0 -111.5 -43.5t-44.5 -113.5t44.5 -115t111.5 -45z" />
    <glyph glyph-name="zero.numr" horiz-adv-x="780" 
d="M401 1518q150 0 235 -120.5t85 -324.5t-85.5 -325t-234.5 -121q-152 0 -237.5 120.5t-85.5 325.5t85.5 325t237.5 120zM401 1382q-85 0 -127.5 -81.5t-42.5 -227.5t42.5 -228.5t127.5 -82.5q82 0 124 83t42 228t-41.5 227t-124.5 82z" />
    <glyph glyph-name="one.numr" horiz-adv-x="526" 
d="M416 1518v-875h-152v631l-145 -92l-66 137l359 199h4z" />
    <glyph glyph-name="two.numr" horiz-adv-x="706" 
d="M356 1518q128 0 207.5 -74.5t79.5 -192.5q0 -71 -26 -128t-82 -126l-183 -219h299v-135h-559v8l316 424q45 55 63 93.5t18 84.5q0 59 -37 94t-96 35q-119 0 -143 -133l-137 31q47 238 280 238z" />
    <glyph glyph-name="three.numr" horiz-adv-x="696" 
d="M358 1518q122 0 198.5 -73t76.5 -183q0 -124 -113 -177q64 -26 100.5 -75t36.5 -119q0 -117 -80 -190.5t-212 -73.5q-236 0 -297 223l135 33q20 -59 58 -89t104 -30q63 0 102 37t39 98q0 56 -42.5 93.5t-109.5 37.5h-96v117h100q53 2 89 32t36 85q0 53 -36.5 85.5
t-92.5 32.5q-104 0 -139 -108l-131 57q62 187 274 187z" />
    <glyph glyph-name="four.numr" horiz-adv-x="749" 
d="M604 1520v-623h113v-123h-113v-131h-147v133h-443v4l586 740h4zM459 1145l-193 -250h193v250z" />
    <glyph glyph-name="five.numr" horiz-adv-x="718" 
d="M614 1501v-135h-338v-209q48 23 99 23q131 0 214 -73t83 -206q0 -120 -81 -197t-214 -77q-226 0 -297 190l125 66q39 -119 162 -119q66 0 108.5 40.5t42.5 104.5q0 62 -43.5 103t-114.5 41q-78 0 -135 -45l-100 43v450h489z" />
    <glyph glyph-name="six.numr" horiz-adv-x="733" 
d="M381 1200q125 -2 212 -83.5t87 -203.5q0 -124 -89 -205t-216 -81t-215 81t-88 205q0 88 57 170l283 418h172zM375 756q67 0 111 43.5t44 113.5t-44 115t-111 45q-65 0 -109.5 -45t-44.5 -115q0 -69 44 -113t110 -44z" />
    <glyph glyph-name="seven.numr" horiz-adv-x="720" 
d="M692 1501v-8l-444 -850h-166l387 719h-401v139h624z" />
    <glyph glyph-name="eight.numr" horiz-adv-x="733" 
d="M371 1518q112 0 191 -69t79 -173q0 -57 -28 -103t-76 -75q65 -35 102 -88.5t37 -118.5q0 -114 -88.5 -189t-216.5 -75q-125 0 -213 75t-88 189q0 65 37 119.5t100 85.5q-103 66 -103 180q0 104 78 173t189 69zM371 1393q-56 0 -93.5 -35.5t-37.5 -87.5q0 -55 37.5 -89
t93.5 -34q58 0 95.5 34t37.5 89q0 53 -38 88t-95 35zM371 1024q-65 0 -109.5 -39t-44.5 -98t44.5 -97t109.5 -38q68 0 112.5 37.5t44.5 97.5t-44.5 98.5t-112.5 38.5z" />
    <glyph glyph-name="nine.numr" horiz-adv-x="733" 
d="M377 1518q127 0 215 -81.5t88 -205.5q0 -88 -57 -170l-283 -418h-172l203 301q-125 2 -212 83.5t-87 203.5q0 124 89 205.5t216 81.5zM377 1071q65 0 109 45t44 115t-44 114t-109 44q-67 0 -111.5 -44t-44.5 -114t44.5 -115t111.5 -45z" />
    <glyph glyph-name="zero.subs" horiz-adv-x="780" 
d="M401 670q150 0 235 -120.5t85 -324.5t-85.5 -325t-234.5 -121q-152 0 -237.5 120.5t-85.5 325.5t85.5 325t237.5 120zM401 535q-85 0 -127.5 -82t-42.5 -228t42.5 -228.5t127.5 -82.5q82 0 124 83t42 228t-41.5 227.5t-124.5 82.5z" />
    <glyph glyph-name="one.subs" horiz-adv-x="526" 
d="M416 670v-875h-152v631l-145 -92l-66 137l359 199h4z" />
    <glyph glyph-name="two.subs" horiz-adv-x="706" 
d="M356 670q128 0 207.5 -74.5t79.5 -192.5q0 -70 -26 -127t-82 -126l-183 -220h299v-135h-559v8l316 424q45 55 63 94t18 85q0 59 -37 94t-96 35q-119 0 -143 -134l-137 31q47 238 280 238z" />
    <glyph glyph-name="three.subs" horiz-adv-x="696" 
d="M358 670q122 0 198.5 -73t76.5 -183q0 -123 -113 -176q64 -26 100.5 -75.5t36.5 -119.5q0 -117 -80 -190.5t-212 -73.5q-236 0 -297 223l135 33q20 -59 58 -89t104 -30q63 0 102 37t39 98q0 56 -42.5 93.5t-109.5 37.5h-96v117h100q53 2 89 32t36 85q0 53 -36.5 86
t-92.5 33q-103 0 -139 -109l-131 57q62 187 274 187z" />
    <glyph glyph-name="four.subs" horiz-adv-x="749" 
d="M604 672v-623h113v-123h-113v-131h-147v133h-443v4l586 740h4zM459 297l-193 -250h193v250z" />
    <glyph glyph-name="five.subs" horiz-adv-x="718" 
d="M614 653v-135h-338v-209q48 23 99 23q131 0 214 -73t83 -206q0 -120 -81 -197t-214 -77q-226 0 -297 190l125 66q39 -119 162 -119q66 0 108.5 40.5t42.5 104.5q0 62 -43.5 103t-114.5 41q-78 0 -135 -45l-100 43v450h489z" />
    <glyph glyph-name="six.subs" horiz-adv-x="733" 
d="M381 352q125 -2 212 -83.5t87 -202.5q0 -124 -89 -205.5t-216 -81.5t-215 81.5t-88 205.5q0 88 57 170l283 417h172zM375 -92q67 0 111 44t44 114t-44 114.5t-111 44.5q-65 0 -109.5 -44.5t-44.5 -114.5t44.5 -114t109.5 -44z" />
    <glyph glyph-name="seven.subs" horiz-adv-x="720" 
d="M692 653v-8l-444 -850h-166l387 719h-401v139h624z" />
    <glyph glyph-name="eight.subs" horiz-adv-x="733" 
d="M371 670q112 0 191 -69t79 -173q0 -57 -28 -103t-76 -75q65 -35 102 -88.5t37 -118.5q0 -114 -88.5 -189t-216.5 -75q-125 0 -213 75t-88 189q0 65 37 119.5t100 85.5q-103 66 -103 180q0 104 78 173t189 69zM371 545q-56 0 -93.5 -35.5t-37.5 -87.5q0 -55 37.5 -89
t93.5 -34q58 0 95.5 34t37.5 89q0 53 -38 88t-95 35zM371 176q-65 0 -109.5 -39t-44.5 -98t44.5 -97t109.5 -38q68 0 112.5 37.5t44.5 97.5t-44.5 98.5t-112.5 38.5z" />
    <glyph glyph-name="nine.subs" horiz-adv-x="733" 
d="M377 670q127 0 215 -81.5t88 -205.5q0 -88 -57 -170l-283 -418h-172l203 301q-125 2 -212 83.5t-87 203.5q0 124 89 205.5t216 81.5zM377 223q65 0 109 45t44 115t-44 114t-109 44q-67 0 -111.5 -44t-44.5 -114t44.5 -115t111.5 -45z" />
    <glyph glyph-name="zero.lnum" horiz-adv-x="1228" 
d="M614 1532q249 0 388 -209t139 -569q0 -362 -139 -571.5t-388 -209.5t-387.5 209.5t-138.5 571.5q0 360 138.5 569t387.5 209zM614 1350q-106 0 -179 -74.5t-107.5 -206.5t-34.5 -315q0 -279 81 -438.5t240 -159.5t240.5 159.5t81.5 438.5q0 278 -81.5 437t-240.5 159z
" />
    <glyph glyph-name="one.lnum" horiz-adv-x="1228" 
d="M784 1532v-1346h283v-186h-782v186h297v979l-342 -196l-97 174l633 389h8z" />
    <glyph glyph-name="two.lnum" horiz-adv-x="1228" 
d="M596 1532q204 0 331.5 -125.5t127.5 -323.5q0 -135 -44 -242t-141 -225l-352 -432h555v-184h-923v12l557 713q81 102 112 180.5t31 181.5q0 120 -71.5 190.5t-182.5 70.5q-113 0 -178 -62t-90 -190l-185 43q38 194 152.5 293.5t300.5 99.5z" />
    <glyph glyph-name="three.lnum" horiz-adv-x="1228" 
d="M602 1532q196 0 318 -120t122 -308q0 -229 -200 -320q116 -44 183 -135.5t67 -218.5q0 -204 -130.5 -330.5t-343.5 -126.5q-195 0 -313 95t-176 278l184 49q39 -116 109.5 -176.5t193.5 -60.5q121 0 196 75.5t75 200.5q0 116 -81.5 192t-209.5 76h-166v162h168
q101 2 171.5 63.5t70.5 174.5q0 112 -67.5 179t-172.5 67q-196 0 -268 -215l-176 75q116 324 446 324z" />
    <glyph glyph-name="four.lnum" horiz-adv-x="1228" 
d="M946 1518v-1051h203v-184h-203v-283h-203v283h-677v8l870 1227h10zM745 936l-333 -471h333v471z" />
    <glyph glyph-name="five.lnum" horiz-adv-x="1228" 
d="M1014 1505v-184h-586v-444q89 49 201 49q214 0 346.5 -127t132.5 -350q0 -205 -131 -340.5t-346 -135.5q-361 0 -484 326l177 82q69 -223 294 -223q125 0 205 84.5t80 214.5q0 132 -80.5 214.5t-214.5 82.5q-143 0 -254 -92l-129 55v788h789z" />
    <glyph glyph-name="six.lnum" horiz-adv-x="1228" 
d="M610 965q135 0 248.5 -63.5t180.5 -178.5t67 -256t-67 -255t-180.5 -176.5t-248.5 -62.5q-134 0 -246 62.5t-178.5 176.5t-66.5 255q0 156 90 293l489 745h230l-355 -542q12 2 37 2zM610 156q123 0 207 87.5t84 223.5q0 138 -84 226.5t-207 88.5q-121 0 -202.5 -88.5
t-81.5 -226.5q0 -136 81.5 -223.5t202.5 -87.5z" />
    <glyph glyph-name="seven.lnum" horiz-adv-x="1228" 
d="M1155 1505v-12l-758 -1493h-221l680 1319h-719v186h1018z" />
    <glyph glyph-name="eight.lnum" horiz-adv-x="1228" 
d="M614 1532q180 0 305 -115t125 -291q0 -106 -50.5 -192.5t-135.5 -134.5q114 -54 183 -153t69 -220q0 -129 -67.5 -233.5t-181 -162t-247.5 -57.5t-246.5 57.5t-179.5 162t-67 233.5q0 122 68 221.5t180 149.5q-85 48 -135 134.5t-50 194.5q0 176 125 291t305 115z
M614 1352q-100 0 -169.5 -67.5t-69.5 -166.5q0 -105 69 -174.5t170 -69.5t170.5 69.5t69.5 174.5q0 99 -70 166.5t-170 67.5zM614 694q-121 0 -203.5 -78t-82.5 -194q0 -115 82.5 -191.5t203.5 -76.5t205 76.5t84 191.5q0 116 -84 194t-205 78z" />
    <glyph glyph-name="nine.lnum" horiz-adv-x="1228" 
d="M616 1532q134 0 246.5 -62.5t179 -176.5t66.5 -255q0 -156 -90 -293l-490 -745h-229l354 543q-12 -2 -37 -2q-135 0 -248 63.5t-180 178t-67 255.5t67 255t180 176.5t248 62.5zM616 723q121 0 203 88.5t82 226.5q0 136 -82 224t-203 88q-123 0 -206.5 -88t-83.5 -224
q0 -138 83.5 -226.5t206.5 -88.5z" />
    <glyph glyph-name="zero.tnum" horiz-adv-x="1208" 
d="M604 1167q228 0 377 -169.5t149 -426.5q0 -256 -149.5 -423.5t-376.5 -167.5q-151 0 -272 76t-188.5 211t-67.5 304q0 257 150 426.5t378 169.5zM604 989q-141 0 -233 -117.5t-92 -300.5q0 -182 91.5 -297.5t233.5 -115.5q140 0 232 115.5t92 297.5q0 183 -91.5 300.5
t-232.5 117.5z" />
    <glyph glyph-name="one.tnum" horiz-adv-x="765" 
d="M602 1167v-1167h-203v797l-268 -166l-90 182l553 354h8z" />
    <glyph glyph-name="two.tnum" horiz-adv-x="1085" 
d="M545 1167q190 0 311 -114.5t121 -286.5q0 -73 -16.5 -135t-50 -113.5t-69.5 -90t-89 -85.5l-183 -158h445v-184h-908v12l453 418q106 98 137 135q74 89 74 193q0 109 -64.5 167t-170.5 58q-155 0 -226 -154l-168 84q116 254 404 254z" />
    <glyph glyph-name="three.tnum" horiz-adv-x="1073" 
d="M541 1167q196 0 319 -116t123 -299q0 -222 -203 -310q117 -42 183.5 -131.5t66.5 -214.5q0 -198 -129.5 -320t-343.5 -122q-194 0 -312 92t-175 270l184 47q38 -111 109 -170t194 -59q121 0 195.5 72.5t74.5 193.5q0 114 -81.5 187t-210.5 73h-164v160h168
q101 0 171 59.5t70 170.5q0 107 -67.5 172t-173.5 65q-198 0 -267 -209l-178 74q54 147 165 231t282 84z" />
    <glyph glyph-name="four.tnum" horiz-adv-x="1140" 
d="M895 1167v-1020h203v-178h-203v-274h-203v274h-678v8l871 1190h10zM694 602l-334 -457h334v457z" />
    <glyph glyph-name="five.tnum" horiz-adv-x="1101" 
d="M948 1145v-178h-583v-430q92 47 198 47q214 0 346.5 -124t132.5 -341q0 -198 -130.5 -329.5t-346.5 -131.5q-358 0 -481 317l170 80q39 -106 110.5 -161.5t188.5 -55.5q125 0 205 82t80 209q0 126 -80.5 206.5t-212.5 80.5q-142 0 -256 -88l-129 53v764h788z" />
    <glyph glyph-name="six.tnum" horiz-adv-x="1120" 
d="M557 936q135 0 248.5 -62t180.5 -173.5t67 -247.5q0 -137 -67 -248t-180.5 -171.5t-248.5 -60.5q-134 0 -246 60.5t-178.5 171.5t-66.5 248q0 149 77 264l502 743h240l-353 -524h25zM557 150q123 0 207 85t84 218t-84 219t-207 86q-121 0 -203 -86t-82 -219t81.5 -218
t203.5 -85z" />
    <glyph glyph-name="seven.tnum" horiz-adv-x="1101" 
d="M1073 1147v-12l-758 -1448h-221l676 1278h-715v182h1018z" />
    <glyph glyph-name="eight.tnum" horiz-adv-x="1120" 
d="M553 1487q180 0 305 -112t125 -281q0 -104 -50.5 -188.5t-135.5 -131.5q114 -53 183 -148t69 -212q0 -125 -67.5 -227t-181 -158t-247.5 -56q-205 0 -349.5 126t-144.5 315q0 118 68 214t180 144q-85 47 -134.5 131.5t-49.5 190.5q0 169 125 281t305 112zM553 1311
q-100 0 -170 -65t-70 -161q0 -102 69.5 -169.5t170.5 -67.5t170.5 67.5t69.5 169.5q0 96 -70 161t-170 65zM553 674q-121 0 -204 -75.5t-83 -188.5q0 -112 83 -186t204 -74t205 74.5t84 185.5q0 113 -84 188.5t-205 75.5z" />
    <glyph glyph-name="nine.tnum" horiz-adv-x="1120" 
d="M561 1167q134 0 246.5 -60.5t179 -171t66.5 -247.5q0 -70 -21 -140.5t-57 -123.5l-502 -743h-240l353 524h-25q-135 0 -248 62t-180 173t-67 248t67 247.5t180 171t248 60.5zM561 383q121 0 203 86t82 219t-81.5 218t-203.5 85q-123 0 -207 -85t-84 -218t84 -219t207 -86
z" />
    <glyph glyph-name="a.sups" horiz-adv-x="880" 
d="M377 1532q149 0 231 -98l6 84h150v-723h-150l-6 84q-83 -99 -231 -99q-142 0 -233 106t-91 269t91 270t233 107zM418 1386q-88 0 -143.5 -63.5t-55.5 -167.5t55.5 -167.5t143.5 -63.5q107 0 180 106v252q-71 104 -180 104z" />
    <glyph glyph-name="b.sups" horiz-adv-x="880" 
d="M283 1884v-438q78 86 221 86q142 0 232.5 -106.5t90.5 -270.5q0 -163 -90.5 -269t-232.5 -106q-149 0 -232 99l-6 -84h-147v1089h164zM463 1386q-109 0 -180 -104v-252q73 -106 180 -106q88 0 143.5 63.5t55.5 167.5t-55.5 167.5t-143.5 63.5z" />
    <glyph glyph-name="c.sups" horiz-adv-x="757" 
d="M422 1532q193 0 303 -162l-121 -90q-71 109 -182 109q-97 0 -150 -65t-53 -169q0 -102 54 -166.5t151 -64.5q116 0 184 108l121 -90q-110 -162 -305 -162q-166 0 -268.5 105.5t-102.5 269.5q0 165 102 271t267 106z" />
    <glyph glyph-name="d.sups" horiz-adv-x="880" 
d="M764 1884v-1089h-150l-6 84q-83 -99 -231 -99q-142 0 -233 106t-91 269t91 270t233 107q143 0 221 -86v438h166zM418 1386q-88 0 -143.5 -63.5t-55.5 -167.5t55.5 -167.5t143.5 -63.5q107 0 180 106v252q-71 104 -180 104z" />
    <glyph glyph-name="e.sups" horiz-adv-x="802" 
d="M412 1532q159 0 246 -105.5t87 -265.5v-57h-526q13 -184 207 -184q61 0 109.5 24.5t78.5 63.5l113 -97q-113 -131 -303 -131q-169 0 -270 105t-101 270q0 164 99.5 270.5t259.5 106.5zM406 1397q-78 0 -129.5 -47.5t-57.5 -120.5h365q-6 74 -53.5 121t-124.5 47z" />
    <glyph glyph-name="f.sups" horiz-adv-x="555" 
d="M430 1884q100 0 162 -49l-62 -131q-37 37 -90 37q-50 0 -78 -34t-28 -91v-98h182v-142h-182v-581h-164v581h-131v142h131v90q0 122 71 199t189 77z" />
    <glyph glyph-name="g.sups" horiz-adv-x="882" 
d="M377 1532q151 0 231 -96l8 82h148v-701q0 -169 -103 -267.5t-276 -98.5q-208 0 -338 153l109 107q91 -117 229 -117q97 0 155 60.5t58 158.5v68q-80 -84 -221 -84q-142 0 -233 104t-91 264t91 263.5t233 103.5zM418 1393q-88 0 -143.5 -63t-55.5 -165t55.5 -164.5
t143.5 -62.5q108 0 180 102v248q-74 105 -180 105z" />
    <glyph glyph-name="h.sups" horiz-adv-x="866" 
d="M283 1884v-446q33 40 87.5 67t123.5 27q130 0 201 -85t71 -230v-422h-166v413q0 76 -39.5 122t-107.5 46q-98 0 -170 -100v-481h-164v1089h164z" />
    <glyph glyph-name="i.sups" horiz-adv-x="399" 
d="M201 1851q43 0 71.5 -30t28.5 -74t-28.5 -73t-71.5 -29q-45 0 -74 28.5t-29 73.5t29 74.5t74 29.5zM281 1518v-723h-162v723h162z" />
    <glyph glyph-name="j.sups" horiz-adv-x="419" 
d="M221 1851q44 0 73.5 -30t29.5 -74t-29.5 -73t-73.5 -29t-73 29t-29 73t29 74t73 30zM303 1518v-791q0 -130 -89 -203t-234 -73v143q72 0 115.5 33.5t43.5 87.5v803h164z" />
    <glyph glyph-name="k.sups" horiz-adv-x="817" 
d="M283 1884v-786l284 420h201l-221 -310l250 -413h-191l-162 274l-196 -274h-129v1089h164z" />
    <glyph glyph-name="l.sups" horiz-adv-x="399" 
d="M283 1884v-1089h-164v1089h164z" />
    <glyph glyph-name="m.sups" horiz-adv-x="1325" 
d="M963 1532q124 0 193 -85t69 -230v-422h-164v413q0 76 -38 122t-103 46q-99 0 -168 -100q2 -14 2 -43v-438h-164v413q0 76 -38 122t-103 46q-99 0 -166 -98v-483h-164v723h147l6 -82q77 96 222 96q150 0 219 -125q90 125 250 125z" />
    <glyph glyph-name="o.sups" horiz-adv-x="854" 
d="M428 1532q160 0 266.5 -108t106.5 -269q0 -162 -106.5 -268.5t-266.5 -106.5q-164 0 -269.5 106t-105.5 269q0 162 106 269.5t269 107.5zM428 1386q-92 0 -150.5 -65.5t-58.5 -165.5t58.5 -165.5t150.5 -65.5q89 0 148 65.5t59 165.5t-59 165.5t-148 65.5z" />
    <glyph glyph-name="p.sups" horiz-adv-x="880" 
d="M504 1532q142 0 232.5 -106t90.5 -269q0 -164 -90.5 -270.5t-232.5 -106.5q-143 0 -221 86v-401h-164v1053h147l6 -84q82 98 232 98zM463 1389q-107 0 -180 -107v-252q71 -104 180 -104q88 0 143.5 63.5t55.5 167.5t-55.5 168t-143.5 64z" />
    <glyph glyph-name="q.sups" horiz-adv-x="880" 
d="M377 1532q149 0 231 -98l6 84h150v-1053h-166v401q-78 -86 -221 -86q-142 0 -233 107t-91 270t91 269t233 106zM418 1389q-88 0 -143.5 -64t-55.5 -168t55.5 -167.5t143.5 -63.5q109 0 180 104v252q-73 107 -180 107z" />
    <glyph glyph-name="r.sups" horiz-adv-x="518" 
d="M487 1532v-164h-16q-116 0 -188 -106v-467h-164v723h145l10 -101q31 50 85 82.5t128 32.5z" />
    <glyph glyph-name="s.sups" horiz-adv-x="686" 
d="M362 1532q71 0 138 -22.5t112 -57.5l-71 -127q-77 66 -179 66q-118 0 -118 -80q0 -33 29.5 -47.5t125.5 -36.5q118 -28 172 -79.5t54 -133.5q0 -104 -81 -169t-216 -65q-80 0 -154 24.5t-123 63.5l72 125q87 -73 207 -73q131 0 131 86q0 36 -28.5 51t-121.5 37
q-120 28 -175.5 78.5t-55.5 132.5q0 104 76 165.5t206 61.5z" />
    <glyph glyph-name="t.sups" horiz-adv-x="600" 
d="M324 1759v-241h219v-142h-219v-329q0 -56 31.5 -87.5t84.5 -31.5q62 0 99 22l43 -129q-59 -41 -156 -41q-124 0 -195 69.5t-71 197.5v329h-137v142h137v241h164z" />
    <glyph glyph-name="u.sups" horiz-adv-x="856" 
d="M739 1518v-723h-149l-6 77q-81 -92 -224 -92q-124 0 -192 84t-68 226v428h164v-418q0 -75 37 -119.5t102 -44.5q59 0 98.5 24.5t71.5 71.5v486h166z" />
    <glyph glyph-name="v.sups" horiz-adv-x="813" 
d="M791 1518l-381 -738h-7l-378 738h182l201 -406l198 406h185z" />
    <glyph glyph-name="w.sups" horiz-adv-x="1122" 
d="M1098 1518l-330 -738h-6l-201 402l-203 -402h-4l-329 738h182l162 -390l190 390h4l189 -390l161 390h185z" />
    <glyph glyph-name="x.sups" horiz-adv-x="753" 
d="M717 1518l-230 -359l242 -364h-194l-160 245l-160 -245h-192l239 364l-227 359h190l150 -240l151 240h191z" />
    <glyph glyph-name="y.sups" horiz-adv-x="829" 
d="M797 1518l-539 -1053h-186l256 473l-297 580h184l199 -406l200 406h183z" />
    <glyph glyph-name="z.sups" horiz-adv-x="684" 
d="M639 1518v-7l-338 -577h336v-139h-594v6l336 575h-316v142h576z" />
    <glyph glyph-name="G.smcp_I.smcp" horiz-adv-x="1228" 
d="M686 1608q174 0 314.5 -84t219 -231.5t78.5 -329.5q0 -183 -78.5 -329.5t-218.5 -229t-315 -82.5q-176 0 -316 82.5t-218 229t-78 329.5t77.5 330t218 231t316.5 84zM686 1483q-211 0 -347 -148t-136 -372q0 -225 135.5 -371t347.5 -146q210 0 346.5 146t136.5 371
q0 224 -136.5 372t-346.5 148z" />
    <glyph glyph-name="zero.slash" horiz-adv-x="1206" 
d="M604 1532q249 0 387.5 -209t138.5 -569q0 -362 -138.5 -571.5t-387.5 -209.5q-251 0 -389.5 209.5t-138.5 571.5q0 360 138.5 569t389.5 209zM604 1358q-159 0 -240 -160.5t-81 -443.5q0 -207 43 -346l471 860q-75 90 -193 90zM604 145q157 0 238.5 162.5t81.5 446.5
q0 202 -41 342l-471 -860q76 -91 192 -91z" />
    <glyph glyph-name="K.alt" horiz-adv-x="1366" 
d="M1262 1505l-496 -647l561 -858h-250l-448 688l-252 -313v-375h-209v1505h209v-837l645 837h240z" />
    <glyph glyph-name="Kcommaaccent.alt" horiz-adv-x="1366" 
d="M1262 1505l-496 -647l561 -858h-250l-448 688l-252 -313v-375h-209v1505h209v-837l645 837h240zM678 -104q62 0 101.5 -32t39.5 -85q0 -66 -39 -105l-145 -145h-8v358q24 9 51 9z" />
    <glyph glyph-name="M.alt" horiz-adv-x="1738" 
d="M1571 1532v-1532h-209v987l-485 -602h-15l-485 604v-989h-209v1532h8l694 -844l693 844h8z" />
    <glyph glyph-name="idotaccent" horiz-adv-x="487" 
d="M244 1491q56 0 93.5 -37.5t37.5 -93.5q0 -57 -37.5 -94t-93.5 -37q-57 0 -94 37t-37 94q0 56 37 93.5t94 37.5zM344 1028v-1028h-201v1028h201z" />
    <glyph glyph-name="k.alt" horiz-adv-x="1097" 
d="M348 1556v-1028l455 500h237l-354 -399l395 -629h-231l-301 479l-201 -213v-266h-201v1556h201z" />
    <glyph glyph-name="kcommaaccent.alt" horiz-adv-x="1097" 
d="M348 1556v-1028l455 500h237l-354 -399l395 -629h-231l-301 479l-201 -213v-266h-201v1556h201zM545 -104q62 0 101.5 -32t39.5 -85q0 -66 -39 -105l-145 -145h-8v358q24 9 51 9z" />
    <glyph glyph-name="f_k.alt" horiz-adv-x="1830" 
d="M569 1556q104 0 176 -43l-47 -167q-43 32 -114 32q-74 0 -118 -52t-44 -138v-160h268v-172h-268v-856h-201v856h-184v172h184v154q0 163 96 268.5t252 105.5zM1081 1556v-1028l455 500h238l-355 -399l396 -629h-232l-301 479l-201 -213v-266h-200v1556h200z" />
    </font>
</defs>
</svg>
