<?xml version="1.0" standalone="no"?>
<!DOCTYPE svg PUBLIC "-//W3C//DTD SVG 1.1//EN" "http://www.w3.org/Graphics/SVG/1.1/DTD/svg11.dtd" >
<svg xmlns="http://www.w3.org/2000/svg" xmlns:xlink="http://www.w3.org/1999/xlink" version="1.1">
<metadata>
Created by FontForge 20170731 at Wed May 10 15:18:04 2023
 By Aleksey,,,
Copyright (c) 2013 by Nico Inosanto. All rights reserved.
</metadata>
<defs>
<font id="Radikal-Thin" horiz-adv-x="718" >
  <font-face 
    font-family="Radikal Thin"
    font-weight="250"
    font-stretch="normal"
    units-per-em="2048"
    panose-1="0 0 3 0 0 0 0 0 0 0"
    ascent="1638"
    descent="-410"
    x-height="1018"
    cap-height="1505"
    bbox="-262 -520 2449 2159"
    underline-thickness="102"
    underline-position="-307"
    unicode-range="U+0020-FB02"
  />
<missing-glyph horiz-adv-x="1218" 
d="M1081 1432v-1432h-942v1432h942zM979 1364h-746l373 -594zM1012 1290l-367 -581l367 -584v1165zM207 1280v-1145l360 574zM606 645l-364 -575h727z" />
    <glyph glyph-name="fi" unicode="fi" horiz-adv-x="1107" 
d="M524 1556q99 0 170 -49l-37 -82q-51 39 -131 39q-91 0 -144.5 -65.5t-53.5 -167.5v-213h305v-90h-305v-928h-99v928h-188v90h188v211q0 142 81 234.5t214 92.5zM897 1438q35 0 59.5 -24.5t24.5 -59.5q0 -36 -24 -60t-60 -24q-37 0 -60.5 23.5t-23.5 60.5q0 36 24 60
t60 24zM946 1018v-1018h-98v1018h98z" />
    <glyph glyph-name="fl" unicode="fl" horiz-adv-x="1103" 
d="M522 1556q96 0 164 -47l-31 -84q-51 39 -129 39q-91 0 -144.5 -65.5t-53.5 -167.5v-213h305v-90h-305v-928h-99v928h-188v90h188v211q0 142 80.5 234.5t212.5 92.5zM936 1556v-1556h-98v1556h98z" />
    <glyph glyph-name="f_j" unicode="fj" horiz-adv-x="1107" 
d="M524 1556q99 0 170 -49l-37 -82q-51 39 -131 39q-91 0 -144.5 -65.5t-53.5 -167.5v-213h305v-90h-305v-928h-99v928h-188v90h188v211q0 142 81 234.5t214 92.5zM897 1438q35 0 59.5 -24.5t24.5 -59.5q0 -36 -24 -60t-60 -24q-37 0 -60.5 23.5t-23.5 60.5q0 36 24 60
t60 24zM633 -492q-130 0 -221 72l55 78q70 -57 168 -57q92 0 152.5 62t60.5 157v1198h98v-1196q0 -134 -88.5 -224t-224.5 -90z" />
    <glyph glyph-name="f_b" unicode="fb" horiz-adv-x="1851" 
d="M522 1556q96 0 164 -47l-31 -84q-51 39 -129 39q-91 0 -144.5 -65.5t-53.5 -167.5v-213h305v-90h-305v-928h-99v928h-188v90h188v211q0 142 80.5 234.5t212.5 92.5zM936 1556v-677q135 159 362 159q209 0 342.5 -149t133.5 -381q0 -151 -60.5 -271.5t-169.5 -188.5
t-246 -68q-232 0 -364 167l-4 -147h-92v1556h98zM1288 946q-121 0 -204.5 -50.5t-147.5 -143.5v-486q64 -93 147.5 -143.5t204.5 -50.5q168 0 277.5 122.5t109.5 313.5t-109.5 314.5t-277.5 123.5z" />
    <glyph glyph-name="f_h" unicode="fh" horiz-adv-x="1826" 
d="M522 1556q96 0 164 -47l-31 -84q-51 39 -129 39q-91 0 -144.5 -65.5t-53.5 -167.5v-213h305v-90h-305v-928h-99v928h-188v90h188v211q0 142 80.5 234.5t212.5 92.5zM936 1556v-682q147 164 354 164q180 0 283.5 -116t103.5 -306v-616h-98v610q0 148 -84 240t-221 92
q-105 0 -182.5 -48t-155.5 -144v-750h-98v1556h98z" />
    <glyph glyph-name="f_k" unicode="fk" horiz-adv-x="1689" 
d="M522 1556q96 0 164 -47l-31 -84q-51 39 -129 39q-91 0 -144.5 -65.5t-53.5 -167.5v-213h305v-90h-305v-928h-99v928h-188v90h188v211q0 142 80.5 234.5t212.5 92.5zM936 1556v-1372l547 834h112l-311 -469l385 -549h-119l-325 463l-303 -463h-84v1556h98z" />
    <glyph glyph-name=".notdef" horiz-adv-x="1218" 
d="M1081 1432v-1432h-942v1432h942zM979 1364h-746l373 -594zM1012 1290l-367 -581l367 -584v1165zM207 1280v-1145l360 574zM606 645l-364 -575h727z" />
    <glyph glyph-name=".null" horiz-adv-x="0" 
 />
    <glyph glyph-name="nonmarkingreturn" horiz-adv-x="682" 
 />
    <glyph glyph-name="space" unicode=" " horiz-adv-x="503" 
 />
    <glyph glyph-name="exclam" unicode="!" horiz-adv-x="471" 
d="M285 1505v-1128h-99v1128h99zM236 154q38 0 63 -24.5t25 -61.5q0 -38 -25 -63t-63 -25q-37 0 -61.5 25t-24.5 63q0 37 24.5 61.5t61.5 24.5z" />
    <glyph glyph-name="quotedbl" unicode="&#x22;" horiz-adv-x="589" 
d="M141 1044l-45 281q-16 77 -16 111q0 38 20 61t50 23t49.5 -23t19.5 -61q0 -18 -2.5 -38t-6.5 -43t-5 -30l-47 -281h-17zM432 1044l-45 281q-16 77 -16 111q0 38 19.5 61t49.5 23t50 -23t20 -61q0 -18 -2.5 -38t-6.5 -43t-5 -30l-47 -281h-17z" />
    <glyph glyph-name="numbersign" unicode="#" horiz-adv-x="1447" 
d="M1163 1505l-82 -452h330v-88h-344l-78 -443h326v-88h-340l-74 -434h-102l78 434h-447l-74 -434h-102l78 434h-330v88h344l80 443h-328v88h342l80 452h98l-81 -452h448l80 452h98zM971 965h-449l-78 -443h447z" />
    <glyph glyph-name="dollar" unicode="$" horiz-adv-x="1169" 
d="M1090 403q0 -184 -125.5 -301t-335.5 -127v-239h-88v239q-272 11 -471 183l63 86q85 -80 207 -126t250 -46q173 0 284 85.5t111 239.5q0 129 -97.5 202t-316.5 122q-261 58 -363 144.5t-102 256.5q0 184 119.5 292t315.5 116v250h88v-252q218 -16 405 -160l-55 -88
q-82 68 -191 110t-221 42q-156 0 -256 -77t-100 -229q0 -69 20 -116t69.5 -82.5t118.5 -59.5t181 -49q263 -60 376.5 -153t113.5 -263z" />
    <glyph glyph-name="percent" unicode="%" horiz-adv-x="1722" 
d="M420 1532q151 0 250.5 -107t99.5 -268t-99.5 -266t-250.5 -105q-154 0 -253 105t-99 266q0 162 99.5 268.5t252.5 106.5zM1407 1505l-993 -1505h-103l994 1505h102zM420 1450q-117 0 -192.5 -82.5t-75.5 -210.5q0 -125 75.5 -207t192.5 -82q115 0 189.5 82t74.5 207
q0 128 -74.5 210.5t-189.5 82.5zM1305 719q152 0 251 -106t99 -267q0 -162 -98.5 -266.5t-251.5 -104.5q-154 0 -253.5 104.5t-99.5 266.5t100 267.5t253 105.5zM1305 637q-117 0 -193 -82.5t-76 -208.5t76 -207.5t193 -81.5q116 0 191 81.5t75 207.5t-75.5 208.5
t-190.5 82.5z" />
    <glyph glyph-name="ampersand" unicode="&#x26;" horiz-adv-x="1355" 
d="M1358 0h-137l-228 256q-55 -61 -101.5 -104t-108.5 -85.5t-132.5 -64.5t-148.5 -22q-185 0 -309.5 110.5t-124.5 296.5q0 81 21.5 146t70.5 123t113 107.5t163 110.5q-83 96 -127.5 181t-44.5 176q0 137 83.5 219t225.5 82q136 0 222 -81t86 -212q0 -50 -15 -95t-39 -80
t-66.5 -72t-83 -65.5t-102.5 -66.5q4 -4 51.5 -53t71.5 -76l295 -328l232 263h129l-295 -336zM573 1440q-100 0 -155.5 -55t-55.5 -156q0 -78 39.5 -149.5t114.5 -155.5q150 91 208 156.5t58 154.5q0 96 -57.5 150.5t-151.5 54.5zM506 74q65 0 124.5 20.5t114.5 62.5
t92.5 78.5t90.5 94.5l-301 336l-133 143q-86 -54 -140 -95t-99 -91.5t-65 -106.5t-20 -125q0 -145 96.5 -231t239.5 -86z" />
    <glyph glyph-name="quotesingle" unicode="'" horiz-adv-x="299" 
d="M141 1044l-45 281q-16 77 -16 111q0 38 20 61t50 23t49.5 -23t19.5 -61q0 -18 -2.5 -38t-6.5 -43t-5 -30l-47 -281h-17z" />
    <glyph glyph-name="parenleft" unicode="(" horiz-adv-x="555" 
d="M412 1544l71 -59q-56 -70 -100 -140.5t-88 -168.5t-68 -221.5t-24 -260.5t24 -260t68 -221t88 -168.5t100 -140.5l-71 -60q-306 369 -306 850t306 850z" />
    <glyph glyph-name="parenright" unicode=")" horiz-adv-x="555" 
d="M143 1544q306 -369 306 -850t-306 -850l-71 60q56 70 100 140.5t88 168.5t68 221t24 260t-24 260.5t-68 221.5t-88 168.5t-100 140.5z" />
    <glyph glyph-name="asterisk" unicode="*" horiz-adv-x="802" 
d="M442 1503l-2 -295l279 95l26 -76l-280 -90l174 -236l-66 -47l-170 236l-170 -236l-65 47l174 236l-283 90l27 76l279 -95l-5 295h82z" />
    <glyph glyph-name="plus" unicode="+" horiz-adv-x="940" 
d="M516 1098v-334h334v-94h-334v-334h-94v334h-334v94h334v334h94z" />
    <glyph glyph-name="comma" unicode="," horiz-adv-x="389" 
d="M170 172q43 0 71.5 -27t28.5 -67q0 -21 -12 -53l-111 -326h-8v469q10 4 31 4z" />
    <glyph glyph-name="hyphen" unicode="-" horiz-adv-x="790" 
d="M702 588v-94h-614v94h614z" />
    <glyph glyph-name="period" unicode="." horiz-adv-x="415" 
d="M209 172q42 0 69 -27t27 -69q0 -41 -27.5 -68.5t-68.5 -27.5t-69.5 27.5t-28.5 68.5t28.5 68.5t69.5 27.5z" />
    <glyph glyph-name="slash" unicode="/" horiz-adv-x="870" 
d="M860 1503l-745 -1503h-105l748 1503h102z" />
    <glyph glyph-name="zero" unicode="0" horiz-adv-x="1193" 
d="M598 1532q245 0 376.5 -208t131.5 -570q0 -364 -131.5 -572.5t-376.5 -208.5q-164 0 -280 96t-174 270.5t-58 414.5q0 362 132.5 570t379.5 208zM598 1436q-133 0 -225.5 -84.5t-137.5 -236t-45 -361.5q0 -320 104.5 -502t303.5 -182q196 0 301 182.5t105 501.5
q0 318 -105 500t-301 182z" />
    <glyph glyph-name="one" unicode="1" 
d="M539 1532v-1532h-103v1333l-323 -252l-52 88l469 363h9z" />
    <glyph glyph-name="two" unicode="2" horiz-adv-x="1040" 
d="M518 1532q184 0 302 -117t118 -305q0 -148 -49 -257.5t-160 -242.5l-432 -514h666v-96h-854v12l542 658q102 123 143.5 219t41.5 223q0 150 -90 237t-228 87q-137 0 -217.5 -69t-112.5 -212l-94 21q37 173 143.5 264.5t280.5 91.5z" />
    <glyph glyph-name="three" unicode="3" horiz-adv-x="1073" 
d="M551 1532q177 0 290 -109.5t113 -289.5q0 -249 -233 -334q138 -43 217.5 -143.5t79.5 -239.5q0 -199 -123 -321t-322 -122q-96 0 -172.5 23t-132 67.5t-94.5 100.5t-72 133l93 31q55 -125 142 -191.5t236 -66.5q153 0 247.5 95t94.5 251q0 143 -105.5 238.5t-270.5 95.5
h-170v94h176q81 0 148.5 29t113 96.5t45.5 165.5q0 136 -85 218.5t-218 82.5q-236 0 -336 -246l-90 39q121 303 428 303z" />
    <glyph glyph-name="four" unicode="4" horiz-adv-x="1095" 
d="M819 1509v-1067h238v-96h-238v-346h-102v346h-670v8l762 1155h10zM717 1206l-494 -764h494v764z" />
    <glyph glyph-name="five" unicode="5" horiz-adv-x="1081" 
d="M915 1505v-96h-630v-575q123 69 268 69q208 0 333.5 -130t125.5 -333q0 -128 -53 -233.5t-156 -169.5t-236 -64q-176 0 -286 79.5t-179 223.5l88 46q122 -252 373 -252q153 0 249.5 106t96.5 266q0 162 -99 263.5t-263 101.5t-316 -111l-49 25v784h733z" />
    <glyph glyph-name="six" unicode="6" horiz-adv-x="1087" 
d="M543 940q196 0 332.5 -137.5t136.5 -345.5q0 -209 -136.5 -346.5t-332.5 -137.5t-332.5 137.5t-136.5 346.5q0 157 90 291l518 757h119l-398 -585q68 20 140 20zM543 70q153 0 259.5 109.5t106.5 277.5q0 167 -106.5 278t-259.5 111q-154 0 -259.5 -111t-105.5 -278
q0 -168 105.5 -277.5t259.5 -109.5z" />
    <glyph glyph-name="seven" unicode="7" horiz-adv-x="1081" 
d="M1030 1505v-12l-792 -1493h-115l754 1409h-816v96h969z" />
    <glyph glyph-name="eight" unicode="8" horiz-adv-x="1087" 
d="M532 1532q166 0 281 -108.5t115 -272.5q0 -119 -58 -211.5t-153 -138.5q128 -47 207.5 -152.5t79.5 -240.5q0 -185 -138 -310t-334 -125q-127 0 -233.5 56t-169.5 156.5t-63 222.5q0 136 78.5 242t205.5 151q-96 45 -153.5 138t-57.5 212q0 164 114.5 272.5t278.5 108.5z
M532 1436q-123 0 -208.5 -82.5t-85.5 -206.5q0 -131 85.5 -218t208.5 -87q124 0 210.5 87t86.5 218q0 125 -86 207t-211 82zM532 748q-152 0 -258 -97.5t-106 -242.5t106 -241.5t258 -96.5q154 0 261.5 96.5t107.5 241.5t-107.5 242.5t-261.5 97.5z" />
    <glyph glyph-name="nine" unicode="9" horiz-adv-x="1087" 
d="M545 1532q196 0 331.5 -137t135.5 -346q0 -161 -90 -291l-516 -758h-121l399 586q-72 -21 -139 -21q-196 0 -333.5 138t-137.5 346q0 138 64 249.5t171.5 172.5t235.5 61zM545 659q152 0 258 111.5t106 278.5q0 168 -105.5 277.5t-258.5 109.5q-155 0 -262 -109.5
t-107 -277.5q0 -167 107.5 -278.5t261.5 -111.5z" />
    <glyph glyph-name="colon" unicode=":" horiz-adv-x="411" 
d="M207 1038q40 0 67 -26.5t27 -67.5q0 -40 -27 -67t-67 -27q-41 0 -68.5 27t-27.5 67t27.5 67t68.5 27zM207 170q40 0 67 -27t27 -69q0 -40 -27 -67t-67 -27q-41 0 -68.5 27t-27.5 67q0 41 27.5 68.5t68.5 27.5z" />
    <glyph glyph-name="semicolon" unicode=";" horiz-adv-x="411" 
d="M207 1038q40 0 67 -26.5t27 -67.5q0 -40 -27 -67t-67 -27q-41 0 -68.5 27t-27.5 67t27.5 67t68.5 27zM174 170q42 0 70 -28t28 -70q0 -17 -12 -49l-108 -326h-9v469q16 4 31 4z" />
    <glyph glyph-name="less" unicode="&#x3c;" horiz-adv-x="741" 
d="M653 1102l-434 -393l434 -394h-133l-432 390v8l432 389h133z" />
    <glyph glyph-name="equal" unicode="=" horiz-adv-x="940" 
d="M850 981v-94h-762v94h762zM850 547v-94h-762v94h762z" />
    <glyph glyph-name="greater" unicode="&#x3e;" horiz-adv-x="741" 
d="M221 1102l432 -389v-8l-432 -390h-133l434 394l-434 393h133z" />
    <glyph glyph-name="question" unicode="?" horiz-adv-x="933" 
d="M453 1532q176 0 285.5 -109.5t109.5 -283.5q0 -69 -19 -129t-48.5 -102.5t-66 -80.5t-73 -71.5t-66 -67t-48.5 -75.5t-19 -89v-147h-102v155q0 56 18.5 104.5t48.5 85.5t65.5 71.5t71.5 70t66 74t48.5 90t18.5 111.5q0 139 -81.5 218t-208.5 79q-121 0 -199 -65.5
t-109 -190.5l-100 20q36 158 140 245t268 87zM457 154q38 0 63 -24.5t25 -61.5q0 -38 -25 -63t-63 -25q-37 0 -61.5 25t-24.5 63q0 37 24.5 61.5t61.5 24.5z" />
    <glyph glyph-name="at" unicode="@" horiz-adv-x="1687" 
d="M844 1268q167 0 310.5 -58t245 -159t159 -244t57.5 -307q0 -207 -81.5 -329t-227.5 -122q-72 0 -115 35t-49 98l-2 11q-113 -144 -314 -144q-173 0 -284 125t-111 318q0 194 111 319t284 125q199 0 310 -137l2 121h82v-701q0 -90 92 -90q105 0 162 103t57 268
q0 145 -51.5 272t-141.5 217.5t-218.5 142.5t-276.5 52t-276 -52t-218 -143t-141 -218t-51 -273q0 -147 51 -274.5t140 -218t216.5 -142t274.5 -51.5t272 49l31 -76q-145 -55 -303 -55q-166 0 -309 57.5t-243.5 158.5t-158 244t-57.5 308q0 164 57.5 306.5t159 244.5
t245.5 160.5t310 58.5zM842 856q-140 0 -231 -102.5t-91 -261.5q0 -160 91 -261.5t231 -101.5q99 0 168.5 42t124.5 118v407q-56 75 -125.5 117.5t-167.5 42.5z" />
    <glyph glyph-name="A" unicode="A" horiz-adv-x="1374" 
d="M690 1532l658 -1532h-113l-168 397h-762l-166 -397h-112l655 1532h8zM686 1294l-338 -802h678z" />
    <glyph glyph-name="B" unicode="B" horiz-adv-x="1331" 
d="M668 1505q229 0 344.5 -103t115.5 -284q0 -127 -61.5 -212.5t-146.5 -119.5q153 -30 245 -122t92 -258q0 -191 -130.5 -298.5t-356.5 -107.5h-584v1505h482zM662 1409h-375v-592h403q159 0 248.5 82t89.5 213q0 143 -91 220t-275 77zM727 721h-440v-625h477q185 0 288 80
t103 232q0 313 -428 313z" />
    <glyph glyph-name="C" unicode="C" horiz-adv-x="1406" 
d="M823 1532q312 0 523 -211l-68 -78q-87 90 -203.5 140.5t-251.5 50.5q-184 0 -329 -88.5t-225.5 -244t-80.5 -349.5t80.5 -349.5t225.5 -243t329 -87.5q143 0 262.5 53.5t206.5 150.5l68 -79q-209 -224 -537 -224q-213 0 -382.5 100.5t-264 278.5t-94.5 400t94.5 400
t264 279t382.5 101z" />
    <glyph glyph-name="D" unicode="D" horiz-adv-x="1495" 
d="M616 1505q376 0 585.5 -197.5t209.5 -553.5q0 -357 -209 -555.5t-586 -198.5h-430v1505h430zM614 1405h-323v-1307h323q331 0 512 172.5t181 483.5q0 309 -182 480t-511 171z" />
    <glyph glyph-name="E" unicode="E" horiz-adv-x="1175" 
d="M1077 1505v-98h-786v-596h696v-96h-696v-617h803v-98h-908v1505h891z" />
    <glyph glyph-name="F" unicode="F" horiz-adv-x="1077" 
d="M1044 1505v-98h-753v-616h649v-99h-649v-692h-105v1505h858z" />
    <glyph glyph-name="G" unicode="G" horiz-adv-x="1505" 
d="M823 1532q312 0 523 -211l-68 -78q-87 90 -203.5 140.5t-251.5 50.5q-184 0 -329 -88.5t-225.5 -244t-80.5 -349.5q0 -146 49 -272t134.5 -215.5t208.5 -141t266 -51.5q257 0 432 139v432h-442v94h546v-577q-206 -187 -536 -187q-220 0 -394.5 100.5t-272 278.5
t-97.5 400t94.5 400t264 279t382.5 101z" />
    <glyph glyph-name="H" unicode="H" horiz-adv-x="1466" 
d="M1280 1505v-1505h-104v719h-885v-719h-105v1505h105v-686h885v686h104z" />
    <glyph glyph-name="I" unicode="I" horiz-adv-x="477" 
d="M291 1505v-1505h-105v1505h105z" />
    <glyph glyph-name="J" unicode="J" horiz-adv-x="1048" 
d="M885 1505v-1095q0 -202 -114 -319.5t-304 -117.5q-87 0 -163 30.5t-133.5 86.5t-90.5 141t-33 189h105q0 -161 86.5 -254.5t226.5 -93.5q146 0 230.5 90.5t84.5 251.5v1091h105z" />
    <glyph glyph-name="K" unicode="K" horiz-adv-x="1273" 
d="M1167 1505l-434 -731l508 -774h-125l-442 676l-402 -676h-86v1505h105v-1294l758 1294h118z" />
    <glyph glyph-name="L" unicode="L" horiz-adv-x="1112" 
d="M291 1505v-1409h792v-96h-897v1505h105z" />
    <glyph glyph-name="M" unicode="M" horiz-adv-x="1755" 
d="M1569 1532v-1532h-105v1153l-579 -1157h-13l-581 1157v-1153h-105v1532h9l684 -1337l682 1337h8z" />
    <glyph glyph-name="N" unicode="N" horiz-adv-x="1478" 
d="M195 1532l993 -1282v1255h104v-1532h-8l-993 1284v-1257h-105v1532h9z" />
    <glyph glyph-name="O" unicode="O" horiz-adv-x="1652" 
d="M825 1532q159 0 297.5 -59t236.5 -162t154 -248t56 -311q0 -167 -56 -311.5t-154 -247.5t-236.5 -161.5t-297.5 -58.5q-160 0 -298 58.5t-236 161.5t-153.5 247.5t-55.5 311.5q0 222 95 400t265 279t383 101zM825 1434q-184 0 -329.5 -88.5t-226.5 -244t-81 -349.5
t81 -349.5t226.5 -243t329.5 -87.5q183 0 329 87.5t228 243t82 349.5q0 193 -82 349t-228 244.5t-329 88.5z" />
    <glyph glyph-name="P" unicode="P" horiz-adv-x="1198" 
d="M629 1505q236 0 377 -118t141 -336q0 -217 -140.5 -335t-377.5 -118h-338v-598h-105v1505h443zM623 1409h-332v-715h332q195 0 306 92.5t111 264.5t-111.5 265t-305.5 93z" />
    <glyph glyph-name="Q" unicode="Q" horiz-adv-x="1652" 
d="M1577 -223h-133l-248 291q-165 -95 -371 -95q-160 0 -298 58.5t-236 161.5t-153.5 247.5t-55.5 311.5q0 222 95 400t265 279t383 101q159 0 297.5 -59t236.5 -162t154 -248t56 -311q0 -197 -76 -360t-213 -269zM825 72q166 0 303 73l-264 312l76 65l274 -321
q118 92 184 235t66 316q0 193 -82 349t-228 244.5t-329 88.5q-184 0 -329.5 -88.5t-226.5 -244t-81 -349.5t81 -349.5t226.5 -243t329.5 -87.5z" />
    <glyph glyph-name="R" unicode="R" horiz-adv-x="1226" 
d="M1182 0h-125l-393 616q-50 -4 -78 -4h-303v-612h-105v1505h408q239 0 383.5 -116.5t144.5 -329.5q0 -167 -90 -275t-250 -149zM580 711q201 0 314.5 89t113.5 259t-114.5 260t-313.5 90h-297v-698h297z" />
    <glyph glyph-name="S" unicode="S" horiz-adv-x="1169" 
d="M569 1530q254 0 465 -162l-55 -88q-82 68 -191 110t-221 42q-156 0 -256 -77t-100 -229q0 -69 20 -116t69.5 -82.5t118.5 -59.5t181 -49q263 -60 376.5 -153t113.5 -263q0 -192 -137.5 -311t-364.5 -119q-304 0 -518 185l63 86q85 -80 207 -126t250 -46q173 0 284 85.5
t111 239.5q0 129 -97.5 202t-316.5 122q-261 58 -363 144.5t-102 256.5q0 191 128 299.5t335 108.5z" />
    <glyph glyph-name="T" unicode="T" horiz-adv-x="1296" 
d="M1268 1505v-96h-568v-1409h-104v1409h-567v96h1239z" />
    <glyph glyph-name="U" unicode="U" horiz-adv-x="1417" 
d="M1251 1505v-985q0 -255 -140.5 -401t-401.5 -146q-262 0 -401.5 146t-139.5 401v985h104v-983q0 -210 112 -330t325 -120q212 0 325 120.5t113 329.5v983h104z" />
    <glyph glyph-name="V" unicode="V" horiz-adv-x="1454" 
d="M1427 1505l-696 -1532h-8l-696 1532h112l588 -1302l588 1302h112z" />
    <glyph glyph-name="W" unicode="W" horiz-adv-x="1988" 
d="M1950 1505l-549 -1532h-8l-400 1235l-399 -1235h-8l-549 1532h117l436 -1245l399 1245h8l402 -1245l436 1245h115z" />
    <glyph glyph-name="X" unicode="X" horiz-adv-x="1316" 
d="M1260 1505l-533 -737l555 -768h-125l-500 690l-497 -690h-125l553 768l-533 737h127l475 -659l478 659h125z" />
    <glyph glyph-name="Y" unicode="Y" horiz-adv-x="1275" 
d="M1255 1503l-565 -846v-657h-104v657l-566 846h123l494 -739l493 739h125z" />
    <glyph glyph-name="Z" unicode="Z" horiz-adv-x="1159" 
d="M1075 1505v-8l-842 -1401h867v-96h-1034v8l843 1401h-811v96h977z" />
    <glyph glyph-name="bracketleft" unicode="[" horiz-adv-x="598" 
d="M526 1575v-90h-315v-1581h315v-90h-413v1761h413z" />
    <glyph glyph-name="backslash" unicode="\" horiz-adv-x="870" 
d="M113 1503l747 -1503h-104l-746 1503h103z" />
    <glyph glyph-name="bracketright" unicode="]" horiz-adv-x="618" 
d="M506 1575v-1761h-434v90h334v1581h-334v90h434z" />
    <glyph glyph-name="asciicircum" unicode="^" horiz-adv-x="1103" 
d="M551 1556l506 -610h-103l-403 486l-399 -486h-105z" />
    <glyph glyph-name="underscore" unicode="_" horiz-adv-x="1650" 
d="M1563 0v-94h-1475v94h1475z" />
    <glyph glyph-name="grave" unicode="`" horiz-adv-x="524" 
d="M207 1423l287 -237h-121l-312 237h146z" />
    <glyph glyph-name="a" unicode="a" horiz-adv-x="1161" 
d="M545 1038q229 0 358 -164l2 144h94v-1018h-94l-2 147q-132 -167 -358 -167q-206 0 -336.5 149t-130.5 379q0 233 130.5 381.5t336.5 148.5zM557 946q-167 0 -273 -123t-106 -315t106 -314t273 -122q118 0 197.5 50t144.5 144v486q-65 94 -144.5 144t-197.5 50z" />
    <glyph glyph-name="b" unicode="b" horiz-adv-x="1183" 
d="M268 1556v-677q128 159 363 159q209 0 342 -149t133 -381q0 -230 -133.5 -379t-341.5 -149q-235 0 -367 167l-2 -147h-94v1556h100zM618 946q-120 0 -203 -50.5t-147 -143.5v-486q64 -93 147 -143.5t203 -50.5q169 0 278.5 122.5t109.5 313.5q0 192 -109.5 315
t-278.5 123z" />
    <glyph glyph-name="c" unicode="c" horiz-adv-x="1021" 
d="M571 1038q252 0 398 -213l-72 -55q-117 178 -326 178q-187 0 -290 -121.5t-103 -316.5q0 -196 105 -317t292 -121q113 0 196.5 50.5t135.5 127.5l72 -57q-146 -213 -404 -213q-230 0 -363.5 147.5t-133.5 382.5t131.5 381.5t361.5 146.5z" />
    <glyph glyph-name="d" unicode="d" horiz-adv-x="1183" 
d="M1016 1556v-1556h-94l-2 147q-132 -167 -367 -167q-208 0 -341.5 149t-133.5 379q0 232 133 381t342 149q234 0 362 -159v677h101zM565 946q-169 0 -278 -123t-109 -315t109 -314t278 -122q120 0 203 50.5t147 143.5v486q-64 93 -147 143.5t-203 50.5z" />
    <glyph glyph-name="e" unicode="e" horiz-adv-x="1081" 
d="M553 1038q143 0 248 -69t158 -185t53 -264v-47h-834q6 -185 111.5 -294t292.5 -109q114 0 201 45.5t135 115.5l71 -55q-140 -196 -407 -196q-235 0 -369.5 146.5t-134.5 381.5q0 232 132 381t343 149zM553 948q-160 0 -263 -107.5t-112 -279.5h735q-6 173 -102 280
t-258 107z" />
    <glyph glyph-name="f" unicode="f" horiz-adv-x="671" 
d="M524 1556q127 0 209 -79l-49 -76q-60 63 -158 63q-91 0 -144.5 -65.5t-53.5 -167.5v-213h305v-90h-305v-928h-99v928h-188v90h188v209q0 144 80.5 236.5t214.5 92.5z" />
    <glyph glyph-name="g" unicode="g" horiz-adv-x="1177" 
d="M553 1038q238 0 367 -164l2 144h94v-1008q0 -231 -132 -366.5t-349 -135.5q-138 0 -248.5 54.5t-186.5 152.5l68 64q144 -178 367 -178q173 0 276.5 109.5t103.5 297.5v135q-128 -163 -362 -163q-208 0 -341.5 149t-133.5 379q0 232 133 381t342 149zM565 946
q-169 0 -278 -123t-109 -315t109 -314t278 -122q120 0 203 50.5t147 143.5v486q-64 93 -147 143.5t-203 50.5z" />
    <glyph glyph-name="h" unicode="h" horiz-adv-x="1157" 
d="M268 1556v-682q143 164 353 164q180 0 283.5 -116t103.5 -306v-616h-99v610q0 148 -84 240t-221 92q-105 0 -182.5 -48.5t-153.5 -143.5v-750h-100v1556h100z" />
    <glyph glyph-name="i" unicode="i" horiz-adv-x="421" 
d="M211 1438q35 0 59.5 -24.5t24.5 -59.5q0 -36 -24 -60t-60 -24q-37 0 -60.5 23.5t-23.5 60.5q0 36 24 60t60 24zM260 1018v-1018h-98v1018h98z" />
    <glyph glyph-name="j" unicode="j" horiz-adv-x="434" 
d="M223 1438q35 0 59.5 -24.5t24.5 -59.5q0 -36 -24 -60t-60 -24q-37 0 -60.5 23.5t-23.5 60.5q0 36 24 60t60 24zM-43 -492q-128 0 -219 72l55 78q70 -57 166 -57q94 0 154.5 62t60.5 157v1198h98v-1196q0 -134 -89.5 -224t-225.5 -90z" />
    <glyph glyph-name="k" unicode="k" horiz-adv-x="1021" 
d="M268 1556v-1372l545 834h113l-312 -469l385 -549h-118l-326 463l-303 -463h-84v1556h100z" />
    <glyph glyph-name="l" unicode="l" horiz-adv-x="436" 
d="M268 1556v-1556h-100v1556h100z" />
    <glyph glyph-name="m" unicode="m" horiz-adv-x="1845" 
d="M1323 1038q171 0 272 -116t101 -306v-616h-101v610q0 148 -79 240t-209 92q-104 0 -185.5 -52t-154.5 -153q12 -55 12 -114v-623h-100v610q0 148 -80 240t-209 92q-102 0 -179.5 -47.5t-150.5 -140.5v-754h-98v1018h92l4 -144q55 69 144 116.5t204 47.5q116 0 200.5 -55
t129.5 -154q66 93 164 151t223 58z" />
    <glyph glyph-name="n" unicode="n" horiz-adv-x="1150" 
d="M614 1038q180 0 283.5 -116t103.5 -306v-616h-98v610q0 148 -84 240t-221 92q-105 0 -183.5 -48.5t-154.5 -143.5v-750h-98v1018h92l4 -148q58 70 147.5 119t208.5 49z" />
    <glyph glyph-name="o" unicode="o" horiz-adv-x="1171" 
d="M586 1038q220 0 364 -150.5t144 -379.5q0 -230 -144 -379t-364 -149q-221 0 -364.5 149t-143.5 379q0 229 143.5 379.5t364.5 150.5zM586 946q-178 0 -293 -124t-115 -314q0 -191 115 -313.5t293 -122.5q177 0 292 123t115 313q0 189 -115 313.5t-292 124.5z" />
    <glyph glyph-name="p" unicode="p" horiz-adv-x="1177" 
d="M623 1038q209 0 342 -148.5t133 -379.5t-133 -380.5t-342 -149.5q-228 0 -363 159v-610h-98v1489h92l4 -148q129 168 365 168zM612 946q-121 0 -204.5 -50.5t-147.5 -143.5v-486q64 -93 147.5 -143.5t204.5 -50.5q168 0 277.5 123.5t109.5 314.5t-109.5 313.5
t-277.5 122.5z" />
    <glyph glyph-name="q" unicode="q" horiz-adv-x="1177" 
d="M553 1038q238 0 367 -168l2 148h94v-1489h-101v610q-128 -159 -362 -159q-209 0 -342 149.5t-133 380.5t133 379.5t342 148.5zM565 946q-169 0 -278 -122t-109 -314t109 -315t278 -123q120 0 203 50.5t147 143.5v486q-64 93 -147 143.5t-203 50.5z" />
    <glyph glyph-name="r" unicode="r" horiz-adv-x="598" 
d="M569 1038v-100h-10q-97 0 -167.5 -47t-131.5 -143v-748h-98v1018h92l4 -150q45 72 123 121t188 49z" />
    <glyph glyph-name="s" unicode="s" horiz-adv-x="894" 
d="M449 1038q175 0 331 -102l-45 -80q-135 92 -286 92q-110 0 -178 -46.5t-68 -139.5q0 -81 58.5 -121t207.5 -74q182 -42 264 -108.5t82 -179.5q0 -134 -101.5 -216.5t-267.5 -82.5q-218 0 -370 120l51 82q134 -112 322 -112q120 0 194 52.5t74 149.5q0 83 -64.5 127
t-212.5 76q-183 42 -260.5 104.5t-77.5 176.5q0 133 96 207.5t251 74.5z" />
    <glyph glyph-name="t" unicode="t" horiz-adv-x="761" 
d="M342 1370v-352h350v-90h-350v-627q0 -109 57.5 -169t151.5 -60t166 39l35 -82q-74 -49 -203 -49q-140 0 -222.5 82.5t-82.5 238.5v627h-215v90h215v352h98z" />
    <glyph glyph-name="u" unicode="u" horiz-adv-x="1126" 
d="M965 1018v-1018h-95l-2 145q-140 -165 -358 -165q-167 0 -263.5 113.5t-96.5 301.5v623h100v-619q0 -145 75.5 -234t200.5 -89q112 0 188.5 47.5t149.5 142.5v752h101z" />
    <glyph glyph-name="v" unicode="v" horiz-adv-x="1036" 
d="M1010 1018l-488 -1038h-8l-489 1038h106l387 -838l389 838h103z" />
    <glyph glyph-name="w" unicode="w" horiz-adv-x="1538" 
d="M1511 1018l-415 -1038h-9l-317 813l-319 -813h-9l-417 1038h104l320 -815l317 815h8l316 -815l319 815h102z" />
    <glyph glyph-name="x" unicode="x" horiz-adv-x="956" 
d="M897 1018l-356 -498l370 -520h-114l-322 449l-317 -449h-115l369 520l-355 498h115l303 -428l305 428h117z" />
    <glyph glyph-name="y" unicode="y" horiz-adv-x="1062" 
d="M1024 1018l-696 -1489h-113l262 545l-438 944h104l387 -842l390 842h104z" />
    <glyph glyph-name="z" unicode="z" horiz-adv-x="874" 
d="M823 1018v-8l-612 -920h612v-90h-774v8l610 920h-575v90h739z" />
    <glyph glyph-name="braceleft" unicode="{" horiz-adv-x="694" 
d="M623 1575v-90q-60 0 -108.5 -15.5t-89 -50t-59.5 -99t-12 -153.5l21 -227q9 -102 -20.5 -158t-102.5 -88q73 -32 102.5 -87.5t20.5 -157.5l-21 -228q-7 -89 12 -153.5t59.5 -98.5t89 -49.5t108.5 -15.5v-90q-86 0 -155 23t-121.5 71t-76 132t-12.5 198l21 225
q9 97 -43.5 148t-169.5 79v8q117 28 169.5 79.5t43.5 148.5l-21 225q-11 114 12.5 198t76 132t121.5 71t155 23z" />
    <glyph glyph-name="bar" unicode="|" horiz-adv-x="450" 
d="M274 1432v-1680h-98v1680h98z" />
    <glyph glyph-name="braceright" unicode="}" horiz-adv-x="694" 
d="M72 1575q86 0 155 -23t122 -71t76.5 -132t12.5 -198l-22 -225q-10 -97 43 -148.5t170 -79.5v-8q-117 -28 -170 -79t-43 -148l22 -225q11 -114 -12.5 -198t-76.5 -132t-122 -71t-155 -23v90q60 0 108.5 15.5t88.5 49.5t58.5 98.5t10.5 153.5l-19 228q-9 102 20 158t103 87
q-74 31 -103 87.5t-20 158.5l19 227q8 89 -10.5 153.5t-58.5 99t-88.5 50t-108.5 15.5v90z" />
    <glyph glyph-name="asciitilde" unicode="~" horiz-adv-x="1218" 
d="M389 866q60 0 111 -19.5t86.5 -47.5t70 -56t78.5 -47.5t94 -19.5q85 0 143 48t89 130l69 -45q-42 -104 -118 -165.5t-183 -61.5q-61 0 -111.5 19.5t-86 47.5t-69 56t-77.5 47.5t-96 19.5q-163 0 -231 -178l-70 43q42 106 117.5 167.5t183.5 61.5z" />
    <glyph glyph-name="exclamdown" unicode="&#xa1;" horiz-adv-x="471" 
d="M238 858q-37 0 -62.5 24.5t-25.5 61.5q0 38 25.5 63t62.5 25q38 0 63 -25t25 -63q0 -37 -25 -61.5t-63 -24.5zM190 -494v1129h99v-1129h-99z" />
    <glyph glyph-name="cent" unicode="&#xa2;" horiz-adv-x="1028" 
d="M979 193q-134 -197 -367 -211v-275h-88v275q-139 12 -240.5 83t-153.5 185.5t-52 259.5q0 223 118 367t328 159v267h88v-265q224 -17 357 -213l-72 -55q-117 178 -326 178q-187 0 -290 -121.5t-103 -316.5q0 -196 105 -317t292 -121q113 0 196.5 50.5t135.5 127.5z" />
    <glyph glyph-name="sterling" unicode="&#xa3;" horiz-adv-x="1142" 
d="M938 369h100q0 -369 -350 -369h-653v8q41 71 62 108.5t50.5 98.5t41.5 106t23 104.5t7.5 122t-16.5 132.5l-6 29h-150v88h131q-33 152 -33 258q1 228 108.5 352.5t295.5 124.5q143 0 245 -78t144 -192l-96 -33q-36 94 -111.5 150.5t-183.5 56.5q-149 0 -225 -100
t-76 -271q0 -103 35 -268h413v-88h-393q21 -110 21 -187q0 -213 -132 -426h486q135 0 198.5 64.5t63.5 208.5z" />
    <glyph glyph-name="currency" unicode="&#xa4;" horiz-adv-x="1306" 
d="M1141 1108l65 -68l-254 -252q80 -104 80 -247q0 -146 -80 -250l254 -252l-65 -66l-254 252q-99 -80 -234 -80q-134 0 -233 80l-252 -252l-68 66l256 252q-82 106 -82 250q0 141 82 247l-256 252l68 68l252 -254q101 82 233 82q133 0 234 -82zM653 854q-127 0 -209 -89.5
t-82 -223.5t82 -223t209 -89q126 0 208.5 89t82.5 223t-82.5 223.5t-208.5 89.5z" />
    <glyph glyph-name="yen" unicode="&#xa5;" horiz-adv-x="1273" 
d="M1255 1503l-526 -780h295v-82h-336v-195h336v-81h-336v-365h-104v365h-334v81h334v195h-334v82h293l-525 780h125l494 -739l493 739h125z" />
    <glyph glyph-name="brokenbar" unicode="&#xa6;" horiz-adv-x="450" 
d="M274 1432v-631h-98v631h98zM274 383v-631h-98v631h98z" />
    <glyph glyph-name="section" unicode="&#xa7;" horiz-adv-x="819" 
d="M432 1532q162 0 268 -98l-57 -66q-86 76 -211 76q-103 0 -169 -58.5t-66 -150.5q0 -78 43.5 -128.5t132.5 -78.5q23 -7 82 -18t94 -25q95 -35 151 -118.5t56 -192.5q0 -106 -55.5 -187.5t-147.5 -115.5q172 -73 172 -240q0 -135 -101.5 -225t-258.5 -90q-184 0 -299 121
l61 65q95 -98 240 -98q114 0 188 63.5t74 163.5q0 71 -40.5 117t-125.5 74q-26 8 -74.5 15.5t-62.5 10.5q-115 28 -183.5 116t-68.5 210q0 108 55.5 189.5t151.5 113.5q-181 78 -181 258q0 128 92 212.5t240 84.5zM414 924q-109 0 -178.5 -70.5t-69.5 -179.5t69.5 -178.5
t178.5 -69.5t180.5 70t71.5 178q0 109 -71.5 179.5t-180.5 70.5z" />
    <glyph glyph-name="dieresis" unicode="&#xa8;" horiz-adv-x="559" 
d="M125 1374q34 0 57 -23t23 -55q0 -33 -23 -55t-57 -22q-33 0 -55.5 22t-22.5 55q0 32 23 55t55 23zM432 1374q32 0 56 -23t24 -55q0 -33 -23.5 -55t-56.5 -22t-55.5 22t-22.5 55q0 32 23 55t55 23z" />
    <glyph glyph-name="copyright" unicode="&#xa9;" horiz-adv-x="1638" 
d="M817 1532q211 0 380 -101.5t264 -280t95 -398.5q0 -222 -95 -400t-264 -278.5t-380 -100.5q-212 0 -380 100.5t-261.5 278.5t-93.5 400q0 221 93.5 399t261.5 279.5t380 101.5zM817 1456q-142 0 -264.5 -54t-208.5 -147.5t-135 -223.5t-49 -279q0 -201 83.5 -361.5
t233.5 -251t340 -90.5q189 0 340 90.5t235.5 251t84.5 361.5q0 198 -84.5 359t-236 253t-339.5 92zM831 1202q170 0 299 -129l-55 -63q-94 108 -244 108q-151 0 -246.5 -104t-95.5 -264q0 -164 95 -267.5t247 -103.5q157 0 250 113l56 -60q-114 -139 -306 -139
q-188 0 -309 129t-121 328q0 194 121.5 323t308.5 129z" />
    <glyph glyph-name="ordfeminine" unicode="&#xaa;" horiz-adv-x="860" 
d="M389 1524q162 0 254 -113l2 98h82v-714h-82l-2 100q-90 -115 -254 -115q-144 0 -237 104.5t-93 266.5t93 267.5t237 105.5zM406 1446q-113 0 -186 -83t-73 -212q0 -128 73 -209.5t186 -81.5q81 0 136 33t97 94v330q-91 129 -233 129z" />
    <glyph glyph-name="guillemotleft" unicode="&#xab;" horiz-adv-x="974" 
d="M483 938l-309 -414l309 -413h-102l-311 409v8l311 410h102zM905 938l-311 -414l311 -413h-102l-311 409v8l311 410h102z" />
    <glyph glyph-name="logicalnot" unicode="&#xac;" horiz-adv-x="1122" 
d="M1044 848v-508h-77v434h-889v74h966z" />
    <glyph glyph-name="registered" unicode="&#xae;" horiz-adv-x="1296" 
d="M649 1573q164 0 296 -79.5t206 -219t74 -311.5q0 -173 -74.5 -312t-206 -218t-295.5 -79q-166 0 -298.5 79t-205.5 218t-73 312q0 172 73 311.5t205.5 219t298.5 79.5zM649 428q217 0 358.5 151.5t141.5 383.5q0 231 -142 383.5t-358 152.5q-220 0 -361 -152t-141 -384
q0 -233 141 -384t361 -151zM891 1094q0 -76 -40 -126t-110 -73l183 -283h-90l-172 269h-23h-127v-269h-78v695h205q112 0 182 -55.5t70 -157.5zM635 952q86 0 133 36t47 106q0 69 -47 104t-133 35h-123v-281h123z" />
    <glyph glyph-name="macron" unicode="&#xaf;" horiz-adv-x="598" 
d="M549 1311v-80h-502v80h502z" />
    <glyph glyph-name="degree" unicode="&#xb0;" horiz-adv-x="659" 
d="M332 1530q112 0 186 -73.5t74 -184.5q0 -112 -73.5 -185t-186.5 -73q-115 0 -189.5 72.5t-74.5 185.5q0 111 74.5 184.5t189.5 73.5zM332 1454q-79 0 -132 -52t-53 -130q0 -79 52.5 -129.5t132.5 -50.5q78 0 129 50.5t51 129.5q0 78 -51 130t-129 52z" />
    <glyph glyph-name="plusminus" unicode="&#xb1;" horiz-adv-x="940" 
d="M516 1278v-332h334v-96h-334v-334h-94v334h-334v96h334v332h94zM850 336v-94h-762v94h762z" />
    <glyph glyph-name="two.sups" unicode="&#xb2;" horiz-adv-x="708" 
d="M362 1681q116 0 188.5 -68.5t72.5 -180.5q0 -80 -28.5 -142t-92.5 -135l-234 -268h369v-80h-522v8l319 387q57 65 81 116t24 114q0 78 -50 125t-127 47q-147 0 -182 -152l-78 16q45 213 260 213z" />
    <glyph glyph-name="three.sups" unicode="&#xb3;" horiz-adv-x="702" 
d="M360 1681q110 0 180 -66t70 -169q0 -139 -131 -189q77 -26 122.5 -80t45.5 -130q0 -114 -75.5 -185t-198.5 -71q-115 0 -182.5 50t-104.5 146l76 23q31 -68 78.5 -104t132.5 -36q84 0 136 50t52 131q0 73 -58 122.5t-149 49.5h-100v69h104q70 0 119 39.5t49 114.5
q0 70 -47 114t-121 44q-133 0 -184 -131l-76 32q69 176 262 176z" />
    <glyph glyph-name="acute" unicode="&#xb4;" horiz-adv-x="524" 
d="M463 1423l-313 -237h-119l286 237h146z" />
    <glyph glyph-name="mu" unicode="&#xb5;" horiz-adv-x="1171" 
d="M993 1018v-1018h-94l-2 145q-140 -165 -350 -165q-185 0 -268 137v-588h-101v1489h101v-619q0 -145 75.5 -234t200.5 -89q112 0 188.5 47.5t149.5 142.5v752h100z" />
    <glyph glyph-name="paragraph" unicode="&#xb6;" horiz-adv-x="1320" 
d="M1233 1505v-88h-195v-1642h-90v1642h-239v-1642h-93v856h-6q-118 0 -217 25.5t-176 76.5t-120.5 134.5t-43.5 191.5q0 217 152.5 331.5t404.5 114.5h623z" />
    <glyph glyph-name="periodcentered" unicode="&#xb7;" horiz-adv-x="350" 
d="M174 610q37 0 61.5 -24.5t24.5 -61.5q0 -35 -24.5 -59.5t-61.5 -24.5t-61.5 24.5t-24.5 59.5q0 37 24.5 61.5t61.5 24.5z" />
    <glyph glyph-name="cedilla" unicode="&#xb8;" horiz-adv-x="493" 
d="M205 12l71 -4l-32 -119q82 -5 138 -51t56 -129q0 -87 -54.5 -133.5t-141.5 -46.5q-117 0 -193 76l45 57q68 -61 146 -61q120 0 120 108q0 86 -100 109q-39 9 -96 6l-6 6z" />
    <glyph glyph-name="one.sups" unicode="&#xb9;" horiz-adv-x="501" 
d="M371 1681v-874h-86v723l-176 -125l-46 72l304 204h4z" />
    <glyph glyph-name="ordmasculine" unicode="&#xba;" horiz-adv-x="837" 
d="M420 1524q155 0 255.5 -106.5t100.5 -266.5q0 -161 -100.5 -266t-255.5 -105q-158 0 -259.5 104.5t-101.5 266.5q0 161 102 267t259 106zM420 1446q-120 0 -196.5 -83.5t-76.5 -211.5t76.5 -209.5t196.5 -81.5q117 0 193.5 82t76.5 209q0 128 -76.5 211.5t-193.5 83.5z
" />
    <glyph glyph-name="guillemotright" unicode="&#xbb;" horiz-adv-x="974" 
d="M174 938l309 -410v-8l-309 -409h-104l311 413l-311 414h104zM594 938l311 -410v-8l-311 -409h-102l309 413l-309 414h102z" />
    <glyph glyph-name="onequarter" unicode="&#xbc;" horiz-adv-x="1417" 
d="M1112 1503l-745 -1503h-93l746 1503h92zM371 1477v-875h-86v723l-176 -125l-46 72l304 205h4zM1231 877v-629h135v-72h-135v-176h-84v178h-414v4l492 695h6zM1149 647l-277 -399h277v399z" />
    <glyph glyph-name="onehalf" unicode="&#xbd;" horiz-adv-x="1544" 
d="M1106 1503l-746 -1503h-92l748 1503h90zM371 1477v-875h-86v723l-176 -125l-46 72l304 205h4zM1194 874q115 0 187.5 -68.5t72.5 -180.5q0 -79 -29 -140.5t-92 -136.5l-235 -268h368v-80h-522v8l320 387q57 64 80.5 115.5t23.5 114.5q0 78 -49.5 125t-124.5 47
q-149 0 -184 -152l-78 17q45 212 262 212z" />
    <glyph glyph-name="threequarters" unicode="&#xbe;" horiz-adv-x="1619" 
d="M1307 1503l-746 -1503h-92l748 1503h90zM360 1477q110 0 180 -66.5t70 -169.5q0 -138 -131 -188q77 -26 122.5 -80.5t45.5 -130.5q0 -114 -75.5 -185t-198.5 -71q-115 0 -182.5 50t-104.5 146l76 23q31 -68 78.5 -103.5t132.5 -35.5q84 0 136 49.5t52 130.5
q0 73 -58 122.5t-149 49.5h-100v69h104q70 0 119 39.5t49 114.5q0 70 -47 114t-121 44q-133 0 -184 -131l-76 32q70 177 262 177zM1432 877v-629h135v-72h-135v-176h-82v178h-414v4l491 695h5zM1352 647l-279 -399h279v399z" />
    <glyph glyph-name="questiondown" unicode="&#xbf;" horiz-adv-x="933" 
d="M477 858q-37 0 -62.5 24.5t-25.5 61.5q0 38 25.5 63t62.5 25q38 0 62 -25t24 -63q0 -37 -24 -61.5t-62 -24.5zM481 -520q-177 0 -286 109t-109 284q0 69 19 129t48.5 102.5t66 80t73 71t66 67t48.5 75.5t19 89v148h102v-156q0 -56 -18.5 -104.5t-48 -85t-65 -71.5
t-71.5 -70t-65.5 -73.5t-48 -90t-18.5 -111.5q0 -139 81 -218t209 -79q121 0 198.5 65t106.5 189l101 -18q-36 -158 -140 -245t-268 -87z" />
    <glyph glyph-name="Agrave" unicode="&#xc0;" horiz-adv-x="1374" 
d="M483 1829l285 -227h-127l-305 227h147zM690 1532l658 -1532h-113l-168 397h-762l-166 -397h-112l655 1532h8zM686 1294l-338 -802h678z" />
    <glyph glyph-name="Aacute" unicode="&#xc1;" horiz-adv-x="1374" 
d="M1026 1829l-307 -227h-125l283 227h149zM690 1532l658 -1532h-113l-168 397h-762l-166 -397h-112l655 1532h8zM686 1294l-338 -802h678z" />
    <glyph glyph-name="Acircumflex" unicode="&#xc2;" horiz-adv-x="1374" 
d="M686 1880l293 -281h-109l-184 170l-186 -170h-109zM690 1532l658 -1532h-113l-168 397h-762l-166 -397h-112l655 1532h8zM686 1294l-338 -802h678z" />
    <glyph glyph-name="Atilde" unicode="&#xc3;" horiz-adv-x="1374" 
d="M553 1862q40 0 73.5 -19t55.5 -46t43 -54.5t45.5 -46.5t52.5 -19q97 0 97 170h75q0 -124 -48.5 -186t-127.5 -62q-41 0 -74 19t-55 45.5t-42 53.5t-44.5 46t-52.5 19q-54 0 -75 -45t-21 -125h-78q0 125 48.5 187.5t127.5 62.5zM690 1532l658 -1532h-113l-168 397h-762
l-166 -397h-112l655 1532h8zM686 1294l-338 -802h678z" />
    <glyph glyph-name="Adieresis" unicode="&#xc4;" horiz-adv-x="1374" 
d="M532 1782q34 0 57 -23t23 -55q0 -34 -23 -56t-57 -22q-32 0 -54.5 22t-22.5 56q0 32 22.5 55t54.5 23zM840 1782q32 0 56 -23t24 -55q0 -33 -23.5 -55.5t-56.5 -22.5t-55.5 22.5t-22.5 55.5q0 32 23 55t55 23zM690 1532l658 -1532h-113l-168 397h-762l-166 -397h-112
l655 1532h8zM686 1294l-338 -802h678z" />
    <glyph glyph-name="Aring" unicode="&#xc5;" horiz-adv-x="1374" 
d="M686 1991q85 0 142 -56t57 -141q0 -84 -57 -139.5t-142 -55.5t-142 55.5t-57 139.5q0 85 57 141t142 56zM686 1921q-54 0 -90.5 -36.5t-36.5 -90.5t36.5 -88.5t90.5 -34.5t90.5 34.5t36.5 88.5t-36.5 90.5t-90.5 36.5zM690 1532l658 -1532h-113l-168 397h-762l-166 -397
h-112l655 1532h8zM686 1294l-338 -802h678z" />
    <glyph glyph-name="AE" unicode="&#xc6;" horiz-adv-x="1767" 
d="M1669 1505v-98h-909l248 -596h573v-96h-534l258 -617h381v-98h-453l-166 399h-760l-166 -399h-114l637 1505h1005zM686 1313l-340 -824h682z" />
    <glyph glyph-name="Ccedilla" unicode="&#xc7;" horiz-adv-x="1406" 
d="M823 -27h-26l-23 -84q82 -5 138.5 -51t56.5 -129q0 -87 -55 -133.5t-142 -46.5q-116 0 -192 76l45 57q68 -61 145 -61q121 0 121 108q0 86 -100 109q-39 10 -97 6l-6 6l39 150q-287 34 -466 247.5t-179 524.5q0 222 94.5 400t264 279t382.5 101q312 0 523 -211l-68 -78
q-87 90 -203.5 140.5t-251.5 50.5q-184 0 -329 -88.5t-225.5 -244t-80.5 -349.5t80.5 -349.5t225.5 -243t329 -87.5q143 0 262.5 53.5t206.5 150.5l68 -79q-209 -224 -537 -224z" />
    <glyph glyph-name="Egrave" unicode="&#xc8;" horiz-adv-x="1175" 
d="M440 1829l285 -227h-127l-305 227h147zM1077 1505v-98h-786v-596h696v-96h-696v-617h803v-98h-908v1505h891z" />
    <glyph glyph-name="Eacute" unicode="&#xc9;" horiz-adv-x="1175" 
d="M985 1829l-307 -227h-125l283 227h149zM1077 1505v-98h-786v-596h696v-96h-696v-617h803v-98h-908v1505h891z" />
    <glyph glyph-name="Ecircumflex" unicode="&#xca;" horiz-adv-x="1175" 
d="M643 1880l293 -281h-109l-184 170l-186 -170h-109zM1077 1505v-98h-786v-596h696v-96h-696v-617h803v-98h-908v1505h891z" />
    <glyph glyph-name="Edieresis" unicode="&#xcb;" horiz-adv-x="1175" 
d="M489 1782q34 0 57 -23t23 -55q0 -34 -23 -56t-57 -22q-33 0 -55 22t-22 56q0 32 22.5 55t54.5 23zM797 1782q32 0 56 -23t24 -55q0 -33 -23.5 -55.5t-56.5 -22.5t-55.5 22.5t-22.5 55.5q0 32 23 55t55 23zM1077 1505v-98h-786v-596h696v-96h-696v-617h803v-98h-908v1505
h891z" />
    <glyph glyph-name="Igrave" unicode="&#xcc;" horiz-adv-x="477" 
d="M35 1829l284 -227h-126l-306 227h148zM291 1505v-1505h-105v1505h105z" />
    <glyph glyph-name="Iacute" unicode="&#xcd;" horiz-adv-x="477" 
d="M580 1829l-308 -227h-125l283 227h150zM291 1505v-1505h-105v1505h105z" />
    <glyph glyph-name="Icircumflex" unicode="&#xce;" horiz-adv-x="477" 
d="M238 1880l292 -281h-108l-184 170l-187 -170h-108zM291 1505v-1505h-105v1505h105z" />
    <glyph glyph-name="Idieresis" unicode="&#xcf;" horiz-adv-x="477" 
d="M84 1782q34 0 57 -23t23 -55q0 -34 -23 -56t-57 -22q-33 0 -55.5 22.5t-22.5 55.5q0 32 23 55t55 23zM391 1782q32 0 56 -23t24 -55q0 -33 -23.5 -55.5t-56.5 -22.5t-55.5 22.5t-22.5 55.5q0 32 23 55t55 23zM291 1505v-1505h-105v1505h105z" />
    <glyph glyph-name="Eth" unicode="&#xd0;" horiz-adv-x="1533" 
d="M657 1505q376 0 585.5 -197.5t209.5 -553.5q0 -357 -209 -555.5t-586 -198.5h-432v731h-186v80h186v694h432zM655 98q330 0 511.5 172.5t181.5 483.5q0 309 -183 480t-510 171h-325v-594h258v-80h-258v-633h325z" />
    <glyph glyph-name="Ntilde" unicode="&#xd1;" horiz-adv-x="1478" 
d="M621 1862q40 0 73.5 -19t55.5 -46t43 -54.5t45.5 -46.5t52.5 -19q96 0 96 170h76q0 -124 -48.5 -186t-127.5 -62q-41 0 -74 19t-55.5 45.5t-42.5 53.5t-44.5 46t-52.5 19q-54 0 -75 -45t-21 -125h-78q0 125 49 187.5t128 62.5zM195 1532l993 -1282v1255h104v-1532h-8
l-993 1284v-1257h-105v1532h9z" />
    <glyph glyph-name="Ograve" unicode="&#xd2;" horiz-adv-x="1652" 
d="M623 1849l284 -227h-127l-305 227h148zM825 1532q159 0 297.5 -59t236.5 -162t154 -248t56 -311q0 -167 -56 -311.5t-154 -247.5t-236.5 -161.5t-297.5 -58.5q-160 0 -298 58.5t-236 161.5t-153.5 247.5t-55.5 311.5q0 222 95 400t265 279t383 101zM825 1434
q-184 0 -329.5 -88.5t-226.5 -244t-81 -349.5t81 -349.5t226.5 -243t329.5 -87.5q183 0 329 87.5t228 243t82 349.5q0 193 -82 349t-228 244.5t-329 88.5z" />
    <glyph glyph-name="Oacute" unicode="&#xd3;" horiz-adv-x="1652" 
d="M1167 1849l-307 -227h-125l283 227h149zM825 1532q159 0 297.5 -59t236.5 -162t154 -248t56 -311q0 -167 -56 -311.5t-154 -247.5t-236.5 -161.5t-297.5 -58.5q-160 0 -298 58.5t-236 161.5t-153.5 247.5t-55.5 311.5q0 222 95 400t265 279t383 101zM825 1434
q-184 0 -329.5 -88.5t-226.5 -244t-81 -349.5t81 -349.5t226.5 -243t329.5 -87.5q183 0 329 87.5t228 243t82 349.5q0 193 -82 349t-228 244.5t-329 88.5z" />
    <glyph glyph-name="Ocircumflex" unicode="&#xd4;" horiz-adv-x="1652" 
d="M825 1901l293 -281h-108l-185 170l-186 -170h-109zM825 1532q159 0 297.5 -59t236.5 -162t154 -248t56 -311q0 -167 -56 -311.5t-154 -247.5t-236.5 -161.5t-297.5 -58.5q-160 0 -298 58.5t-236 161.5t-153.5 247.5t-55.5 311.5q0 222 95 400t265 279t383 101zM825 1434
q-184 0 -329.5 -88.5t-226.5 -244t-81 -349.5t81 -349.5t226.5 -243t329.5 -87.5q183 0 329 87.5t228 243t82 349.5q0 193 -82 349t-228 244.5t-329 88.5z" />
    <glyph glyph-name="Otilde" unicode="&#xd5;" horiz-adv-x="1652" 
d="M692 1882q40 0 73.5 -19t56 -46t43 -54t45.5 -46t53 -19q96 0 96 170h76q0 -123 -49 -185.5t-128 -62.5q-41 0 -74 18.5t-55 45.5t-42 54t-44.5 45.5t-52.5 18.5q-54 0 -75 -45t-21 -125h-78q0 125 48.5 187.5t127.5 62.5zM825 1532q159 0 297.5 -59t236.5 -162t154 -248
t56 -311q0 -167 -56 -311.5t-154 -247.5t-236.5 -161.5t-297.5 -58.5q-160 0 -298 58.5t-236 161.5t-153.5 247.5t-55.5 311.5q0 222 95 400t265 279t383 101zM825 1434q-184 0 -329.5 -88.5t-226.5 -244t-81 -349.5t81 -349.5t226.5 -243t329.5 -87.5q183 0 329 87.5
t228 243t82 349.5q0 193 -82 349t-228 244.5t-329 88.5z" />
    <glyph glyph-name="Odieresis" unicode="&#xd6;" horiz-adv-x="1652" 
d="M672 1802q34 0 57 -23t23 -55q0 -33 -23 -55t-57 -22q-33 0 -55.5 22t-22.5 55q0 32 23 55t55 23zM979 1802q32 0 56 -23t24 -55q0 -33 -23.5 -55t-56.5 -22t-55.5 22t-22.5 55q0 32 23 55t55 23zM825 1532q159 0 297.5 -59t236.5 -162t154 -248t56 -311
q0 -167 -56 -311.5t-154 -247.5t-236.5 -161.5t-297.5 -58.5q-160 0 -298 58.5t-236 161.5t-153.5 247.5t-55.5 311.5q0 222 95 400t265 279t383 101zM825 1434q-184 0 -329.5 -88.5t-226.5 -244t-81 -349.5t81 -349.5t226.5 -243t329.5 -87.5q183 0 329 87.5t228 243
t82 349.5q0 193 -82 349t-228 244.5t-329 88.5z" />
    <glyph glyph-name="multiply" unicode="&#xd7;" horiz-adv-x="856" 
d="M684 1038l68 -65l-258 -256l258 -256l-68 -66l-254 256l-258 -256l-68 66l258 256l-256 256l68 65l256 -254z" />
    <glyph glyph-name="Oslash" unicode="&#xd8;" horiz-adv-x="1652" 
d="M1233 1415q157 -103 246.5 -276t89.5 -387q0 -167 -56 -311.5t-154 -247.5t-236.5 -161.5t-297.5 -58.5q-179 0 -336 74l-114 -211h-99l138 254q-156 103 -244 275.5t-88 386.5q0 222 95 400t265 279t383 101q178 0 332 -74l117 211h96zM188 752q0 -184 73 -332.5
t202 -237.5l647 1186q-135 66 -285 66q-184 0 -329.5 -88.5t-226.5 -244t-81 -349.5zM825 72q183 0 329 87.5t228 243t82 349.5q0 183 -74.5 332.5t-205.5 240.5l-645 -1188q133 -65 286 -65z" />
    <glyph glyph-name="Ugrave" unicode="&#xd9;" horiz-adv-x="1417" 
d="M506 1829l285 -227h-127l-306 227h148zM1251 1505v-985q0 -255 -140.5 -401t-401.5 -146q-262 0 -401.5 146t-139.5 401v985h104v-983q0 -210 112 -330t325 -120q212 0 325 120.5t113 329.5v983h104z" />
    <glyph glyph-name="Uacute" unicode="&#xda;" horiz-adv-x="1417" 
d="M1051 1829l-308 -227h-125l283 227h150zM1251 1505v-985q0 -255 -140.5 -401t-401.5 -146q-262 0 -401.5 146t-139.5 401v985h104v-983q0 -210 112 -330t325 -120q212 0 325 120.5t113 329.5v983h104z" />
    <glyph glyph-name="Ucircumflex" unicode="&#xdb;" horiz-adv-x="1417" 
d="M709 1880l292 -281h-108l-184 170l-187 -170h-108zM1251 1505v-985q0 -255 -140.5 -401t-401.5 -146q-262 0 -401.5 146t-139.5 401v985h104v-983q0 -210 112 -330t325 -120q212 0 325 120.5t113 329.5v983h104z" />
    <glyph glyph-name="Udieresis" unicode="&#xdc;" horiz-adv-x="1417" 
d="M555 1782q34 0 57 -23t23 -55q0 -34 -23 -56t-57 -22q-33 0 -55.5 22.5t-22.5 55.5q0 32 23 55t55 23zM862 1782q32 0 56 -23t24 -55q0 -33 -23.5 -55.5t-56.5 -22.5t-55.5 22.5t-22.5 55.5q0 32 23 55t55 23zM1251 1505v-985q0 -255 -140.5 -401t-401.5 -146
q-262 0 -401.5 146t-139.5 401v985h104v-983q0 -210 112 -330t325 -120q212 0 325 120.5t113 329.5v983h104z" />
    <glyph glyph-name="Yacute" unicode="&#xdd;" horiz-adv-x="1275" 
d="M979 1829l-307 -227h-125l282 227h150zM1255 1503l-565 -846v-657h-104v657l-566 846h123l494 -739l493 739h125z" />
    <glyph glyph-name="Thorn" unicode="&#xde;" horiz-adv-x="1079" 
d="M291 1505v-291h280q89 0 169.5 -26.5t142.5 -75.5t98.5 -125t36.5 -168t-36.5 -167.5t-98.5 -125t-142.5 -76t-169.5 -26.5h-280v-424h-105v1505h105zM565 1118h-274v-598h274q145 0 245.5 80t100.5 219t-100.5 219t-245.5 80z" />
    <glyph glyph-name="germandbls" unicode="&#xdf;" horiz-adv-x="1148" 
d="M582 1532q172 0 284.5 -111.5t112.5 -279.5q0 -121 -62 -201.5t-165 -118.5q58 -13 111.5 -41t104 -75t81 -122.5t30.5 -168.5q0 -197 -120.5 -319t-323.5 -122q-137 0 -229 60l34 92q45 -28 87 -41.5t106 -13.5q150 0 247 91.5t97 252.5q0 122 -66 206.5t-182 118.5
q-102 31 -203 31v78q52 0 88 8.5t86 28.5q174 74 174 250q0 136 -85 218.5t-205 82.5q-148 0 -231 -81t-83 -245v-1110h-104v1108q0 204 115 314t301 110z" />
    <glyph glyph-name="agrave" unicode="&#xe0;" horiz-adv-x="1161" 
d="M393 1423l287 -237h-121l-311 237h145zM545 1038q229 0 358 -164l2 144h94v-1018h-94l-2 147q-132 -167 -358 -167q-206 0 -336.5 149t-130.5 379q0 233 130.5 381.5t336.5 148.5zM557 946q-167 0 -273 -123t-106 -315t106 -314t273 -122q118 0 197.5 50t144.5 144v486
q-65 94 -144.5 144t-197.5 50z" />
    <glyph glyph-name="aacute" unicode="&#xe1;" horiz-adv-x="1161" 
d="M946 1423l-313 -237h-119l287 237h145zM545 1038q229 0 358 -164l2 144h94v-1018h-94l-2 147q-132 -167 -358 -167q-206 0 -336.5 149t-130.5 379q0 233 130.5 381.5t336.5 148.5zM557 946q-167 0 -273 -123t-106 -315t106 -314t273 -122q118 0 197.5 50t144.5 144v486
q-65 94 -144.5 144t-197.5 50z" />
    <glyph glyph-name="acircumflex" unicode="&#xe2;" horiz-adv-x="1161" 
d="M598 1479l291 -297h-107l-184 174l-182 -174h-109zM545 1038q229 0 358 -164l2 144h94v-1018h-94l-2 147q-132 -167 -358 -167q-206 0 -336.5 149t-130.5 379q0 233 130.5 381.5t336.5 148.5zM557 946q-167 0 -273 -123t-106 -315t106 -314t273 -122q118 0 197.5 50
t144.5 144v486q-65 94 -144.5 144t-197.5 50z" />
    <glyph glyph-name="atilde" unicode="&#xe3;" horiz-adv-x="1161" 
d="M467 1436q40 0 73.5 -19t55.5 -46t43 -54.5t45.5 -46.5t52.5 -19q97 0 97 170h75q0 -123 -48.5 -185t-127.5 -62q-41 0 -74 18.5t-55 45.5t-42 54t-44.5 45.5t-52.5 18.5q-54 0 -75 -45t-21 -125h-78q0 125 48.5 187.5t127.5 62.5zM545 1038q229 0 358 -164l2 144h94
v-1018h-94l-2 147q-132 -167 -358 -167q-206 0 -336.5 149t-130.5 379q0 233 130.5 381.5t336.5 148.5zM557 946q-167 0 -273 -123t-106 -315t106 -314t273 -122q118 0 197.5 50t144.5 144v486q-65 94 -144.5 144t-197.5 50z" />
    <glyph glyph-name="adieresis" unicode="&#xe4;" horiz-adv-x="1161" 
d="M444 1374q34 0 57 -23t23 -55q0 -33 -23 -55t-57 -22q-33 0 -55 22t-22 55q0 32 22.5 55t54.5 23zM752 1374q32 0 55.5 -23t23.5 -55q0 -33 -23 -55t-56 -22t-55.5 22t-22.5 55q0 32 23 55t55 23zM545 1038q229 0 358 -164l2 144h94v-1018h-94l-2 147
q-132 -167 -358 -167q-206 0 -336.5 149t-130.5 379q0 233 130.5 381.5t336.5 148.5zM557 946q-167 0 -273 -123t-106 -315t106 -314t273 -122q118 0 197.5 50t144.5 144v486q-65 94 -144.5 144t-197.5 50z" />
    <glyph glyph-name="aring" unicode="&#xe5;" horiz-adv-x="1161" 
d="M600 1567q85 0 142 -57t57 -142q0 -84 -57 -138t-142 -54t-142 54t-57 138q0 85 57 142t142 57zM600 1495q-54 0 -90.5 -36.5t-36.5 -90.5t36.5 -88.5t90.5 -34.5t90.5 34.5t36.5 88.5t-36.5 90.5t-90.5 36.5zM545 1038q229 0 358 -164l2 144h94v-1018h-94l-2 147
q-132 -167 -358 -167q-206 0 -336.5 149t-130.5 379q0 233 130.5 381.5t336.5 148.5zM557 946q-167 0 -273 -123t-106 -315t106 -314t273 -122q118 0 197.5 50t144.5 144v486q-65 94 -144.5 144t-197.5 50z" />
    <glyph glyph-name="ae" unicode="&#xe6;" horiz-adv-x="1921" 
d="M1389 1038q142 0 247.5 -68t159 -185t53.5 -267v-45h-837q6 -186 111 -294.5t296 -108.5q117 0 204 43.5t140 111.5l70 -57q-151 -188 -414 -188q-151 0 -259.5 60.5t-162.5 166.5l-2 -207h-90l-2 147q-132 -167 -358 -167q-206 0 -336.5 149t-130.5 379
q0 233 130.5 381.5t336.5 148.5q229 0 358 -164l2 144h90l4 -211q57 108 157 169.5t233 61.5zM1386 948q-159 0 -262.5 -105.5t-113.5 -281.5h741q-6 173 -103.5 280t-261.5 107zM557 946q-167 0 -273 -123t-106 -315t106 -314t273 -122q118 0 197.5 50t144.5 144v486
q-65 94 -144.5 144t-197.5 50z" />
    <glyph glyph-name="ccedilla" unicode="&#xe7;" horiz-adv-x="1021" 
d="M575 -20h-20l-25 -91q82 -5 138.5 -51t56.5 -129q0 -87 -55 -133.5t-142 -46.5q-116 0 -192 76l45 57q68 -61 145 -61q121 0 121 108q0 86 -100 109q-39 9 -96 6l-7 6l41 156q-191 30 -299 172t-108 352q0 235 131.5 381.5t361.5 146.5q252 0 398 -213l-72 -55
q-117 178 -326 178q-187 0 -290 -121.5t-103 -316.5q0 -196 105 -317t292 -121q113 0 196.5 50.5t135.5 127.5l72 -57q-146 -213 -404 -213z" />
    <glyph glyph-name="egrave" unicode="&#xe8;" horiz-adv-x="1081" 
d="M350 1423l287 -237h-121l-311 237h145zM553 1038q143 0 248 -69t158 -185t53 -264v-47h-834q6 -185 111.5 -294t292.5 -109q114 0 201 45.5t135 115.5l71 -55q-140 -196 -407 -196q-235 0 -369.5 146.5t-134.5 381.5q0 232 132 381t343 149zM553 948q-160 0 -263 -107.5
t-112 -279.5h735q-6 173 -102 280t-258 107z" />
    <glyph glyph-name="eacute" unicode="&#xe9;" horiz-adv-x="1081" 
d="M905 1423l-313 -237h-119l287 237h145zM553 1038q143 0 248 -69t158 -185t53 -264v-47h-834q6 -185 111.5 -294t292.5 -109q114 0 201 45.5t135 115.5l71 -55q-140 -196 -407 -196q-235 0 -369.5 146.5t-134.5 381.5q0 232 132 381t343 149zM553 948q-160 0 -263 -107.5
t-112 -279.5h735q-6 173 -102 280t-258 107z" />
    <glyph glyph-name="ecircumflex" unicode="&#xea;" horiz-adv-x="1081" 
d="M555 1479l291 -297h-107l-184 174l-182 -174h-109zM553 1038q143 0 248 -69t158 -185t53 -264v-47h-834q6 -185 111.5 -294t292.5 -109q114 0 201 45.5t135 115.5l71 -55q-140 -196 -407 -196q-235 0 -369.5 146.5t-134.5 381.5q0 232 132 381t343 149zM553 948
q-160 0 -263 -107.5t-112 -279.5h735q-6 173 -102 280t-258 107z" />
    <glyph glyph-name="edieresis" unicode="&#xeb;" horiz-adv-x="1081" 
d="M401 1374q34 0 57 -23t23 -55q0 -33 -23 -55t-57 -22q-33 0 -55 22t-22 55q0 32 22.5 55t54.5 23zM709 1374q32 0 55.5 -23t23.5 -55q0 -33 -23 -55t-56 -22t-55.5 22t-22.5 55q0 32 23 55t55 23zM553 1038q143 0 248 -69t158 -185t53 -264v-47h-834q6 -185 111.5 -294
t292.5 -109q114 0 201 45.5t135 115.5l71 -55q-140 -196 -407 -196q-235 0 -369.5 146.5t-134.5 381.5q0 232 132 381t343 149zM553 948q-160 0 -263 -107.5t-112 -279.5h735q-6 173 -102 280t-258 107z" />
    <glyph glyph-name="igrave" unicode="&#xec;" horiz-adv-x="456" 
d="M20 1423l287 -237h-119l-313 237h145zM260 1018v-1018h-98v1018h98z" />
    <glyph glyph-name="iacute" unicode="&#xed;" horiz-adv-x="456" 
d="M575 1423l-313 -237h-119l287 237h145zM260 1018v-1018h-98v1018h98z" />
    <glyph glyph-name="icircumflex" unicode="&#xee;" horiz-adv-x="421" 
d="M209 1479l291 -297h-107l-184 174l-182 -174h-109zM260 1018v-1018h-98v1018h98z" />
    <glyph glyph-name="idieresis" unicode="&#xef;" horiz-adv-x="456" 
d="M74 1374q34 0 57 -23t23 -55q0 -33 -23 -55t-57 -22q-32 0 -54 21.5t-22 55.5q0 32 22 55t54 23zM381 1374q34 0 57 -23t23 -55q0 -33 -23 -55t-57 -22q-33 0 -55.5 22t-22.5 55q0 32 23 55t55 23zM260 1018v-1018h-98v1018h98z" />
    <glyph glyph-name="eth" unicode="&#xf0;" horiz-adv-x="1124" 
d="M958 795q99 -133 99 -312q0 -219 -140 -361t-354 -142q-215 0 -353 141.5t-138 361.5q0 219 138.5 362.5t352.5 143.5q78 0 142 -20l-185 248h-342v81h281l-193 258h123l193 -258h346v-81h-285zM563 68q170 0 281.5 117.5t111.5 297.5t-111.5 299t-281.5 119t-281.5 -119
t-111.5 -299t111.5 -297.5t281.5 -117.5z" />
    <glyph glyph-name="ntilde" unicode="&#xf1;" horiz-adv-x="1150" 
d="M449 1436q40 0 73.5 -19t55.5 -46t43 -54.5t45.5 -46.5t52.5 -19q96 0 96 170h76q0 -123 -48.5 -185t-127.5 -62q-41 0 -74 18.5t-55.5 45.5t-42.5 54t-44.5 45.5t-52.5 18.5q-54 0 -75 -45t-21 -125h-78q0 125 49 187.5t128 62.5zM614 1038q180 0 283.5 -116t103.5 -306
v-616h-98v610q0 148 -84 240t-221 92q-105 0 -183.5 -48.5t-154.5 -143.5v-750h-98v1018h92l4 -148q58 70 147.5 119t208.5 49z" />
    <glyph glyph-name="ograve" unicode="&#xf2;" horiz-adv-x="1171" 
d="M379 1423l287 -237h-121l-312 237h146zM586 1038q220 0 364 -150.5t144 -379.5q0 -230 -144 -379t-364 -149q-221 0 -364.5 149t-143.5 379q0 229 143.5 379.5t364.5 150.5zM586 946q-178 0 -293 -124t-115 -314q0 -191 115 -313.5t293 -122.5q177 0 292 123t115 313
q0 189 -115 313.5t-292 124.5z" />
    <glyph glyph-name="oacute" unicode="&#xf3;" horiz-adv-x="1171" 
d="M934 1423l-313 -237h-119l286 237h146zM586 1038q220 0 364 -150.5t144 -379.5q0 -230 -144 -379t-364 -149q-221 0 -364.5 149t-143.5 379q0 229 143.5 379.5t364.5 150.5zM586 946q-178 0 -293 -124t-115 -314q0 -191 115 -313.5t293 -122.5q177 0 292 123t115 313
q0 189 -115 313.5t-292 124.5z" />
    <glyph glyph-name="ocircumflex" unicode="&#xf4;" horiz-adv-x="1171" 
d="M584 1479l290 -297h-106l-184 174l-183 -174h-108zM586 1038q220 0 364 -150.5t144 -379.5q0 -230 -144 -379t-364 -149q-221 0 -364.5 149t-143.5 379q0 229 143.5 379.5t364.5 150.5zM586 946q-178 0 -293 -124t-115 -314q0 -191 115 -313.5t293 -122.5q177 0 292 123
t115 313q0 189 -115 313.5t-292 124.5z" />
    <glyph glyph-name="otilde" unicode="&#xf5;" horiz-adv-x="1171" 
d="M453 1436q40 0 73.5 -19t55.5 -46t43 -54.5t45.5 -46.5t52.5 -19q96 0 96 170h76q0 -123 -48.5 -185t-127.5 -62q-41 0 -74 18.5t-55 45.5t-42 54t-44.5 45.5t-52.5 18.5q-97 0 -97 -170h-78q0 125 49 187.5t128 62.5zM586 1038q220 0 364 -150.5t144 -379.5
q0 -230 -144 -379t-364 -149q-221 0 -364.5 149t-143.5 379q0 229 143.5 379.5t364.5 150.5zM586 946q-178 0 -293 -124t-115 -314q0 -191 115 -313.5t293 -122.5q177 0 292 123t115 313q0 189 -115 313.5t-292 124.5z" />
    <glyph glyph-name="odieresis" unicode="&#xf6;" horiz-adv-x="1171" 
d="M432 1374q34 0 57 -23t23 -55q0 -33 -23 -55t-57 -22q-33 0 -55.5 22t-22.5 55q0 32 23 55t55 23zM739 1374q32 0 56 -23t24 -55q0 -33 -23.5 -55t-56.5 -22t-55 22t-22 55q0 32 22.5 55t54.5 23zM586 1038q220 0 364 -150.5t144 -379.5q0 -230 -144 -379t-364 -149
q-221 0 -364.5 149t-143.5 379q0 229 143.5 379.5t364.5 150.5zM586 946q-178 0 -293 -124t-115 -314q0 -191 115 -313.5t293 -122.5q177 0 292 123t115 313q0 189 -115 313.5t-292 124.5z" />
    <glyph glyph-name="divide" unicode="&#xf7;" horiz-adv-x="940" 
d="M469 1155q36 0 60 -24t24 -60q0 -35 -24.5 -58.5t-59.5 -23.5t-58.5 23.5t-23.5 58.5t23.5 59.5t58.5 24.5zM850 764v-94h-762v94h762zM469 444q36 0 60 -24t24 -60q0 -35 -24 -58t-60 -23q-35 0 -58.5 23t-23.5 58t23.5 59.5t58.5 24.5z" />
    <glyph glyph-name="oslash" unicode="&#xf8;" horiz-adv-x="1171" 
d="M870 954q104 -70 164 -186.5t60 -259.5q0 -230 -144 -379t-364 -149q-119 0 -217 45l-93 -168h-83l110 204q-105 68 -165 185t-60 262q0 229 143.5 379.5t364.5 150.5q121 0 221 -47l92 170h84zM174 508q0 -116 46.5 -211.5t127.5 -155.5l416 770q-83 39 -178 39
q-179 0 -295.5 -125.5t-116.5 -316.5zM586 68q178 0 293.5 124t115.5 316q0 116 -45 210.5t-125 153.5l-413 -768q80 -36 174 -36z" />
    <glyph glyph-name="ugrave" unicode="&#xf9;" horiz-adv-x="1126" 
d="M367 1423l286 -237h-121l-311 237h146zM965 1018v-1018h-95l-2 145q-140 -165 -358 -165q-167 0 -263.5 113.5t-96.5 301.5v623h100v-619q0 -145 75.5 -234t200.5 -89q112 0 188.5 47.5t149.5 142.5v752h101z" />
    <glyph glyph-name="uacute" unicode="&#xfa;" horiz-adv-x="1126" 
d="M920 1423l-314 -237h-119l287 237h146zM965 1018v-1018h-95l-2 145q-140 -165 -358 -165q-167 0 -263.5 113.5t-96.5 301.5v623h100v-619q0 -145 75.5 -234t200.5 -89q112 0 188.5 47.5t149.5 142.5v752h101z" />
    <glyph glyph-name="ucircumflex" unicode="&#xfb;" horiz-adv-x="1126" 
d="M571 1479l291 -297h-106l-185 174l-182 -174h-108zM965 1018v-1018h-95l-2 145q-140 -165 -358 -165q-167 0 -263.5 113.5t-96.5 301.5v623h100v-619q0 -145 75.5 -234t200.5 -89q112 0 188.5 47.5t149.5 142.5v752h101z" />
    <glyph glyph-name="udieresis" unicode="&#xfc;" horiz-adv-x="1126" 
d="M418 1374q34 0 57 -23t23 -55q0 -33 -23 -55t-57 -22q-33 0 -55.5 22t-22.5 55q0 32 23 55t55 23zM725 1374q32 0 56 -23t24 -55q0 -33 -23.5 -55t-56.5 -22t-55.5 22t-22.5 55q0 32 23 55t55 23zM965 1018v-1018h-95l-2 145q-140 -165 -358 -165q-167 0 -263.5 113.5
t-96.5 301.5v623h100v-619q0 -145 75.5 -234t200.5 -89q112 0 188.5 47.5t149.5 142.5v752h101z" />
    <glyph glyph-name="yacute" unicode="&#xfd;" horiz-adv-x="1062" 
d="M874 1423l-313 -237h-119l287 237h145zM1024 1018l-696 -1489h-113l262 545l-438 944h104l387 -842l390 842h104z" />
    <glyph glyph-name="thorn" unicode="&#xfe;" horiz-adv-x="1183" 
d="M268 1556v-679q130 161 363 161q209 0 342 -148.5t133 -379.5t-133 -380.5t-342 -149.5q-235 0 -363 159v-610h-100v2027h100zM618 946q-120 0 -203 -50.5t-147 -143.5v-486q64 -93 147 -143.5t203 -50.5q169 0 278.5 123t109.5 315q0 191 -109.5 313.5t-278.5 122.5z
" />
    <glyph glyph-name="ydieresis" unicode="&#xff;" horiz-adv-x="1062" 
d="M373 1374q34 0 57 -23t23 -55q0 -33 -23 -55t-57 -22q-33 0 -55.5 22t-22.5 55q0 32 23 55t55 23zM680 1374q32 0 56 -23t24 -55q0 -33 -23.5 -55t-56.5 -22t-55.5 22t-22.5 55q0 32 23 55t55 23zM1024 1018l-696 -1489h-113l262 545l-438 944h104l387 -842l390 842h104z
" />
    <glyph glyph-name="Amacron" unicode="&#x100;" horiz-adv-x="1374" 
d="M936 1720v-80h-502v80h502zM690 1532l658 -1532h-113l-168 397h-762l-166 -397h-112l655 1532h8zM686 1294l-338 -802h678z" />
    <glyph glyph-name="amacron" unicode="&#x101;" horiz-adv-x="1161" 
d="M848 1311v-80h-502v80h502zM545 1038q229 0 358 -164l2 144h94v-1018h-94l-2 147q-132 -167 -358 -167q-206 0 -336.5 149t-130.5 379q0 233 130.5 381.5t336.5 148.5zM557 946q-167 0 -273 -123t-106 -315t106 -314t273 -122q118 0 197.5 50t144.5 144v486
q-65 94 -144.5 144t-197.5 50z" />
    <glyph glyph-name="Abreve" unicode="&#x102;" horiz-adv-x="1374" 
d="M971 1870q0 -115 -81.5 -191.5t-203.5 -76.5q-123 0 -205 76.5t-82 191.5h80q0 -80 59 -133.5t148 -53.5t147 53.5t58 133.5h80zM690 1532l658 -1532h-113l-168 397h-762l-166 -397h-112l655 1532h8zM686 1294l-338 -802h678z" />
    <glyph glyph-name="abreve" unicode="&#x103;" horiz-adv-x="1161" 
d="M883 1458q0 -117 -81.5 -194.5t-203.5 -77.5q-123 0 -205 77.5t-82 194.5h82q0 -83 57.5 -135.5t147.5 -52.5q88 0 146.5 52.5t58.5 135.5h80zM545 1038q229 0 358 -164l2 144h94v-1018h-94l-2 147q-132 -167 -358 -167q-206 0 -336.5 149t-130.5 379q0 233 130.5 381.5
t336.5 148.5zM557 946q-167 0 -273 -123t-106 -315t106 -314t273 -122q118 0 197.5 50t144.5 144v486q-65 94 -144.5 144t-197.5 50z" />
    <glyph glyph-name="Aogonek" unicode="&#x104;" horiz-adv-x="1374" 
d="M1413 -387l23 -70q-35 -14 -95 -14q-108 0 -176.5 66t-68.5 174q0 159 131 251l-160 377h-762l-166 -397h-112l655 1532h8l658 -1532h-25q-149 -80 -149 -231q0 -79 48 -123.5t121 -44.5q43 0 70 12zM348 492h678l-340 802z" />
    <glyph glyph-name="aogonek" unicode="&#x105;" horiz-adv-x="1161" 
d="M1079 -387l23 -70q-35 -14 -94 -14q-108 0 -177 66t-69 174q0 165 143 262l-2 116q-132 -167 -358 -167q-206 0 -336.5 149t-130.5 379q0 233 130.5 381.5t336.5 148.5q229 0 358 -164l2 144h94v-1018h-10q-149 -80 -149 -231q0 -79 48 -123.5t122 -44.5q42 0 69 12z
M899 266v486q-65 94 -144.5 144t-197.5 50q-167 0 -273 -123t-106 -315t106 -314t273 -122q118 0 197.5 50t144.5 144z" />
    <glyph glyph-name="Cacute" unicode="&#x106;" horiz-adv-x="1406" 
d="M1153 1849l-307 -227h-125l283 227h149zM823 1532q312 0 523 -211l-68 -78q-87 90 -203.5 140.5t-251.5 50.5q-184 0 -329 -88.5t-225.5 -244t-80.5 -349.5t80.5 -349.5t225.5 -243t329 -87.5q143 0 262.5 53.5t206.5 150.5l68 -79q-209 -224 -537 -224
q-213 0 -382.5 100.5t-264 278.5t-94.5 400t94.5 400t264 279t382.5 101z" />
    <glyph glyph-name="cacute" unicode="&#x107;" horiz-adv-x="1021" 
d="M920 1423l-314 -237h-119l287 237h146zM571 1038q252 0 398 -213l-72 -55q-117 178 -326 178q-187 0 -290 -121.5t-103 -316.5q0 -196 105 -317t292 -121q113 0 196.5 50.5t135.5 127.5l72 -57q-146 -213 -404 -213q-230 0 -363.5 147.5t-133.5 382.5t131.5 381.5
t361.5 146.5z" />
    <glyph glyph-name="Ccircumflex" unicode="&#x108;" horiz-adv-x="1406" 
d="M811 1901l293 -281h-109l-184 170l-186 -170h-109zM823 1532q312 0 523 -211l-68 -78q-87 90 -203.5 140.5t-251.5 50.5q-184 0 -329 -88.5t-225.5 -244t-80.5 -349.5t80.5 -349.5t225.5 -243t329 -87.5q143 0 262.5 53.5t206.5 150.5l68 -79q-209 -224 -537 -224
q-213 0 -382.5 100.5t-264 278.5t-94.5 400t94.5 400t264 279t382.5 101z" />
    <glyph glyph-name="ccircumflex" unicode="&#x109;" horiz-adv-x="1021" 
d="M569 1479l291 -297h-106l-185 174l-182 -174h-108zM571 1038q252 0 398 -213l-72 -55q-117 178 -326 178q-187 0 -290 -121.5t-103 -316.5q0 -196 105 -317t292 -121q113 0 196.5 50.5t135.5 127.5l72 -57q-146 -213 -404 -213q-230 0 -363.5 147.5t-133.5 382.5
t131.5 381.5t361.5 146.5z" />
    <glyph glyph-name="Cdotaccent" unicode="&#x10a;" horiz-adv-x="1406" 
d="M813 1786q33 0 56.5 -23.5t23.5 -56.5q0 -32 -24 -55t-56 -23q-33 0 -55.5 22.5t-22.5 55.5q0 34 22 57t56 23zM823 1532q312 0 523 -211l-68 -78q-87 90 -203.5 140.5t-251.5 50.5q-184 0 -329 -88.5t-225.5 -244t-80.5 -349.5t80.5 -349.5t225.5 -243t329 -87.5
q143 0 262.5 53.5t206.5 150.5l68 -79q-209 -224 -537 -224q-213 0 -382.5 100.5t-264 278.5t-94.5 400t94.5 400t264 279t382.5 101z" />
    <glyph glyph-name="cdotaccent" unicode="&#x10b;" horiz-adv-x="1021" 
d="M571 1413q33 0 56.5 -23.5t23.5 -56.5q0 -34 -23 -56t-57 -22q-33 0 -55 22.5t-22 55.5t22.5 56.5t54.5 23.5zM571 1038q252 0 398 -213l-72 -55q-117 178 -326 178q-187 0 -290 -121.5t-103 -316.5q0 -196 105 -317t292 -121q113 0 196.5 50.5t135.5 127.5l72 -57
q-146 -213 -404 -213q-230 0 -363.5 147.5t-133.5 382.5t131.5 381.5t361.5 146.5z" />
    <glyph glyph-name="Ccaron" unicode="&#x10c;" horiz-adv-x="1406" 
d="M1108 1884l-293 -280l-295 280h109l186 -170l184 170h109zM823 1532q312 0 523 -211l-68 -78q-87 90 -203.5 140.5t-251.5 50.5q-184 0 -329 -88.5t-225.5 -244t-80.5 -349.5t80.5 -349.5t225.5 -243t329 -87.5q143 0 262.5 53.5t206.5 150.5l68 -79q-209 -224 -537 -224
q-213 0 -382.5 100.5t-264 278.5t-94.5 400t94.5 400t264 279t382.5 101z" />
    <glyph glyph-name="ccaron" unicode="&#x10d;" horiz-adv-x="1021" 
d="M860 1468l-291 -294l-290 294h108l182 -172l185 172h106zM571 1038q252 0 398 -213l-72 -55q-117 178 -326 178q-187 0 -290 -121.5t-103 -316.5q0 -196 105 -317t292 -121q113 0 196.5 50.5t135.5 127.5l72 -57q-146 -213 -404 -213q-230 0 -363.5 147.5t-133.5 382.5
t131.5 381.5t361.5 146.5z" />
    <glyph glyph-name="Dcaron" unicode="&#x10e;" horiz-adv-x="1495" 
d="M991 1864l-293 -281l-295 281h109l186 -170l185 170h108zM616 1505q376 0 585.5 -197.5t209.5 -553.5q0 -357 -209 -555.5t-586 -198.5h-430v1505h430zM614 1405h-323v-1307h323q331 0 512 172.5t181 483.5q0 309 -182 480t-511 171z" />
    <glyph glyph-name="dcaron" unicode="&#x10f;" horiz-adv-x="1183" 
d="M1016 1556v-1556h-94l-2 147q-132 -167 -367 -167q-208 0 -341.5 149t-133.5 379q0 232 133 381t342 149q234 0 362 -159v677h101zM1202 1556q38 0 60 -25.5t22 -66.5q0 -46 -16 -82l-86 -225h-8v395q8 4 28 4zM565 946q-169 0 -278 -123t-109 -315t109 -314t278 -122
q120 0 203 50.5t147 143.5v486q-64 93 -147 143.5t-203 50.5z" />
    <glyph glyph-name="Dcroat" unicode="&#x110;" horiz-adv-x="1533" 
d="M657 1505q376 0 585.5 -197.5t209.5 -553.5q0 -357 -209 -555.5t-586 -198.5h-432v731h-186v80h186v694h432zM655 98q330 0 511.5 172.5t181.5 483.5q0 309 -183 480t-510 171h-325v-594h258v-80h-258v-633h325z" />
    <glyph glyph-name="dcroat" unicode="&#x111;" horiz-adv-x="1183" 
d="M1194 1288v-80h-178v-1208h-94l-2 147q-132 -167 -367 -167q-208 0 -341.5 149t-133.5 379q0 232 133 381t342 149q234 0 362 -159v329h-272v80h272v268h101v-268h178zM915 266v486q-64 93 -147 143.5t-203 50.5q-169 0 -278 -123t-109 -315t109 -314t278 -122
q120 0 203 50.5t147 143.5z" />
    <glyph glyph-name="Emacron" unicode="&#x112;" horiz-adv-x="1175" 
d="M893 1720v-80h-502v80h502zM1077 1505v-98h-786v-596h696v-96h-696v-617h803v-98h-908v1505h891z" />
    <glyph glyph-name="emacron" unicode="&#x113;" horiz-adv-x="1081" 
d="M807 1311v-80h-502v80h502zM553 1038q143 0 248 -69t158 -185t53 -264v-47h-834q6 -185 111.5 -294t292.5 -109q114 0 201 45.5t135 115.5l71 -55q-140 -196 -407 -196q-235 0 -369.5 146.5t-134.5 381.5q0 232 132 381t343 149zM553 948q-160 0 -263 -107.5t-112 -279.5
h735q-6 173 -102 280t-258 107z" />
    <glyph glyph-name="Ebreve" unicode="&#x114;" horiz-adv-x="1175" 
d="M928 1870q0 -115 -81.5 -191.5t-203.5 -76.5q-123 0 -205 76.5t-82 191.5h80q0 -80 59 -133.5t148 -53.5t147 53.5t58 133.5h80zM1077 1505v-98h-786v-596h696v-96h-696v-617h803v-98h-908v1505h891z" />
    <glyph glyph-name="ebreve" unicode="&#x115;" horiz-adv-x="1081" 
d="M842 1458q0 -117 -81.5 -194.5t-203.5 -77.5q-123 0 -205 77.5t-82 194.5h82q0 -83 57.5 -135.5t147.5 -52.5q88 0 146.5 52.5t58.5 135.5h80zM553 1038q143 0 248 -69t158 -185t53 -264v-47h-834q6 -185 111.5 -294t292.5 -109q114 0 201 45.5t135 115.5l71 -55
q-140 -196 -407 -196q-235 0 -369.5 146.5t-134.5 381.5q0 232 132 381t343 149zM553 948q-160 0 -263 -107.5t-112 -279.5h735q-6 173 -102 280t-258 107z" />
    <glyph glyph-name="Edotaccent" unicode="&#x116;" horiz-adv-x="1175" 
d="M643 1765q33 0 56.5 -23t23.5 -56q0 -32 -24 -55t-56 -23q-33 0 -55.5 22.5t-22.5 55.5q0 34 22 56.5t56 22.5zM1077 1505v-98h-786v-596h696v-96h-696v-617h803v-98h-908v1505h891z" />
    <glyph glyph-name="edotaccent" unicode="&#x117;" horiz-adv-x="1081" 
d="M555 1413q33 0 56.5 -23.5t23.5 -56.5q0 -34 -23 -56t-57 -22q-33 0 -55.5 22.5t-22.5 55.5q0 32 23 56t55 24zM553 1038q143 0 248 -69t158 -185t53 -264v-47h-834q6 -185 111.5 -294t292.5 -109q114 0 201 45.5t135 115.5l71 -55q-140 -196 -407 -196
q-235 0 -369.5 146.5t-134.5 381.5q0 232 132 381t343 149zM553 948q-160 0 -263 -107.5t-112 -279.5h735q-6 173 -102 280t-258 107z" />
    <glyph glyph-name="Eogonek" unicode="&#x118;" horiz-adv-x="1175" 
d="M975 0q-150 -80 -150 -231q0 -79 48 -123.5t122 -44.5q43 0 70 12l22 -70q-35 -14 -94 -14q-108 0 -176.5 66t-68.5 174q0 144 104 231h-666v1505h891v-98h-786v-596h696v-96h-696v-617h803v-98h-119z" />
    <glyph glyph-name="eogonek" unicode="&#x119;" horiz-adv-x="1081" 
d="M1012 520v-47h-834q6 -185 111.5 -294t292.5 -109q114 0 201 45.5t135 115.5l71 -55q-64 -90 -166 -143q-149 -80 -149 -232q0 -79 48 -123.5t122 -44.5q40 0 69 13l23 -70q-35 -14 -94 -14q-108 0 -177 65.5t-69 173.5q0 111 57 183q-46 -4 -71 -4q-235 0 -369.5 146.5
t-134.5 381.5q0 232 132 381t343 149q143 0 248 -69t158 -185t53 -264zM178 561h735q-6 173 -102 280t-258 107q-160 0 -263 -107.5t-112 -279.5z" />
    <glyph glyph-name="Ecaron" unicode="&#x11a;" horiz-adv-x="1175" 
d="M938 1864l-293 -281l-295 281h109l186 -170l184 170h109zM1077 1505v-98h-786v-596h696v-96h-696v-617h803v-98h-908v1505h891z" />
    <glyph glyph-name="ecaron" unicode="&#x11b;" horiz-adv-x="1081" 
d="M846 1468l-291 -294l-291 294h109l182 -172l184 172h107zM553 1038q143 0 248 -69t158 -185t53 -264v-47h-834q6 -185 111.5 -294t292.5 -109q114 0 201 45.5t135 115.5l71 -55q-140 -196 -407 -196q-235 0 -369.5 146.5t-134.5 381.5q0 232 132 381t343 149zM553 948
q-160 0 -263 -107.5t-112 -279.5h735q-6 173 -102 280t-258 107z" />
    <glyph glyph-name="Gcircumflex" unicode="&#x11c;" horiz-adv-x="1505" 
d="M815 1901l293 -281h-109l-184 170l-186 -170h-109zM823 1532q312 0 523 -211l-68 -78q-87 90 -203.5 140.5t-251.5 50.5q-184 0 -329 -88.5t-225.5 -244t-80.5 -349.5q0 -146 49 -272t134.5 -215.5t208.5 -141t266 -51.5q257 0 432 139v432h-442v94h546v-577
q-206 -187 -536 -187q-220 0 -394.5 100.5t-272 278.5t-97.5 400t94.5 400t264 279t382.5 101z" />
    <glyph glyph-name="gcircumflex" unicode="&#x11d;" horiz-adv-x="1177" 
d="M567 1479l291 -297h-106l-185 174l-182 -174h-109zM553 1038q238 0 367 -164l2 144h94v-1008q0 -231 -132 -366.5t-349 -135.5q-138 0 -248.5 54.5t-186.5 152.5l68 64q144 -178 367 -178q173 0 276.5 109.5t103.5 297.5v135q-128 -163 -362 -163q-208 0 -341.5 149
t-133.5 379q0 232 133 381t342 149zM565 946q-169 0 -278 -123t-109 -315t109 -314t278 -122q120 0 203 50.5t147 143.5v486q-64 93 -147 143.5t-203 50.5z" />
    <glyph glyph-name="Gbreve" unicode="&#x11e;" horiz-adv-x="1505" 
d="M1100 1890q0 -115 -81.5 -191.5t-203.5 -76.5q-123 0 -205 76.5t-82 191.5h80q0 -80 59 -133t148 -53t147 53t58 133h80zM823 1532q312 0 523 -211l-68 -78q-87 90 -203.5 140.5t-251.5 50.5q-184 0 -329 -88.5t-225.5 -244t-80.5 -349.5q0 -146 49 -272t134.5 -215.5
t208.5 -141t266 -51.5q257 0 432 139v432h-442v94h546v-577q-206 -187 -536 -187q-220 0 -394.5 100.5t-272 278.5t-97.5 400t94.5 400t264 279t382.5 101z" />
    <glyph glyph-name="gbreve" unicode="&#x11f;" horiz-adv-x="1177" 
d="M852 1458q0 -117 -81.5 -194.5t-203.5 -77.5q-123 0 -204.5 77.5t-81.5 194.5h81q0 -83 57.5 -135.5t147.5 -52.5q88 0 146.5 52.5t58.5 135.5h80zM553 1038q238 0 367 -164l2 144h94v-1008q0 -231 -132 -366.5t-349 -135.5q-138 0 -248.5 54.5t-186.5 152.5l68 64
q144 -178 367 -178q173 0 276.5 109.5t103.5 297.5v135q-128 -163 -362 -163q-208 0 -341.5 149t-133.5 379q0 232 133 381t342 149zM565 946q-169 0 -278 -123t-109 -315t109 -314t278 -122q120 0 203 50.5t147 143.5v486q-64 93 -147 143.5t-203 50.5z" />
    <glyph glyph-name="Gdotaccent" unicode="&#x120;" horiz-adv-x="1505" 
d="M815 1786q33 0 56.5 -23.5t23.5 -56.5q0 -32 -24 -55t-56 -23q-33 0 -55.5 22.5t-22.5 55.5q0 34 22 57t56 23zM823 1532q312 0 523 -211l-68 -78q-87 90 -203.5 140.5t-251.5 50.5q-184 0 -329 -88.5t-225.5 -244t-80.5 -349.5q0 -146 49 -272t134.5 -215.5t208.5 -141
t266 -51.5q257 0 432 139v432h-442v94h546v-577q-206 -187 -536 -187q-220 0 -394.5 100.5t-272 278.5t-97.5 400t94.5 400t264 279t382.5 101z" />
    <glyph glyph-name="gdotaccent" unicode="&#x121;" horiz-adv-x="1177" 
d="M567 1413q33 0 56.5 -23.5t23.5 -56.5q0 -34 -23 -56t-57 -22q-33 0 -55.5 22.5t-22.5 55.5q0 32 23 56t55 24zM553 1038q238 0 367 -164l2 144h94v-1008q0 -231 -132 -366.5t-349 -135.5q-138 0 -248.5 54.5t-186.5 152.5l68 64q144 -178 367 -178q173 0 276.5 109.5
t103.5 297.5v135q-128 -163 -362 -163q-208 0 -341.5 149t-133.5 379q0 232 133 381t342 149zM565 946q-169 0 -278 -123t-109 -315t109 -314t278 -122q120 0 203 50.5t147 143.5v486q-64 93 -147 143.5t-203 50.5z" />
    <glyph glyph-name="Gcommaaccent" unicode="&#x122;" horiz-adv-x="1505" 
d="M823 1532q312 0 523 -211l-68 -78q-87 90 -203.5 140.5t-251.5 50.5q-184 0 -329 -88.5t-225.5 -244t-80.5 -349.5q0 -146 49 -272t134.5 -215.5t208.5 -141t266 -51.5q257 0 432 139v432h-442v94h546v-577q-206 -187 -536 -187q-220 0 -394.5 100.5t-272 278.5
t-97.5 400t94.5 400t264 279t382.5 101zM786 -117q42 0 69.5 -24.5t27.5 -65.5q0 -32 -17 -55l-100 -207h-8v348q8 4 28 4z" />
    <glyph glyph-name="gcommaaccent" unicode="&#x123;" horiz-adv-x="1177" 
d="M614 1149q-42 0 -69 24.5t-27 65.5q0 32 17 55l100 207h8v-348q-8 -4 -29 -4zM553 1038q238 0 367 -164l2 144h94v-1008q0 -231 -132 -366.5t-349 -135.5q-138 0 -248.5 54.5t-186.5 152.5l68 64q144 -178 367 -178q173 0 276.5 109.5t103.5 297.5v135
q-128 -163 -362 -163q-208 0 -341.5 149t-133.5 379q0 232 133 381t342 149zM565 946q-169 0 -278 -123t-109 -315t109 -314t278 -122q120 0 203 50.5t147 143.5v486q-64 93 -147 143.5t-203 50.5z" />
    <glyph glyph-name="Hcircumflex" unicode="&#x124;" horiz-adv-x="1466" 
d="M733 1880l293 -281h-108l-185 170l-186 -170h-109zM1280 1505v-1505h-104v719h-885v-719h-105v1505h105v-686h885v686h104z" />
    <glyph glyph-name="hcircumflex" unicode="&#x125;" horiz-adv-x="1157" 
d="M229 1917l293 -281h-108l-185 170l-184 -170h-108zM268 1556v-682q143 164 353 164q180 0 283.5 -116t103.5 -306v-616h-99v610q0 148 -84 240t-221 92q-105 0 -182.5 -48.5t-153.5 -143.5v-750h-100v1556h100z" />
    <glyph glyph-name="Hbar" unicode="&#x126;" horiz-adv-x="1513" 
d="M1487 1188v-80h-184v-1108h-105v717h-885v-717h-104v1108h-182v80h182v317h104v-317h885v317h105v-317h184zM1198 813v295h-885v-295h885z" />
    <glyph glyph-name="hbar" unicode="&#x127;" horiz-adv-x="1157" 
d="M621 1038q180 0 283.5 -116t103.5 -306v-616h-99v610q0 148 -84 240t-221 92q-105 0 -182.5 -48.5t-153.5 -143.5v-750h-100v1208h-178v80h178v268h100v-268h273v-80h-273v-334q143 164 353 164z" />
    <glyph glyph-name="Itilde" unicode="&#x128;" horiz-adv-x="477" 
d="M106 1862q40 0 73.5 -19t56 -46t43 -54.5t45.5 -46.5t53 -19q96 0 96 170h76q0 -124 -48.5 -186t-127.5 -62q-41 0 -74 19t-55.5 45.5t-42.5 53.5t-44.5 46t-52.5 19q-54 0 -75 -45t-21 -125h-78q0 125 48.5 187.5t127.5 62.5zM291 1505v-1505h-105v1505h105z" />
    <glyph glyph-name="itilde" unicode="&#x129;" horiz-adv-x="456" 
d="M96 1436q40 0 73.5 -19t56 -46t43 -54.5t45 -46.5t51.5 -19q96 0 96 170h76q0 -124 -48 -185.5t-129 -61.5q-34 0 -63.5 13.5t-48.5 33.5t-38 44t-34.5 44t-36.5 33.5t-45 13.5q-98 0 -98 -170h-76q0 125 48 187.5t128 62.5zM260 1018v-1018h-98v1018h98z" />
    <glyph glyph-name="Imacron" unicode="&#x12a;" horiz-adv-x="477" 
d="M487 1720v-80h-501v80h501zM291 1505v-1505h-105v1505h105z" />
    <glyph glyph-name="imacron" unicode="&#x12b;" horiz-adv-x="456" 
d="M479 1311v-80h-502v80h502zM260 1018v-1018h-98v1018h98z" />
    <glyph glyph-name="Ibreve" unicode="&#x12c;" horiz-adv-x="477" 
d="M522 1870q0 -115 -81 -191.5t-203 -76.5q-123 0 -205 76.5t-82 191.5h80q0 -80 59 -133.5t148 -53.5t146.5 53.5t57.5 133.5h80zM291 1505v-1505h-105v1505h105z" />
    <glyph glyph-name="ibreve" unicode="&#x12d;" horiz-adv-x="456" 
d="M512 1458q0 -117 -81 -194.5t-204 -77.5q-122 0 -203 77.5t-81 194.5h80q0 -83 58 -135.5t146 -52.5q90 0 147.5 52.5t57.5 135.5h80zM260 1018v-1018h-98v1018h98z" />
    <glyph glyph-name="Iogonek" unicode="&#x12e;" horiz-adv-x="477" 
d="M344 -387l23 -70q-35 -14 -95 -14q-108 0 -176.5 66t-68.5 174q0 175 159 270v1466h105v-1505h-37q-150 -80 -150 -231q0 -79 48 -123.5t122 -44.5q43 0 70 12z" />
    <glyph glyph-name="iogonek" unicode="&#x12f;" horiz-adv-x="421" 
d="M211 1270q-37 0 -60.5 23.5t-23.5 60.5q0 36 24 60t60 24q35 0 59.5 -24.5t24.5 -59.5q0 -36 -24 -60t-60 -24zM340 -387l22 -70q-35 -14 -94 -14q-108 0 -176.5 66t-68.5 174q0 165 139 258v991h98v-1018h-10q-150 -80 -150 -231q0 -79 48 -123.5t122 -44.5q43 0 70 12z
" />
    <glyph glyph-name="Idotaccent" unicode="&#x130;" horiz-adv-x="477" 
d="M238 1765q33 0 56 -23t23 -56q0 -32 -23.5 -55t-55.5 -23q-33 0 -55.5 22.5t-22.5 55.5q0 34 22 56.5t56 22.5zM291 1505v-1505h-105v1505h105z" />
    <glyph glyph-name="dotlessi" unicode="&#x131;" horiz-adv-x="421" 
d="M260 1018v-1018h-98v1018h98z" />
    <glyph glyph-name="IJ" unicode="&#x132;" horiz-adv-x="1449" 
d="M291 1505v-1505h-105v1505h105zM1284 1505v-1095q0 -203 -113 -320t-303 -117q-180 0 -299.5 120.5t-119.5 326.5h104q0 -161 86.5 -254.5t226.5 -93.5q146 0 230 90t84 252v1091h104z" />
    <glyph glyph-name="ij" unicode="&#x133;" horiz-adv-x="823" 
d="M211 1438q35 0 59.5 -24.5t24.5 -59.5q0 -36 -24 -60t-60 -24q-37 0 -60.5 23.5t-23.5 60.5q0 36 24 60t60 24zM612 1438q35 0 60.5 -24.5t25.5 -59.5q0 -36 -25 -60t-61 -24t-60 24t-24 60q0 35 24.5 59.5t59.5 24.5zM260 1018v-1018h-98v1018h98zM348 -492
q-130 0 -221 72l55 78q70 -57 168 -57q92 0 152.5 62t60.5 157v1198h99v-1196q0 -134 -89 -224t-225 -90z" />
    <glyph glyph-name="Jcircumflex" unicode="&#x134;" horiz-adv-x="1048" 
d="M827 1880l293 -281h-108l-185 170l-186 -170h-109zM885 1505v-1095q0 -202 -114 -319.5t-304 -117.5q-87 0 -163 30.5t-133.5 86.5t-90.5 141t-33 189h105q0 -161 86.5 -254.5t226.5 -93.5q146 0 230.5 90.5t84.5 251.5v1091h105z" />
    <glyph glyph-name="jcircumflex" unicode="&#x135;" horiz-adv-x="434" 
d="M225 1479l291 -297h-106l-185 174l-182 -174h-109zM-43 -492q-128 0 -219 72l55 78q70 -57 166 -57q94 0 154.5 62t60.5 157v1198h98v-1196q0 -134 -89.5 -224t-225.5 -90z" />
    <glyph glyph-name="Kcommaaccent" unicode="&#x136;" horiz-adv-x="1273" 
d="M1167 1505l-434 -731l508 -774h-125l-442 676l-402 -676h-86v1505h105v-1294l758 1294h118zM653 -117q42 0 69.5 -24.5t27.5 -65.5q0 -32 -17 -55l-100 -207h-8v348q8 4 28 4z" />
    <glyph glyph-name="kcommaaccent" unicode="&#x137;" horiz-adv-x="1021" 
d="M268 1556v-1372l545 834h113l-312 -469l385 -549h-118l-326 463l-303 -463h-84v1556h100zM532 -117q42 0 69.5 -24.5t27.5 -65.5q0 -32 -17 -55l-100 -207h-8v348q8 4 28 4z" />
    <glyph glyph-name="Lacute" unicode="&#x139;" horiz-adv-x="1112" 
d="M580 1829l-308 -227h-125l283 227h150zM291 1505v-1409h792v-96h-897v1505h105z" />
    <glyph glyph-name="lacute" unicode="&#x13a;" horiz-adv-x="436" 
d="M592 1884l-307 -227h-125l282 227h150zM268 1556v-1556h-100v1556h100z" />
    <glyph glyph-name="Lcommaaccent" unicode="&#x13b;" horiz-adv-x="1112" 
d="M291 1505v-1409h792v-96h-897v1505h105zM604 -117q42 0 69 -24.5t27 -65.5q0 -34 -16 -55l-100 -207h-9v348q8 4 29 4z" />
    <glyph glyph-name="lcommaaccent" unicode="&#x13c;" horiz-adv-x="436" 
d="M268 1556v-1556h-100v1556h100zM186 -117q42 0 69.5 -24.5t27.5 -65.5q0 -32 -17 -55l-100 -207h-8v348q8 4 28 4z" />
    <glyph glyph-name="Lcaron" unicode="&#x13d;" horiz-adv-x="1112" 
d="M518 1516q38 0 60 -26t22 -67q0 -46 -16 -82l-86 -225h-9v395q10 5 29 5zM291 1505v-1409h792v-96h-897v1505h105z" />
    <glyph glyph-name="lcaron" unicode="&#x13e;" horiz-adv-x="436" 
d="M268 1556v-1556h-100v1556h100zM453 1556q39 0 61.5 -25.5t22.5 -66.5q0 -36 -17 -82l-88 -225h-8v395q10 4 29 4z" />
    <glyph glyph-name="Ldot" unicode="&#x13f;" horiz-adv-x="1112" 
d="M291 1505v-1409h792v-96h-897v1505h105zM721 721q37 0 61.5 -24.5t24.5 -61.5q0 -35 -24.5 -59.5t-61.5 -24.5t-61.5 24.5t-24.5 59.5q0 37 24.5 61.5t61.5 24.5z" />
    <glyph glyph-name="ldot" unicode="&#x140;" horiz-adv-x="749" 
d="M268 1556v-1556h-100v1556h100zM602 610q37 0 61.5 -24.5t24.5 -61.5q0 -35 -24.5 -59.5t-61.5 -24.5q-36 0 -60 24t-24 60q0 37 23.5 61.5t60.5 24.5z" />
    <glyph glyph-name="Lslash" unicode="&#x141;" horiz-adv-x="1157" 
d="M336 96h790v-96h-895v526l-190 -118l-39 77l229 142v878h105v-813l242 150l38 -76l-280 -174v-496z" />
    <glyph glyph-name="lslash" unicode="&#x142;" horiz-adv-x="487" 
d="M502 815l-211 -127v-688h-101v631l-170 -101l-36 70l206 121v835h101v-776l176 105z" />
    <glyph glyph-name="Nacute" unicode="&#x143;" horiz-adv-x="1478" 
d="M1094 1829l-308 -227h-124l282 227h150zM195 1532l993 -1282v1255h104v-1532h-8l-993 1284v-1257h-105v1532h9z" />
    <glyph glyph-name="nacute" unicode="&#x144;" horiz-adv-x="1150" 
d="M930 1423l-314 -237h-118l286 237h146zM614 1038q180 0 283.5 -116t103.5 -306v-616h-98v610q0 148 -84 240t-221 92q-105 0 -183.5 -48.5t-154.5 -143.5v-750h-98v1018h92l4 -148q58 70 147.5 119t208.5 49z" />
    <glyph glyph-name="Ncommaaccent" unicode="&#x145;" horiz-adv-x="1478" 
d="M195 1532l993 -1282v1255h104v-1532h-8l-993 1284v-1257h-105v1532h9zM745 -117q42 0 69.5 -24.5t27.5 -65.5q0 -32 -17 -55l-100 -207h-8v348q8 4 28 4z" />
    <glyph glyph-name="ncommaaccent" unicode="&#x146;" horiz-adv-x="1150" 
d="M614 1038q180 0 283.5 -116t103.5 -306v-616h-98v610q0 148 -84 240t-221 92q-105 0 -183.5 -48.5t-154.5 -143.5v-750h-98v1018h92l4 -148q58 70 147.5 119t208.5 49zM580 -117q42 0 69 -24.5t27 -65.5q0 -32 -17 -55l-100 -207h-8v348q8 4 29 4z" />
    <glyph glyph-name="Ncaron" unicode="&#x147;" horiz-adv-x="1478" 
d="M1049 1864l-293 -281l-295 281h108l187 -170l184 170h109zM195 1532l993 -1282v1255h104v-1532h-8l-993 1284v-1257h-105v1532h9z" />
    <glyph glyph-name="ncaron" unicode="&#x148;" horiz-adv-x="1150" 
d="M870 1468l-290 -294l-291 294h108l183 -172l184 172h106zM614 1038q180 0 283.5 -116t103.5 -306v-616h-98v610q0 148 -84 240t-221 92q-105 0 -183.5 -48.5t-154.5 -143.5v-750h-98v1018h92l4 -148q58 70 147.5 119t208.5 49z" />
    <glyph glyph-name="Eng" unicode="&#x14a;" horiz-adv-x="1478" 
d="M1188 1505h104v-1532v-28q0 -203 -114 -320t-306 -117v105q147 0 231.5 88t84.5 250v147l-897 1159v-1257h-105v1532h9l993 -1282v1255z" />
    <glyph glyph-name="eng" unicode="&#x14b;" horiz-adv-x="1150" 
d="M614 1038q180 0 283.5 -116t103.5 -306v-794q0 -134 -90.5 -224t-226.5 -90v95q95 0 157 60.5t62 154.5v792q0 148 -84 240t-221 92q-105 0 -183.5 -48.5t-154.5 -143.5v-750h-98v1018h92l4 -148q58 70 147.5 119t208.5 49z" />
    <glyph glyph-name="Omacron" unicode="&#x14c;" horiz-adv-x="1652" 
d="M1075 1741v-80h-502v80h502zM825 1532q159 0 297.5 -59t236.5 -162t154 -248t56 -311q0 -167 -56 -311.5t-154 -247.5t-236.5 -161.5t-297.5 -58.5q-160 0 -298 58.5t-236 161.5t-153.5 247.5t-55.5 311.5q0 222 95 400t265 279t383 101zM825 1434q-184 0 -329.5 -88.5
t-226.5 -244t-81 -349.5t81 -349.5t226.5 -243t329.5 -87.5q183 0 329 87.5t228 243t82 349.5q0 193 -82 349t-228 244.5t-329 88.5z" />
    <glyph glyph-name="omacron" unicode="&#x14d;" horiz-adv-x="1171" 
d="M836 1311v-80h-502v80h502zM586 1038q220 0 364 -150.5t144 -379.5q0 -230 -144 -379t-364 -149q-221 0 -364.5 149t-143.5 379q0 229 143.5 379.5t364.5 150.5zM586 946q-178 0 -293 -124t-115 -314q0 -191 115 -313.5t293 -122.5q177 0 292 123t115 313
q0 189 -115 313.5t-292 124.5z" />
    <glyph glyph-name="Obreve" unicode="&#x14e;" horiz-adv-x="1652" 
d="M1110 1890q0 -115 -81.5 -191.5t-203.5 -76.5q-123 0 -204.5 76.5t-81.5 191.5h79q0 -80 59 -133t148 -53t147 53t58 133h80zM825 1532q159 0 297.5 -59t236.5 -162t154 -248t56 -311q0 -167 -56 -311.5t-154 -247.5t-236.5 -161.5t-297.5 -58.5q-160 0 -298 58.5
t-236 161.5t-153.5 247.5t-55.5 311.5q0 222 95 400t265 279t383 101zM825 1434q-184 0 -329.5 -88.5t-226.5 -244t-81 -349.5t81 -349.5t226.5 -243t329.5 -87.5q183 0 329 87.5t228 243t82 349.5q0 193 -82 349t-228 244.5t-329 88.5z" />
    <glyph glyph-name="obreve" unicode="&#x14f;" horiz-adv-x="1171" 
d="M870 1458q0 -117 -81 -194.5t-203 -77.5q-123 0 -205 77.5t-82 194.5h82q0 -83 57.5 -135.5t147.5 -52.5q88 0 146.5 52.5t58.5 135.5h79zM586 1038q220 0 364 -150.5t144 -379.5q0 -230 -144 -379t-364 -149q-221 0 -364.5 149t-143.5 379q0 229 143.5 379.5
t364.5 150.5zM586 946q-178 0 -293 -124t-115 -314q0 -191 115 -313.5t293 -122.5q177 0 292 123t115 313q0 189 -115 313.5t-292 124.5z" />
    <glyph glyph-name="Ohungarumlaut" unicode="&#x150;" horiz-adv-x="1652" 
d="M938 1868l-236 -240h-88l217 240h107zM1235 1868l-236 -240h-90l217 240h109zM825 1532q159 0 297.5 -59t236.5 -162t154 -248t56 -311q0 -167 -56 -311.5t-154 -247.5t-236.5 -161.5t-297.5 -58.5q-160 0 -298 58.5t-236 161.5t-153.5 247.5t-55.5 311.5q0 222 95 400
t265 279t383 101zM825 1434q-184 0 -329.5 -88.5t-226.5 -244t-81 -349.5t81 -349.5t226.5 -243t329.5 -87.5q183 0 329 87.5t228 243t82 349.5q0 193 -82 349t-228 244.5t-329 88.5z" />
    <glyph glyph-name="ohungarumlaut" unicode="&#x151;" horiz-adv-x="1171" 
d="M700 1452l-241 -283h-90l225 283h106zM999 1452l-239 -283h-92l225 283h106zM586 1038q220 0 364 -150.5t144 -379.5q0 -230 -144 -379t-364 -149q-221 0 -364.5 149t-143.5 379q0 229 143.5 379.5t364.5 150.5zM586 946q-178 0 -293 -124t-115 -314q0 -191 115 -313.5
t293 -122.5q177 0 292 123t115 313q0 189 -115 313.5t-292 124.5z" />
    <glyph glyph-name="OE" unicode="&#x152;" horiz-adv-x="2453" 
d="M1569 98h803v-98h-908v354q-92 -177 -259.5 -279t-379.5 -102q-160 0 -298 58.5t-236 161.5t-153.5 247.5t-55.5 311.5q0 222 95 400t265 279t383 101q212 0 379.5 -102.5t259.5 -280.5v356h891v-98h-786v-596h698v-96h-698v-617zM825 72q183 0 329 87.5t228 243
t82 349.5q0 193 -82 349t-228 244.5t-329 88.5q-184 0 -329.5 -88.5t-226.5 -244t-81 -349.5t81 -349.5t226.5 -243t329.5 -87.5z" />
    <glyph glyph-name="oe" unicode="&#x153;" horiz-adv-x="1996" 
d="M1927 520v-47h-833q6 -185 111 -294t292 -109q114 0 201 45.5t135 115.5l72 -55q-140 -196 -408 -196q-165 0 -282.5 75t-174.5 207q-61 -131 -181 -206.5t-273 -75.5q-221 0 -364.5 149t-143.5 379q0 229 143.5 379.5t364.5 150.5q153 0 273 -76.5t181 -207.5
q56 133 168 208.5t260 75.5q143 0 248 -69t158 -185t53 -264zM1094 561h735q-6 173 -102.5 280t-258.5 107q-160 0 -262.5 -107.5t-111.5 -279.5zM586 72q177 0 292 123t115 313q0 189 -115 313.5t-292 124.5q-178 0 -293 -124t-115 -314q0 -191 115 -313.5t293 -122.5z" />
    <glyph glyph-name="Racute" unicode="&#x154;" horiz-adv-x="1226" 
d="M936 1829l-307 -227h-125l282 227h150zM1182 0h-125l-393 616q-50 -4 -78 -4h-303v-612h-105v1505h408q239 0 383.5 -116.5t144.5 -329.5q0 -167 -90 -275t-250 -149zM580 711q201 0 314.5 89t113.5 259t-114.5 260t-313.5 90h-297v-698h297z" />
    <glyph glyph-name="racute" unicode="&#x155;" horiz-adv-x="598" 
d="M721 1423l-313 -237h-119l286 237h146zM569 1038v-100h-10q-97 0 -167.5 -47t-131.5 -143v-748h-98v1018h92l4 -150q45 72 123 121t188 49z" />
    <glyph glyph-name="Rcommaaccent" unicode="&#x156;" horiz-adv-x="1226" 
d="M774 635l408 -635h-125l-393 616q-50 -4 -78 -4h-303v-612h-105v1505h408q239 0 383.5 -116.5t144.5 -329.5q0 -167 -90 -275t-250 -149zM580 711q201 0 314.5 89t113.5 259t-114.5 260t-313.5 90h-297v-698h297zM618 -117q42 0 69.5 -24.5t27.5 -65.5q0 -32 -17 -55
l-100 -207h-8v348q8 4 28 4z" />
    <glyph glyph-name="rcommaaccent" unicode="&#x157;" horiz-adv-x="598" 
d="M569 1038v-100h-10q-97 0 -167.5 -47t-131.5 -143v-748h-98v1018h92l4 -150q45 72 123 121t188 49zM186 -117q42 0 69.5 -24.5t27.5 -65.5q0 -32 -17 -55l-100 -207h-8v348q8 4 28 4z" />
    <glyph glyph-name="Rcaron" unicode="&#x158;" horiz-adv-x="1226" 
d="M891 1864l-293 -281l-295 281h109l186 -170l184 170h109zM1182 0h-125l-393 616q-50 -4 -78 -4h-303v-612h-105v1505h408q239 0 383.5 -116.5t144.5 -329.5q0 -167 -90 -275t-250 -149zM580 711q201 0 314.5 89t113.5 259t-114.5 260t-313.5 90h-297v-698h297z" />
    <glyph glyph-name="rcaron" unicode="&#x159;" horiz-adv-x="598" 
d="M664 1468l-291 -294l-291 294h108l183 -172l184 172h107zM569 1038v-100h-10q-97 0 -167.5 -47t-131.5 -143v-748h-98v1018h92l4 -150q45 72 123 121t188 49z" />
    <glyph glyph-name="Sacute" unicode="&#x15a;" horiz-adv-x="1169" 
d="M913 1849l-307 -227h-125l283 227h149zM569 1530q254 0 465 -162l-55 -88q-82 68 -191 110t-221 42q-156 0 -256 -77t-100 -229q0 -69 20 -116t69.5 -82.5t118.5 -59.5t181 -49q263 -60 376.5 -153t113.5 -263q0 -192 -137.5 -311t-364.5 -119q-304 0 -518 185l63 86
q85 -80 207 -126t250 -46q173 0 284 85.5t111 239.5q0 129 -97.5 202t-316.5 122q-261 58 -363 144.5t-102 256.5q0 191 128 299.5t335 108.5z" />
    <glyph glyph-name="sacute" unicode="&#x15b;" horiz-adv-x="894" 
d="M788 1423l-313 -237h-119l287 237h145zM449 1038q175 0 331 -102l-45 -80q-135 92 -286 92q-110 0 -178 -46.5t-68 -139.5q0 -81 58.5 -121t207.5 -74q182 -42 264 -108.5t82 -179.5q0 -134 -101.5 -216.5t-267.5 -82.5q-218 0 -370 120l51 82q134 -112 322 -112
q120 0 194 52.5t74 149.5q0 83 -64.5 127t-212.5 76q-183 42 -260.5 104.5t-77.5 176.5q0 133 96 207.5t251 74.5z" />
    <glyph glyph-name="Scircumflex" unicode="&#x15c;" horiz-adv-x="1169" 
d="M573 1901l293 -281h-108l-185 170l-186 -170h-108zM569 1530q254 0 465 -162l-55 -88q-82 68 -191 110t-221 42q-156 0 -256 -77t-100 -229q0 -69 20 -116t69.5 -82.5t118.5 -59.5t181 -49q263 -60 376.5 -153t113.5 -263q0 -192 -137.5 -311t-364.5 -119
q-304 0 -518 185l63 86q85 -80 207 -126t250 -46q173 0 284 85.5t111 239.5q0 129 -97.5 202t-316.5 122q-261 58 -363 144.5t-102 256.5q0 191 128 299.5t335 108.5z" />
    <glyph glyph-name="scircumflex" unicode="&#x15d;" horiz-adv-x="894" 
d="M440 1479l291 -297h-106l-185 174l-182 -174h-108zM449 1038q175 0 331 -102l-45 -80q-135 92 -286 92q-110 0 -178 -46.5t-68 -139.5q0 -81 58.5 -121t207.5 -74q182 -42 264 -108.5t82 -179.5q0 -134 -101.5 -216.5t-267.5 -82.5q-218 0 -370 120l51 82
q134 -112 322 -112q120 0 194 52.5t74 149.5q0 83 -64.5 127t-212.5 76q-183 42 -260.5 104.5t-77.5 176.5q0 133 96 207.5t251 74.5z" />
    <glyph glyph-name="Scedilla" unicode="&#x15e;" horiz-adv-x="1169" 
d="M1090 403q0 -184 -127 -302t-340 -128l-23 -84q82 -5 138.5 -51t56.5 -129q0 -87 -55 -133.5t-142 -46.5q-116 0 -192 76l45 57q68 -61 145 -61q121 0 121 108q0 86 -101 109q-39 9 -96 6l-6 6l37 143q-282 11 -481 185l63 86q85 -80 207 -126t250 -46q173 0 284 85.5
t111 239.5q0 129 -97.5 202t-316.5 122q-261 58 -363 144.5t-102 256.5q0 191 128 299.5t335 108.5q254 0 465 -162l-55 -88q-82 68 -191 110t-221 42q-156 0 -256 -77t-100 -229q0 -69 20 -116t69.5 -82.5t118.5 -59.5t181 -49q263 -60 376.5 -153t113.5 -263z" />
    <glyph glyph-name="scedilla" unicode="&#x15f;" horiz-adv-x="894" 
d="M815 279q0 -129 -93 -210t-247 -89l-24 -91q82 -5 138 -51t56 -129q0 -87 -54.5 -133.5t-141.5 -46.5q-117 0 -193 76l45 57q68 -61 145 -61q121 0 121 108q0 86 -100 109q-39 9 -96 6l-6 6l38 152q-188 8 -327 118l51 82q134 -112 322 -112q120 0 194 52.5t74 149.5
q0 83 -64.5 127t-212.5 76q-183 42 -260.5 104.5t-77.5 176.5q0 133 96 207.5t251 74.5q175 0 331 -102l-45 -80q-135 92 -286 92q-110 0 -178 -46.5t-68 -139.5q0 -81 58.5 -121t207.5 -74q182 -42 264 -108.5t82 -179.5z" />
    <glyph glyph-name="Scaron" unicode="&#x160;" horiz-adv-x="1169" 
d="M868 1884l-293 -280l-294 280h108l186 -170l185 170h108zM569 1530q254 0 465 -162l-55 -88q-82 68 -191 110t-221 42q-156 0 -256 -77t-100 -229q0 -69 20 -116t69.5 -82.5t118.5 -59.5t181 -49q263 -60 376.5 -153t113.5 -263q0 -192 -137.5 -311t-364.5 -119
q-304 0 -518 185l63 86q85 -80 207 -126t250 -46q173 0 284 85.5t111 239.5q0 129 -97.5 202t-316.5 122q-261 58 -363 144.5t-102 256.5q0 191 128 299.5t335 108.5z" />
    <glyph glyph-name="scaron" unicode="&#x161;" horiz-adv-x="894" 
d="M731 1468l-291 -294l-290 294h108l182 -172l185 172h106zM449 1038q175 0 331 -102l-45 -80q-135 92 -286 92q-110 0 -178 -46.5t-68 -139.5q0 -81 58.5 -121t207.5 -74q182 -42 264 -108.5t82 -179.5q0 -134 -101.5 -216.5t-267.5 -82.5q-218 0 -370 120l51 82
q134 -112 322 -112q120 0 194 52.5t74 149.5q0 83 -64.5 127t-212.5 76q-183 42 -260.5 104.5t-77.5 176.5q0 133 96 207.5t251 74.5z" />
    <glyph glyph-name="Tcedilla" unicode="&#x162;" horiz-adv-x="1296" 
d="M700 0h-16l-31 -111q82 -5 138.5 -51t56.5 -129q0 -87 -55 -133.5t-142 -46.5q-116 0 -192 76l45 57q68 -61 145 -61q121 0 121 108q0 86 -100 109q-39 10 -97 6l-6 6l43 170h-14v1409h-567v96h1239v-96h-568v-1409z" />
    <glyph glyph-name="tcedilla" unicode="&#x163;" horiz-adv-x="761" 
d="M473 -111q82 -5 138.5 -51t56.5 -129q0 -87 -55 -133.5t-142 -46.5q-116 0 -192 76l45 57q68 -61 145 -61q121 0 121 108q0 86 -101 109q-39 9 -96 6l-6 6l43 168q-88 30 -137 107t-49 196v627h-215v90h215v352h98v-352h350v-90h-350v-627q0 -109 57.5 -169t151.5 -60
t166 39l35 -82q-74 -49 -203 -49q-35 0 -49 2z" />
    <glyph glyph-name="Tcaron" unicode="&#x164;" horiz-adv-x="1296" 
d="M944 1864l-293 -281l-295 281h109l186 -170l185 170h108zM1268 1505v-96h-568v-1409h-104v1409h-567v96h1239z" />
    <glyph glyph-name="tcaron" unicode="&#x165;" horiz-adv-x="761" 
d="M528 1556q38 0 61 -26t23 -66q0 -39 -16 -82l-88 -225h-8v395q10 4 28 4zM342 1370v-352h350v-90h-350v-627q0 -109 57.5 -169t151.5 -60t166 39l35 -82q-74 -49 -203 -49q-140 0 -222.5 82.5t-82.5 238.5v627h-215v90h215v352h98z" />
    <glyph glyph-name="Tbar" unicode="&#x166;" horiz-adv-x="1296" 
d="M1268 1409h-568v-629h328v-82h-328v-698h-104v698h-324v82h324v629h-567v96h1239v-96z" />
    <glyph glyph-name="tbar" unicode="&#x167;" horiz-adv-x="761" 
d="M717 111l35 -82q-74 -49 -203 -49q-140 0 -222.5 82.5t-82.5 238.5v277h-215v79h215v281h-215v80h215v352h98v-352h350v-80h-350v-281h350v-79h-350v-277q0 -109 57.5 -169t151.5 -60t166 39z" />
    <glyph glyph-name="Utilde" unicode="&#x168;" horiz-adv-x="1417" 
d="M578 1862q40 0 73.5 -19t55.5 -46t43 -54.5t45.5 -46.5t52.5 -19q96 0 96 170h76q0 -124 -48.5 -186t-127.5 -62q-41 0 -74 19t-55.5 45.5t-42.5 53.5t-44.5 46t-52.5 19q-54 0 -75 -45t-21 -125h-78q0 125 49 187.5t128 62.5zM1251 1505v-985q0 -255 -140.5 -401
t-401.5 -146q-262 0 -401.5 146t-139.5 401v985h104v-983q0 -210 112 -330t325 -120q212 0 325 120.5t113 329.5v983h104z" />
    <glyph glyph-name="utilde" unicode="&#x169;" horiz-adv-x="1126" 
d="M440 1436q40 0 73.5 -19t56 -46t43 -54.5t45.5 -46.5t53 -19q96 0 96 170h76q0 -123 -48.5 -185t-127.5 -62q-41 0 -74 18.5t-55.5 45.5t-42.5 54t-44.5 45.5t-52.5 18.5q-54 0 -75 -45t-21 -125h-78q0 125 48.5 187.5t127.5 62.5zM965 1018v-1018h-95l-2 145
q-140 -165 -358 -165q-167 0 -263.5 113.5t-96.5 301.5v623h100v-619q0 -145 75.5 -234t200.5 -89q112 0 188.5 47.5t149.5 142.5v752h101z" />
    <glyph glyph-name="Umacron" unicode="&#x16a;" horiz-adv-x="1417" 
d="M958 1720v-80h-501v80h501zM1251 1505v-985q0 -255 -140.5 -401t-401.5 -146q-262 0 -401.5 146t-139.5 401v985h104v-983q0 -210 112 -330t325 -120q212 0 325 120.5t113 329.5v983h104z" />
    <glyph glyph-name="umacron" unicode="&#x16b;" horiz-adv-x="1126" 
d="M821 1311v-80h-502v80h502zM965 1018v-1018h-95l-2 145q-140 -165 -358 -165q-167 0 -263.5 113.5t-96.5 301.5v623h100v-619q0 -145 75.5 -234t200.5 -89q112 0 188.5 47.5t149.5 142.5v752h101z" />
    <glyph glyph-name="Ubreve" unicode="&#x16c;" horiz-adv-x="1417" 
d="M993 1870q0 -115 -81 -191.5t-203 -76.5q-123 0 -205 76.5t-82 191.5h80q0 -80 59 -133.5t148 -53.5t146.5 53.5t57.5 133.5h80zM1251 1505v-985q0 -255 -140.5 -401t-401.5 -146q-262 0 -401.5 146t-139.5 401v985h104v-983q0 -210 112 -330t325 -120q212 0 325 120.5
t113 329.5v983h104z" />
    <glyph glyph-name="ubreve" unicode="&#x16d;" horiz-adv-x="1126" 
d="M856 1458q0 -117 -81.5 -194.5t-203.5 -77.5q-123 0 -204.5 77.5t-81.5 194.5h82q0 -83 57 -135.5t147 -52.5q88 0 146.5 52.5t58.5 135.5h80zM965 1018v-1018h-95l-2 145q-140 -165 -358 -165q-167 0 -263.5 113.5t-96.5 301.5v623h100v-619q0 -145 75.5 -234t200.5 -89
q112 0 188.5 47.5t149.5 142.5v752h101z" />
    <glyph glyph-name="Uring" unicode="&#x16e;" horiz-adv-x="1417" 
d="M711 1991q85 0 141.5 -56t56.5 -141q0 -84 -56.5 -139.5t-141.5 -55.5t-142 55.5t-57 139.5q0 85 57 141t142 56zM711 1921q-54 0 -90.5 -36.5t-36.5 -90.5t36.5 -88.5t90.5 -34.5t90.5 34.5t36.5 88.5t-36.5 90.5t-90.5 36.5zM1251 1505v-985q0 -255 -140.5 -401
t-401.5 -146q-262 0 -401.5 146t-139.5 401v985h104v-983q0 -210 112 -330t325 -120q212 0 325 120.5t113 329.5v983h104z" />
    <glyph glyph-name="uring" unicode="&#x16f;" horiz-adv-x="1126" 
d="M573 1567q85 0 142 -57t57 -142q0 -84 -57 -138t-142 -54t-141.5 54t-56.5 138q0 85 56.5 142t141.5 57zM573 1495q-54 0 -90.5 -36.5t-36.5 -90.5t36.5 -88.5t90.5 -34.5t90.5 34.5t36.5 88.5t-36.5 90.5t-90.5 36.5zM965 1018v-1018h-95l-2 145q-140 -165 -358 -165
q-167 0 -263.5 113.5t-96.5 301.5v623h100v-619q0 -145 75.5 -234t200.5 -89q112 0 188.5 47.5t149.5 142.5v752h101z" />
    <glyph glyph-name="Uhungarumlaut" unicode="&#x170;" horiz-adv-x="1417" 
d="M821 1847l-235 -239h-88l217 239h106zM1118 1847l-235 -239h-90l217 239h108zM1251 1505v-985q0 -255 -140.5 -401t-401.5 -146q-262 0 -401.5 146t-139.5 401v985h104v-983q0 -210 112 -330t325 -120q212 0 325 120.5t113 329.5v983h104z" />
    <glyph glyph-name="uhungarumlaut" unicode="&#x171;" horiz-adv-x="1126" 
d="M686 1452l-242 -283h-90l226 283h106zM985 1452l-240 -283h-92l226 283h106zM965 1018v-1018h-95l-2 145q-140 -165 -358 -165q-167 0 -263.5 113.5t-96.5 301.5v623h100v-619q0 -145 75.5 -234t200.5 -89q112 0 188.5 47.5t149.5 142.5v752h101z" />
    <glyph glyph-name="Uogonek" unicode="&#x172;" horiz-adv-x="1417" 
d="M1147 1505h104v-985q0 -203 -90 -339t-262 -183q-127 -79 -127 -219q0 -79 48 -123.5t122 -44.5q43 0 70 12l22 -69q-38 -15 -94 -15q-108 0 -177 66t-69 174q0 115 68 196q-16 -2 -53 -2q-262 0 -401.5 146t-139.5 401v985h104v-983q0 -210 112 -330t325 -120
q212 0 325 120.5t113 329.5v983z" />
    <glyph glyph-name="uogonek" unicode="&#x173;" horiz-adv-x="1126" 
d="M1047 -387l22 -70q-35 -14 -94 -14q-108 0 -177 66t-69 174q0 168 141 260l-2 116q-140 -165 -358 -165q-167 0 -263.5 113.5t-96.5 301.5v623h100v-619q0 -145 75.5 -234t200.5 -89q112 0 188.5 47.5t149.5 142.5v752h101v-1018h-9q-149 -80 -149 -231q0 -79 48 -123.5
t122 -44.5q43 0 70 12z" />
    <glyph glyph-name="Wcircumflex" unicode="&#x174;" horiz-adv-x="1988" 
d="M995 1880l293 -281h-108l-185 170l-186 -170h-109zM1950 1505l-549 -1532h-8l-400 1235l-399 -1235h-8l-549 1532h117l436 -1245l399 1245h8l402 -1245l436 1245h115z" />
    <glyph glyph-name="wcircumflex" unicode="&#x175;" horiz-adv-x="1538" 
d="M768 1479l291 -297h-107l-184 174l-182 -174h-109zM1511 1018l-415 -1038h-9l-317 813l-319 -813h-9l-417 1038h104l320 -815l317 815h8l316 -815l319 815h102z" />
    <glyph glyph-name="Ycircumflex" unicode="&#x176;" horiz-adv-x="1275" 
d="M637 1880l293 -281h-109l-184 170l-186 -170h-109zM1255 1503l-565 -846v-657h-104v657l-566 846h123l494 -739l493 739h125z" />
    <glyph glyph-name="ycircumflex" unicode="&#x177;" horiz-adv-x="1062" 
d="M524 1479l291 -297h-106l-185 174l-182 -174h-109zM1024 1018l-696 -1489h-113l262 545l-438 944h104l387 -842l390 842h104z" />
    <glyph glyph-name="Ydieresis" unicode="&#x178;" horiz-adv-x="1275" 
d="M483 1782q34 0 57 -23t23 -55q0 -34 -23 -56t-57 -22q-33 0 -55 22t-22 56q0 32 22.5 55t54.5 23zM791 1782q32 0 55.5 -23t23.5 -55q0 -33 -23 -55.5t-56 -22.5t-55.5 22.5t-22.5 55.5q0 32 23 55t55 23zM1255 1503l-565 -846v-657h-104v657l-566 846h123l494 -739
l493 739h125z" />
    <glyph glyph-name="Zacute" unicode="&#x179;" horiz-adv-x="1159" 
d="M924 1829l-308 -227h-124l282 227h150zM1075 1505v-8l-842 -1401h867v-96h-1034v8l843 1401h-811v96h977z" />
    <glyph glyph-name="zacute" unicode="&#x17a;" horiz-adv-x="874" 
d="M784 1423l-313 -237h-119l287 237h145zM823 1018v-8l-612 -920h612v-90h-774v8l610 920h-575v90h739z" />
    <glyph glyph-name="Zdotaccent" unicode="&#x17b;" horiz-adv-x="1159" 
d="M584 1765q33 0 56.5 -23t23.5 -56q0 -32 -24 -55t-56 -23q-33 0 -55.5 22.5t-22.5 55.5q0 34 22 56.5t56 22.5zM1075 1505v-8l-842 -1401h867v-96h-1034v8l843 1401h-811v96h977z" />
    <glyph glyph-name="zdotaccent" unicode="&#x17c;" horiz-adv-x="874" 
d="M436 1413q33 0 56.5 -23.5t23.5 -56.5q0 -34 -23 -56t-57 -22q-33 0 -55.5 22.5t-22.5 55.5q0 32 23 56t55 24zM823 1018v-8l-612 -920h612v-90h-774v8l610 920h-575v90h739z" />
    <glyph glyph-name="Zcaron" unicode="&#x17d;" horiz-adv-x="1159" 
d="M879 1864l-293 -281l-295 281h108l187 -170l184 170h109zM1075 1505v-8l-842 -1401h867v-96h-1034v8l843 1401h-811v96h977z" />
    <glyph glyph-name="zcaron" unicode="&#x17e;" horiz-adv-x="874" 
d="M727 1468l-291 -294l-291 294h109l182 -172l185 172h106zM823 1018v-8l-612 -920h612v-90h-774v8l610 920h-575v90h739z" />
    <glyph glyph-name="florin" unicode="&#x192;" horiz-adv-x="782" 
d="M637 1536q126 0 209 -80l-49 -78q-63 66 -156 66q-89 0 -144 -64.5t-67 -175.5l-18 -186h227l-10 -90h-228l-120 -1102q-16 -140 -98 -229t-212 -89q-127 0 -207 80l48 76q63 -63 157 -63q88 0 143 64t66 175l121 1088h-158l9 90h159l21 201q16 140 97.5 228.5
t209.5 88.5z" />
    <glyph glyph-name="Aringacute" unicode="&#x1fa;" horiz-adv-x="1374" 
d="M1065 2159l-313 -238h-119l287 238h145zM719 1464l629 -1464h-113l-168 397h-762l-166 -397h-112l626 1464q-71 11 -117.5 64t-46.5 129q0 83 57 139.5t140 56.5q86 0 142.5 -56t56.5 -140q0 -76 -46 -129t-120 -64zM561 1657q0 -55 36 -90t89 -35q56 0 92.5 35t36.5 90
q0 53 -37 89t-92 36q-52 0 -88.5 -36t-36.5 -89zM348 492h678l-340 802z" />
    <glyph glyph-name="aringacute" unicode="&#x1fb;" horiz-adv-x="1161" 
d="M944 1831l-305 -225h-125l283 225h147zM588 1522q84 0 140 -56.5t56 -140.5q0 -86 -55.5 -140.5t-140.5 -54.5q-86 0 -142.5 54.5t-56.5 140.5q0 83 57 140t142 57zM588 1450q-54 0 -90.5 -36t-36.5 -89q0 -55 36 -90t91 -35t91 35t36 90q0 53 -36.5 89t-90.5 36z
M545 1038q229 0 358 -164l2 144h94v-1018h-94l-2 147q-132 -167 -358 -167q-206 0 -336.5 149t-130.5 379q0 233 130.5 381.5t336.5 148.5zM557 946q-167 0 -273 -123t-106 -315t106 -314t273 -122q118 0 197.5 50t144.5 144v486q-65 94 -144.5 144t-197.5 50z" />
    <glyph glyph-name="AEacute" unicode="&#x1fc;" horiz-adv-x="1767" 
d="M1341 1829l-307 -227h-125l283 227h149zM1669 1505v-98h-909l248 -596h573v-96h-534l258 -617h381v-98h-453l-166 399h-760l-166 -399h-114l637 1505h1005zM686 1313l-340 -824h682z" />
    <glyph glyph-name="aeacute" unicode="&#x1fd;" horiz-adv-x="1921" 
d="M1303 1423l-314 -237h-119l287 237h146zM1389 1038q142 0 247.5 -68t159 -185t53.5 -267v-45h-837q6 -186 111 -294.5t296 -108.5q117 0 204 43.5t140 111.5l70 -57q-151 -188 -414 -188q-151 0 -259.5 60.5t-162.5 166.5l-2 -207h-90l-2 147q-132 -167 -358 -167
q-206 0 -336.5 149t-130.5 379q0 233 130.5 381.5t336.5 148.5q229 0 358 -164l2 144h90l4 -211q57 108 157 169.5t233 61.5zM1386 948q-159 0 -262.5 -105.5t-113.5 -281.5h741q-6 173 -103.5 280t-261.5 107zM557 946q-167 0 -273 -123t-106 -315t106 -314t273 -122
q118 0 197.5 50t144.5 144v486q-65 94 -144.5 144t-197.5 50z" />
    <glyph glyph-name="Oslashacute" unicode="&#x1fe;" horiz-adv-x="1652" 
d="M1165 1849l-305 -227h-125l283 227h147zM1233 1415q157 -103 246.5 -276t89.5 -387q0 -167 -56 -311.5t-154 -247.5t-236.5 -161.5t-297.5 -58.5q-179 0 -336 74l-114 -211h-99l138 254q-156 103 -244 275.5t-88 386.5q0 222 95 400t265 279t383 101q178 0 332 -74
l117 211h96zM188 752q0 -184 73 -332.5t202 -237.5l647 1186q-135 66 -285 66q-184 0 -329.5 -88.5t-226.5 -244t-81 -349.5zM825 72q183 0 329 87.5t228 243t82 349.5q0 183 -74.5 332.5t-205.5 240.5l-645 -1188q133 -65 286 -65z" />
    <glyph glyph-name="oslashacute" unicode="&#x1ff;" horiz-adv-x="1171" 
d="M932 1423l-314 -237h-118l286 237h146zM870 954q104 -70 164 -186.5t60 -259.5q0 -230 -144 -379t-364 -149q-119 0 -217 45l-93 -168h-83l110 204q-105 68 -165 185t-60 262q0 229 143.5 379.5t364.5 150.5q121 0 221 -47l92 170h84zM174 508q0 -116 46.5 -211.5
t127.5 -155.5l416 770q-83 39 -178 39q-179 0 -295.5 -125.5t-116.5 -316.5zM586 68q178 0 293.5 124t115.5 316q0 116 -45 210.5t-125 153.5l-413 -768q80 -36 174 -36z" />
    <glyph glyph-name="Scommaaccent" unicode="&#x218;" horiz-adv-x="1169" 
d="M569 1530q254 0 465 -162l-55 -88q-82 68 -191 110t-221 42q-156 0 -256 -77t-100 -229q0 -69 20 -116t69.5 -82.5t118.5 -59.5t181 -49q263 -60 376.5 -153t113.5 -263q0 -192 -137.5 -311t-364.5 -119q-304 0 -518 185l63 86q85 -80 207 -126t250 -46q173 0 284 85.5
t111 239.5q0 129 -97.5 202t-316.5 122q-261 58 -363 144.5t-102 256.5q0 191 128 299.5t335 108.5zM573 -117q42 0 69.5 -24.5t27.5 -65.5q0 -32 -17 -55l-100 -207h-8v348q8 4 28 4z" />
    <glyph glyph-name="scommaaccent" unicode="&#x219;" horiz-adv-x="894" 
d="M449 1038q175 0 331 -102l-45 -80q-135 92 -286 92q-110 0 -178 -46.5t-68 -139.5q0 -81 58.5 -121t207.5 -74q182 -42 264 -108.5t82 -179.5q0 -134 -101.5 -216.5t-267.5 -82.5q-218 0 -370 120l51 82q134 -112 322 -112q120 0 194 52.5t74 149.5q0 83 -64.5 127
t-212.5 76q-183 42 -260.5 104.5t-77.5 176.5q0 133 96 207.5t251 74.5zM418 -117q42 0 69 -24.5t27 -65.5q0 -34 -16 -55l-101 -207h-8v348q8 4 29 4z" />
    <glyph glyph-name="Tcommaaccent" unicode="&#x21a;" horiz-adv-x="1296" 
d="M1268 1505v-96h-568v-1409h-104v1409h-567v96h1239zM621 -117q42 0 69 -24.5t27 -65.5q0 -32 -17 -55l-100 -207h-8v348q8 4 29 4z" />
    <glyph glyph-name="tcommaaccent" unicode="&#x21b;" horiz-adv-x="761" 
d="M342 1370v-352h350v-90h-350v-627q0 -109 57.5 -169t151.5 -60t166 39l35 -82q-74 -49 -203 -49q-140 0 -222.5 82.5t-82.5 238.5v627h-215v90h215v352h98zM422 -117q42 0 69 -24.5t27 -65.5q0 -34 -16 -55l-101 -207h-8v348q8 4 29 4z" />
    <glyph glyph-name="circumflex" unicode="&#x2c6;" horiz-adv-x="677" 
d="M338 1479l291 -297h-107l-184 174l-182 -174h-109z" />
    <glyph glyph-name="caron" unicode="&#x2c7;" horiz-adv-x="677" 
d="M629 1468l-291 -294l-291 294h109l182 -172l184 172h107z" />
    <glyph glyph-name="breve" unicode="&#x2d8;" horiz-adv-x="665" 
d="M618 1458q0 -117 -81 -194.5t-203 -77.5q-123 0 -205 77.5t-82 194.5h82q0 -83 57.5 -135.5t147.5 -52.5q88 0 146.5 52.5t58.5 135.5h79z" />
    <glyph glyph-name="dotaccent" unicode="&#x2d9;" horiz-adv-x="264" 
d="M131 1413q33 0 56.5 -23.5t23.5 -56.5q0 -34 -23 -56t-57 -22q-33 0 -55.5 22.5t-22.5 55.5q0 32 23 56t55 24z" />
    <glyph glyph-name="ring" unicode="&#x2da;" horiz-adv-x="491" 
d="M246 1567q85 0 141.5 -57t56.5 -142q0 -84 -56.5 -138t-141.5 -54t-142 54t-57 138q0 85 57 142t142 57zM246 1495q-54 0 -90.5 -36.5t-36.5 -90.5t36.5 -88.5t90.5 -34.5t90.5 34.5t36.5 88.5t-36.5 90.5t-90.5 36.5z" />
    <glyph glyph-name="ogonek" unicode="&#x2db;" horiz-adv-x="434" 
d="M221 63l25 -63q-150 -80 -150 -231q0 -79 48 -123.5t122 -44.5q43 0 70 12l22 -70q-35 -14 -94 -14q-108 0 -177 66t-69 174q0 109 53.5 177.5t149.5 116.5z" />
    <glyph glyph-name="tilde" unicode="&#x2dc;" horiz-adv-x="712" 
d="M223 1436q40 0 73.5 -19t56 -46t43 -54.5t45.5 -46.5t53 -19q96 0 96 170h76q0 -123 -49 -185t-128 -62q-41 0 -74 18.5t-55 45.5t-42 54t-44.5 45.5t-52.5 18.5q-54 0 -75 -45t-21 -125h-78q0 125 48.5 187.5t127.5 62.5z" />
    <glyph glyph-name="hungarumlaut" unicode="&#x2dd;" 
d="M467 1452l-242 -283h-90l225 283h107zM766 1452l-240 -283h-92l225 283h107z" />
    <glyph glyph-name="uni03A9" unicode="&#x3a9;" horiz-adv-x="1757" 
d="M893 1532q151 0 277.5 -53.5t212.5 -147t134 -223t48 -279.5q0 -106 -24 -204t-60 -171t-90 -142.5t-102.5 -116t-108.5 -93.5h501v-102h-671v98q204 129 326 313.5t122 415.5q0 173 -66 308.5t-195.5 215t-303.5 79.5t-304 -79.5t-196.5 -215t-66.5 -308.5
q0 -231 122 -415.5t326 -313.5v-98h-672v102h504q-60 47 -108.5 93.5t-102.5 116t-90 142.5t-60 171t-24 204q0 150 47.5 279.5t133.5 223t212.5 147t278.5 53.5z" />
    <glyph glyph-name="pi" unicode="&#x3c0;" horiz-adv-x="1372" 
d="M1257 1180l72 -45q-33 -74 -67.5 -113.5t-97.5 -61.5t-165 -22h-43l-86 -662q-12 -103 10 -146.5t91 -43.5q102 0 172 61l39 -65q-53 -43 -106 -64.5t-130 -21.5q-109 0 -144.5 65.5t-19.5 202.5l88 674h-305l-78 -567q-18 -134 -39.5 -212.5t-54.5 -158.5h-100
q80 167 108 387l76 551h-80q-99 0 -168 -36.5t-135 -102.5l-47 65q62 60 107 90.5t121 51t182 20.5h501q99 0 155.5 16.5t84.5 46t59 91.5z" />
    <glyph glyph-name="Wgrave" unicode="&#x1e80;" horiz-adv-x="1988" 
d="M791 1829l284 -227h-127l-305 227h148zM1950 1505l-549 -1532h-8l-400 1235l-399 -1235h-8l-549 1532h117l436 -1245l399 1245h8l402 -1245l436 1245h115z" />
    <glyph glyph-name="wgrave" unicode="&#x1e81;" horiz-adv-x="1538" 
d="M563 1423l287 -237h-121l-311 237h145zM1511 1018l-415 -1038h-9l-317 813l-319 -813h-9l-417 1038h104l320 -815l317 815h8l316 -815l319 815h102z" />
    <glyph glyph-name="Wacute" unicode="&#x1e82;" horiz-adv-x="1988" 
d="M1335 1829l-307 -227h-125l283 227h149zM1950 1505l-549 -1532h-8l-400 1235l-399 -1235h-8l-549 1532h117l436 -1245l399 1245h8l402 -1245l436 1245h115z" />
    <glyph glyph-name="wacute" unicode="&#x1e83;" horiz-adv-x="1538" 
d="M1118 1423l-313 -237h-119l287 237h145zM1511 1018l-415 -1038h-9l-317 813l-319 -813h-9l-417 1038h104l320 -815l317 815h8l316 -815l319 815h102z" />
    <glyph glyph-name="Wdieresis" unicode="&#x1e84;" horiz-adv-x="1988" 
d="M840 1782q34 0 57 -23t23 -55q0 -34 -23 -56t-57 -22q-33 0 -55.5 22.5t-22.5 55.5q0 32 23 55t55 23zM1147 1782q32 0 56 -23t24 -55q0 -33 -23.5 -55.5t-56.5 -22.5t-55.5 22.5t-22.5 55.5q0 32 23 55t55 23zM1950 1505l-549 -1532h-8l-400 1235l-399 -1235h-8
l-549 1532h117l436 -1245l399 1245h8l402 -1245l436 1245h115z" />
    <glyph glyph-name="wdieresis" unicode="&#x1e85;" horiz-adv-x="1538" 
d="M614 1374q34 0 57 -23t23 -55q0 -33 -23 -55t-57 -22q-33 0 -55 22t-22 55q0 32 22.5 55t54.5 23zM922 1374q32 0 55.5 -23t23.5 -55q0 -33 -23 -55t-56 -22t-55.5 22t-22.5 55q0 32 23 55t55 23zM1511 1018l-415 -1038h-9l-317 813l-319 -813h-9l-417 1038h104l320 -815
l317 815h8l316 -815l319 815h102z" />
    <glyph glyph-name="Ygrave" unicode="&#x1ef2;" horiz-adv-x="1275" 
d="M434 1829l285 -227h-127l-305 227h147zM1255 1503l-565 -846v-657h-104v657l-566 846h123l494 -739l493 739h125z" />
    <glyph glyph-name="ygrave" unicode="&#x1ef3;" horiz-adv-x="1062" 
d="M319 1423l287 -237h-121l-311 237h145zM1024 1018l-696 -1489h-113l262 545l-438 944h104l387 -842l390 842h104z" />
    <glyph glyph-name="endash" unicode="&#x2013;" horiz-adv-x="1150" 
d="M1061 588v-94h-973v94h973z" />
    <glyph glyph-name="emdash" unicode="&#x2014;" horiz-adv-x="1650" 
d="M1563 588v-94h-1475v94h1475z" />
    <glyph glyph-name="quoteleft" unicode="&#x2018;" horiz-adv-x="333" 
d="M219 1509v-467q-15 -6 -31 -6q-43 0 -71.5 28t-28.5 71q0 21 14 49l109 325h8z" />
    <glyph glyph-name="quoteright" unicode="&#x2019;" horiz-adv-x="333" 
d="M145 1509q43 0 72 -27.5t29 -68.5q0 -16 -13 -51l-110 -326h-8v469q10 4 30 4z" />
    <glyph glyph-name="quotesinglbase" unicode="&#x201a;" horiz-adv-x="333" 
d="M145 168q43 0 72 -27.5t29 -68.5q0 -17 -13 -52l-110 -325h-8v469q10 4 30 4z" />
    <glyph glyph-name="quotedblleft" unicode="&#x201c;" horiz-adv-x="653" 
d="M539 1509v-467q-15 -6 -31 -6q-43 0 -70.5 28t-27.5 71q0 17 12 49l108 325h9zM219 1509v-467q-15 -6 -31 -6q-43 0 -71.5 28t-28.5 71q0 21 14 49l109 325h8z" />
    <glyph glyph-name="quotedblright" unicode="&#x201d;" horiz-adv-x="653" 
d="M467 1509q43 0 70.5 -27.5t27.5 -68.5q0 -19 -12 -51l-109 -326h-8v469q8 4 31 4zM145 1509q43 0 72 -27.5t29 -68.5q0 -16 -13 -51l-110 -326h-8v469q10 4 30 4z" />
    <glyph glyph-name="quotedblbase" unicode="&#x201e;" horiz-adv-x="653" 
d="M467 168q43 0 70.5 -27.5t27.5 -68.5q0 -20 -12 -52l-109 -325h-8v469q8 4 31 4zM145 168q43 0 72 -27.5t29 -68.5q0 -17 -13 -52l-110 -325h-8v469q10 4 30 4z" />
    <glyph glyph-name="dagger" unicode="&#x2020;" horiz-adv-x="999" 
d="M549 1505v-389h383v-94h-383v-1022h-100v1022h-381v94h381v389h100z" />
    <glyph glyph-name="daggerdbl" unicode="&#x2021;" horiz-adv-x="999" 
d="M549 1505v-389h383v-94h-383v-539h383v-94h-383v-389h-98v389h-383v94h383v539h-383v94h383v389h98z" />
    <glyph glyph-name="bullet" unicode="&#x2022;" horiz-adv-x="604" 
d="M301 745q95 0 156 -61t61 -156q0 -94 -61 -154.5t-156 -60.5q-94 0 -154.5 60.5t-60.5 154.5q0 95 60.5 156t154.5 61z" />
    <glyph glyph-name="ellipsis" unicode="&#x2026;" horiz-adv-x="1249" 
d="M209 172q42 0 69 -27t27 -69q0 -41 -27.5 -68.5t-68.5 -27.5t-69.5 27.5t-28.5 68.5t28.5 68.5t69.5 27.5zM625 172q42 0 69 -27t27 -69q0 -41 -27.5 -68.5t-68.5 -27.5t-69 27.5t-28 68.5t28 68.5t69 27.5zM1040 172q42 0 69.5 -27t27.5 -69q0 -41 -28 -68.5t-69 -27.5
t-68.5 27.5t-27.5 68.5t27.5 68.5t68.5 27.5z" />
    <glyph glyph-name="perthousand" unicode="&#x2030;" horiz-adv-x="2553" 
d="M406 1532q152 0 252 -107t100 -268t-100 -266t-252 -105q-153 0 -252 104.5t-99 266.5t99 268.5t252 106.5zM1395 1505l-994 -1505h-102l993 1505h103zM406 1450q-116 0 -191.5 -83t-75.5 -210q0 -125 76 -207t191 -82q116 0 191 82t75 207q0 128 -74.5 210.5
t-191.5 82.5zM1290 719q152 0 252 -106t100 -267q0 -162 -99.5 -266.5t-252.5 -104.5t-251.5 104.5t-98.5 266.5q0 161 99 267t251 106zM2099 719q151 0 250.5 -106t99.5 -267q0 -162 -99.5 -266.5t-250.5 -104.5q-154 0 -253 104t-99 267q0 162 99.5 267.5t252.5 105.5z
M1290 637q-115 0 -190.5 -82.5t-75.5 -208.5t75 -207.5t191 -81.5q117 0 193 81.5t76 207.5t-76 208.5t-193 82.5zM2099 637q-117 0 -192.5 -82.5t-75.5 -208.5t75.5 -207.5t192.5 -81.5q115 0 189.5 81.5t74.5 207.5t-74.5 208.5t-189.5 82.5z" />
    <glyph glyph-name="guilsinglleft" unicode="&#x2039;" horiz-adv-x="552" 
d="M483 938l-309 -414l309 -413h-102l-311 409v8l311 410h102z" />
    <glyph glyph-name="guilsinglright" unicode="&#x203a;" horiz-adv-x="552" 
d="M174 938l309 -410v-8l-309 -409h-104l309 413l-309 414h104z" />
    <glyph glyph-name="fraction" unicode="&#x2044;" horiz-adv-x="354" 
d="M596 1503l-746 -1503h-92l748 1503h90z" />
    <glyph glyph-name="zero.sups" unicode="&#x2070;" horiz-adv-x="778" 
d="M393 1681q147 0 227 -119t80 -325t-80 -326t-227 -120q-148 0 -229.5 120t-81.5 326t81 325t230 119zM393 1604q-110 0 -167.5 -98t-57.5 -269t57.5 -269t167.5 -98q108 0 165.5 98t57.5 269t-57.5 269t-165.5 98z" />
    <glyph glyph-name="four.sups" unicode="&#x2074;" horiz-adv-x="724" 
d="M545 1683v-628h135v-72h-135v-176h-84v178h-414v4l492 694h6zM463 1454l-277 -399h277v399z" />
    <glyph glyph-name="five.sups" unicode="&#x2075;" horiz-adv-x="712" 
d="M590 1665v-80h-369v-293q68 37 146 37q126 0 203 -74.5t77 -195.5q0 -114 -76 -191t-200 -77q-204 0 -281 182l72 37q28 -68 76.5 -104t128.5 -36q87 0 141.5 55t54.5 138t-55.5 136.5t-149.5 53.5q-91 0 -174 -57l-47 21v448h453z" />
    <glyph glyph-name="six.sups" unicode="&#x2076;" 
d="M360 1350q120 0 204.5 -80.5t84.5 -200.5t-84.5 -199t-204.5 -79t-203 79t-83 199q0 94 57 168l301 428h98l-225 -322q32 7 55 7zM360 864q86 0 145.5 58.5t59.5 146.5t-59.5 146.5t-145.5 58.5t-144 -58t-58 -147t58 -147t144 -58z" />
    <glyph glyph-name="seven.sups" unicode="&#x2077;" horiz-adv-x="712" 
d="M659 1665v-8l-466 -850h-95l437 778h-467v80h591z" />
    <glyph glyph-name="eight.sups" unicode="&#x2078;" 
d="M356 1681q102 0 174 -64t72 -161q0 -64 -34 -115.5t-89 -76.5q74 -32 119 -90t45 -130q0 -108 -83.5 -180.5t-203.5 -72.5t-203 72.5t-83 180.5q0 73 44 131.5t117 86.5q-55 27 -87.5 78t-32.5 116q0 97 72 161t173 64zM356 1608q-69 0 -117.5 -45t-48.5 -109
q0 -70 48 -115t118 -45t118 45t48 115q0 64 -48.5 109t-117.5 45zM356 1221q-85 0 -143.5 -51.5t-58.5 -127.5q0 -75 58.5 -125.5t143.5 -50.5t145 51t60 125q0 76 -60 127.5t-145 51.5z" />
    <glyph glyph-name="nine.sups" unicode="&#x2079;" 
d="M362 1681q120 0 203.5 -79t83.5 -199q0 -93 -55 -168l-303 -428h-98l227 321q-27 -6 -58 -6q-120 0 -204 80.5t-84 200.5t84 199t204 79zM362 1198q86 0 144.5 58.5t58.5 146.5t-58.5 146.5t-144.5 58.5t-145 -58.5t-59 -146.5t59 -146.5t145 -58.5z" />
    <glyph glyph-name="n.sups" unicode="&#x207f;" horiz-adv-x="849" 
d="M463 1524q127 0 198.5 -82t71.5 -219v-428h-88v424q0 99 -54 160t-145 61q-72 0 -123 -32t-100 -95v-518h-88v714h82v-100q101 115 246 115z" />
    <glyph glyph-name="Euro" unicode="&#x20ac;" horiz-adv-x="1335" 
d="M1188 225l63 -75q-87 -84 -191 -131.5t-253 -47.5q-229 0 -384.5 151.5t-201.5 416.5h-141v82h129q-6 61 -6 131q0 68 6 133h-129v82h141q44 265 197.5 415t382.5 150q153 0 255 -47.5t183 -128.5l-65 -74q-70 70 -155 112t-218 42q-182 0 -307 -124t-166 -345h532v-82
h-545q-6 -65 -6 -133q0 -70 6 -131h545v-82h-532q43 -220 170 -345.5t309 -125.5q129 0 217.5 42t163.5 115z" />
    <glyph glyph-name="afii61289" unicode="&#x2113;" horiz-adv-x="1196" 
d="M651 1536q137 0 210 -78t73 -205q0 -95 -35.5 -189.5t-106.5 -188t-147 -172.5t-186 -177v-209q0 -126 43 -188.5t164 -62.5q39 0 75.5 11.5t67 33.5t55 43.5t48.5 53t37 50.5t30 47.5t20 32.5l60 -43q-69 -121 -133 -186q-123 -127 -267 -127q-86 0 -145 26t-88.5 75
t-41 102.5t-11.5 123.5v148q-135 -121 -215 -183l-47 66q170 143 258 225v643q0 162 64.5 245t217.5 83zM651 1460q-105 0 -151.5 -60.5t-46.5 -185.5v-589q91 84 157 154.5t125 150.5t89 159.5t30 157.5q0 102 -52 157.5t-151 55.5z" />
    <glyph glyph-name="trademark" unicode="&#x2122;" horiz-adv-x="1642" 
d="M1563 1520v-785h-84v512l-293 -514h-6l-293 514v-512h-82v785h4l375 -639l375 639h4zM688 1505v-82h-282v-688h-82v688h-281v82h645z" />
    <glyph glyph-name="Omega" unicode="&#x2126;" horiz-adv-x="1757" 
d="M893 1532q151 0 277.5 -53.5t212.5 -147t134 -223t48 -279.5q0 -106 -24 -204t-60 -171t-90 -142.5t-102.5 -116t-108.5 -93.5h501v-102h-671v98q204 129 326 313.5t122 415.5q0 173 -66 308.5t-195.5 215t-303.5 79.5t-304 -79.5t-196.5 -215t-66.5 -308.5
q0 -231 122 -415.5t326 -313.5v-98h-672v102h504q-60 47 -108.5 93.5t-102.5 116t-90 142.5t-60 171t-24 204q0 150 47.5 279.5t133.5 223t212.5 147t278.5 53.5z" />
    <glyph glyph-name="estimated" unicode="&#x212e;" horiz-adv-x="1210" 
d="M631 1100q145 0 259 -61t181.5 -181.5t67.5 -282.5h-881v-325q0 -73 55 -111q135 -112 318 -112q286 0 465 264l39 -25q-85 -135 -213.5 -212t-290.5 -77q-154 0 -281.5 70.5t-202.5 200t-75 291.5q0 122 44 227.5t119.5 178t178 114t217.5 41.5zM631 1053
q-90 0 -176 -30t-138 -77q-59 -50 -59 -112v-209h700v219q0 47 -11 74.5t-40 48.5q-112 86 -276 86z" />
    <glyph glyph-name="partialdiff" unicode="&#x2202;" horiz-adv-x="1073" 
d="M500 1532q84 0 154 -27t121 -73.5t90.5 -114t64.5 -144t40.5 -169.5t22 -183.5t6.5 -191.5q0 -80 -1 -112.5t-6.5 -96.5t-20.5 -112t-41 -93q-60 -110 -162 -169.5t-229 -59.5q-199 0 -332 135.5t-133 341.5q0 208 132 344.5t329 136.5q236 0 362 -207q-20 699 -403 699
q-198 0 -310 -164l-69 63q62 86 159.5 141.5t225.5 55.5zM541 848q-159 0 -264 -108.5t-105 -276.5q0 -166 104.5 -273.5t264.5 -107.5q157 0 258.5 107.5t101.5 273.5q0 168 -101.5 276.5t-258.5 108.5z" />
    <glyph glyph-name="uni2206" unicode="&#x2206;" horiz-adv-x="1476" 
d="M739 1323l666 -1323h-1333zM739 1145l-538 -1067h1075z" />
    <glyph glyph-name="product" unicode="&#x220f;" horiz-adv-x="1445" 
d="M1374 1516v-93h-305v-1630h-90v1630h-512v-1630h-90v1630h-305v93h1302z" />
    <glyph glyph-name="summation" unicode="&#x2211;" horiz-adv-x="1249" 
d="M1153 1516v-97h-942l444 -637l-456 -686h979v-96h-1106v70l471 710l-465 666v70h1075z" />
    <glyph glyph-name="minus" unicode="&#x2212;" horiz-adv-x="940" 
d="M850 764v-94h-762v94h762z" />
    <glyph glyph-name="radical" unicode="&#x221a;" horiz-adv-x="1427" 
d="M1268 1419l80 -35l-588 -1527l-359 710l-270 -155l-43 69l363 213l307 -622z" />
    <glyph glyph-name="infinity" unicode="&#x221e;" horiz-adv-x="1495" 
d="M1112 905q142 0 231 -97t89 -241q0 -143 -89 -240.5t-231 -97.5q-43 0 -85.5 14t-73 31t-67.5 49t-55.5 51t-50.5 53q-8 9 -12 13l-49 52l-47 -54q-157 -176 -303 -176q-130 0 -207.5 86.5t-77.5 216.5q0 131 77.5 219t207.5 88q86 0 153 -46t148 -136l49 -55l35 43
q47 55 79 87.5t78 69t95.5 53.5t105.5 17zM1112 817q-45 0 -85 -15t-82 -51.5t-64 -60t-70 -78.5l-37 -49l47 -53q4 -4 30.5 -33.5t36 -39t35 -34.5t43 -35t43 -25t51 -20.5t52.5 -5.5q102 0 166.5 72.5t64.5 177.5q0 106 -64.5 178t-166.5 72zM369 788q-93 0 -148 -64
t-55 -159q0 -93 55 -155t148 -62q121 0 252 160l45 55l-48 58q-69 82 -125.5 124.5t-123.5 42.5z" />
    <glyph glyph-name="integral" unicode="&#x222b;" horiz-adv-x="888" 
d="M641 1536q127 0 205 -51l-23 -74q-74 43 -161 43q-170 0 -170 -246v-1259q0 -176 -63 -257t-189 -81q-135 0 -213 53l22 74q65 -45 172 -45q182 0 182 256v1259q0 171 59 249.5t179 78.5z" />
    <glyph glyph-name="approxequal" unicode="&#x2248;" horiz-adv-x="1241" 
d="M414 1061q60 0 110.5 -19.5t86 -47.5t70 -56.5t78 -48t93.5 -19.5q86 0 143.5 49t87.5 130l70 -43q-40 -105 -116.5 -166.5t-184.5 -61.5q-61 0 -111.5 19.5t-85.5 48t-69 56.5t-77.5 47.5t-94.5 19.5q-86 0 -144 -49.5t-88 -131.5l-69 46q40 105 116 166t185 61z
M389 666q60 0 111 -19.5t86.5 -48t70 -56.5t78.5 -47.5t94 -19.5q85 0 143 48t89 130l69 -45q-42 -104 -118 -165.5t-183 -61.5q-61 0 -111.5 20t-86 48t-69 56t-77.5 48t-96 20q-162 0 -231 -180l-70 45q42 105 118 166.5t183 61.5z" />
    <glyph glyph-name="notequal" unicode="&#x2260;" horiz-adv-x="940" 
d="M850 887h-268l-129 -340h397v-94h-432l-80 -207h-96l77 207h-231v94h268l129 340h-397v94h434l86 227h97l-87 -227h232v-94z" />
    <glyph glyph-name="lessequal" unicode="&#x2264;" horiz-adv-x="741" 
d="M653 1180l-426 -351l426 -348h-141l-424 344v9l424 346h141zM653 360v-92h-565v92h565z" />
    <glyph glyph-name="greaterequal" unicode="&#x2265;" horiz-adv-x="741" 
d="M229 1180l424 -346v-9l-424 -344h-141l426 348l-426 351h141zM653 360v-92h-565v92h565z" />
    <glyph glyph-name="lozenge" unicode="&#x25ca;" horiz-adv-x="1165" 
d="M633 1511l477 -823l-477 -821h-64l-479 821l479 823h64zM602 1374l-414 -686l414 -688l412 688z" />
    <glyph glyph-name="commaaccent" unicode="&#xf6c3;" horiz-adv-x="0" 
d="M-152 -117q42 0 69.5 -24.5t27.5 -65.5q0 -32 -17 -55l-100 -207h-8v348q8 4 28 4z" />
    <glyph glyph-name="CR" horiz-adv-x="512" 
 />
    <glyph glyph-name="germandbls.cap" horiz-adv-x="1312" 
d="M651 1532q282 0 463 -207l-319 -446q82 -11 155 -42.5t135 -84.5t98 -137t36 -189q0 -198 -132 -325.5t-342 -127.5q-174 0 -296 74l38 92q111 -67 258 -67q153 0 259 96.5t106 259.5q0 122 -63 207.5t-168 125.5t-242 40l-4 10l350 496q-122 125 -332 125
q-174 0 -284.5 -106t-110.5 -296v-1030h-104v1028q0 233 141 368.5t358 135.5z" />
    <glyph glyph-name="endash_guilsinglright" horiz-adv-x="1343" 
d="M680 1087l567 -516l-567 -516l-51 64l450 409h-983v86h985l-452 410z" />
    <glyph glyph-name="emdash_guilsinglright" horiz-adv-x="2019" 
d="M1356 1087l569 -516l-569 -516l-51 64l452 409h-1661v86h1661l-452 410z" />
    <glyph glyph-name="guilsinglleft_endash" horiz-adv-x="1343" 
d="M664 1087l51 -63l-453 -410h985v-86h-985l453 -409l-51 -64l-568 516z" />
    <glyph glyph-name="guilsinglleft_emdash" horiz-adv-x="2019" 
d="M664 1087l51 -63l-453 -410h1663v-86h-1663l453 -409l-51 -64l-568 516z" />
    <glyph glyph-name="at.cap" horiz-adv-x="1687" 
d="M844 1520q167 0 310.5 -58t245 -159t159 -243t57.5 -306q0 -207 -81.5 -330t-227.5 -123q-72 0 -115 35.5t-49 99.5l-2 10q-114 -145 -314 -145q-173 0 -284 125.5t-111 318.5q0 194 111 319.5t284 125.5q199 0 310 -137l2 118h82v-698q0 -90 92 -90q105 0 162 103
t57 268q0 145 -51.5 272t-141.5 217.5t-218.5 142.5t-276.5 52t-276 -52.5t-218 -144t-141 -218.5t-51 -273q0 -147 51 -274t140 -217t216.5 -141.5t274.5 -51.5t272 49l31 -76q-142 -57 -303 -57q-166 0 -309 57.5t-243.5 158.5t-158 244t-57.5 308q0 164 57.5 306.5
t159 244.5t245.5 160.5t310 58.5zM842 1108q-140 0 -231 -102t-91 -261q0 -160 91 -261t231 -101q99 0 168.5 41.5t124.5 116.5v409q-56 74 -125.5 116t-167.5 42z" />
    <glyph glyph-name="grave.cap" horiz-adv-x="524" 
d="M209 1829l285 -227h-127l-306 227h148z" />
    <glyph glyph-name="acute.cap" horiz-adv-x="524" 
d="M463 1829l-307 -227h-125l282 227h150z" />
    <glyph glyph-name="circumflex.cap" horiz-adv-x="684" 
d="M342 1880l293 -281h-109l-184 170l-186 -170h-109z" />
    <glyph glyph-name="caron.cap" horiz-adv-x="684" 
d="M635 1864l-293 -281l-295 281h109l186 -170l184 170h109z" />
    <glyph glyph-name="tilde.cap" horiz-adv-x="712" 
d="M223 1862q40 0 73.5 -19t56 -46t43 -54.5t45.5 -46.5t53 -19q96 0 96 170h76q0 -123 -49 -185.5t-128 -62.5q-41 0 -74 19t-55 45.5t-42 53.5t-44.5 46t-52.5 19q-54 0 -75 -45t-21 -125h-78q0 125 48.5 187.5t127.5 62.5z" />
    <glyph glyph-name="dieresis.cap" horiz-adv-x="559" 
d="M125 1782q34 0 57 -23t23 -55q0 -34 -23 -56t-57 -22q-33 0 -55.5 22.5t-22.5 55.5q0 32 23 55t55 23zM432 1782q32 0 56 -23t24 -55q0 -33 -23.5 -55.5t-56.5 -22.5t-55.5 22.5t-22.5 55.5q0 32 23 55t55 23z" />
    <glyph glyph-name="macron.cap" horiz-adv-x="598" 
d="M549 1720v-80h-502v80h502z" />
    <glyph glyph-name="breve.cap" horiz-adv-x="665" 
d="M618 1870q0 -115 -81 -191.5t-203 -76.5q-123 0 -205 76.5t-82 191.5h80q0 -80 59 -133.5t148 -53.5t147 53.5t58 133.5h79z" />
    <glyph glyph-name="ring.cap" horiz-adv-x="491" 
d="M246 1991q85 0 141.5 -56t56.5 -141q0 -84 -56.5 -139.5t-141.5 -55.5t-142 55.5t-57 139.5q0 85 57 141t142 56zM246 1921q-54 0 -90.5 -36.5t-36.5 -90.5t36.5 -88.5t90.5 -34.5t90.5 34.5t36.5 88.5t-36.5 90.5t-90.5 36.5z" />
    <glyph glyph-name="hungarumlaut.cap" 
d="M467 1847l-236 -239h-88l217 239h107zM764 1847l-236 -239h-90l217 239h109z" />
    <glyph glyph-name="dotaccent.cap" horiz-adv-x="260" 
d="M129 1765q33 0 56.5 -23t23.5 -56q0 -32 -24 -55t-56 -23q-33 0 -55.5 22.5t-22.5 55.5q0 34 22 56.5t56 22.5z" />
    <glyph glyph-name="parenleft.cap" horiz-adv-x="555" 
d="M412 1602l71 -60q-56 -70 -100 -140.5t-88 -168.5t-68 -221t-24 -260t24 -260.5t68 -221.5t88 -168.5t100 -140.5l-71 -59q-306 369 -306 850t306 850z" />
    <glyph glyph-name="parenright.cap" horiz-adv-x="555" 
d="M143 1602q306 -369 306 -850t-306 -850l-71 59q56 70 100 140.5t88 168.5t68 221.5t24 260.5t-24 260t-68 221t-88 168.5t-100 140.5z" />
    <glyph glyph-name="bracketleft.cap" horiz-adv-x="598" 
d="M526 1632v-90h-315v-1581h315v-90h-413v1761h413z" />
    <glyph glyph-name="bracketright.cap" horiz-adv-x="618" 
d="M506 1632v-1761h-434v90h334v1581h-334v90h434z" />
    <glyph glyph-name="braceleft.cap" horiz-adv-x="694" 
d="M623 1632v-90q-60 0 -108.5 -15.5t-89 -49.5t-59.5 -98.5t-12 -153.5l21 -228q9 -102 -20.5 -157.5t-102.5 -87.5q73 -32 102.5 -88t20.5 -158l-21 -227q-7 -89 12 -153.5t59.5 -99t89 -50t108.5 -15.5v-90q-86 0 -155 23t-121.5 71t-76 132t-12.5 198l21 225
q9 97 -43.5 148.5t-169.5 79.5v8q117 28 169.5 79t43.5 148l-21 225q-11 114 12.5 198t76 132t121.5 71t155 23z" />
    <glyph glyph-name="braceright.cap" horiz-adv-x="694" 
d="M72 1632q86 0 155 -23t122 -71t76.5 -132t12.5 -198l-22 -225q-10 -97 43 -148t170 -79v-8q-117 -28 -170 -79.5t-43 -148.5l22 -225q11 -114 -12.5 -198t-76.5 -132t-122 -71t-155 -23v90q60 0 108.5 15.5t88.5 50t58.5 99t10.5 153.5l-19 227q-9 102 20 158.5t103 87.5
q-74 31 -103 87t-20 158l19 228q8 89 -10.5 153.5t-58.5 98.5t-88.5 49.5t-108.5 15.5v90z" />
    <glyph glyph-name="guilsinglleft.cap" horiz-adv-x="559" 
d="M489 1180l-315 -455l315 -455h-102l-317 451v8l317 451h102z" />
    <glyph glyph-name="guilsinglright.cap" horiz-adv-x="559" 
d="M174 1180l315 -451v-8l-315 -451h-104l317 455l-317 455h104z" />
    <glyph glyph-name="guillemotleft.cap" horiz-adv-x="980" 
d="M489 1180l-315 -455l315 -455h-102l-317 451v8l317 451h102zM911 1180l-317 -455l317 -455h-104l-315 451v8l315 451h104z" />
    <glyph glyph-name="guillemotright.cap" horiz-adv-x="980" 
d="M174 1180l315 -451v-8l-315 -451h-104l317 455l-317 455h104zM594 1180l317 -451v-8l-317 -451h-102l315 455l-315 455h102z" />
    <glyph glyph-name="exclamdown.cap" horiz-adv-x="471" 
d="M238 1352q-37 0 -62.5 24.5t-25.5 61.5q0 38 25.5 63t62.5 25q38 0 63 -25t25 -63q0 -37 -25 -61.5t-63 -24.5zM190 0v1128h99v-1128h-99z" />
    <glyph glyph-name="questiondown.cap" horiz-adv-x="933" 
d="M477 1352q-37 0 -62.5 24.5t-25.5 61.5q0 38 25.5 63t62.5 25q38 0 62 -25t24 -63q0 -37 -24 -61.5t-62 -24.5zM481 -27q-176 0 -285.5 110t-109.5 284q0 69 19 129t48.5 102.5t66 80t73 71t66 67t48.5 75.5t19 89v147h102v-155q0 -56 -18.5 -104.5t-48 -85t-65 -71.5
t-71.5 -70t-65.5 -73.5t-48 -90t-18.5 -111.5q0 -139 81 -218t209 -79q121 0 198.5 65.5t106.5 190.5l101 -21q-36 -158 -140 -245t-268 -87z" />
    <glyph glyph-name="endash.cap" horiz-adv-x="1150" 
d="M1061 778v-96h-973v96h973z" />
    <glyph glyph-name="periodcentered.cap" horiz-adv-x="350" 
d="M174 811q37 0 61.5 -24.5t24.5 -61.5q0 -35 -24.5 -59.5t-61.5 -24.5t-61.5 24.5t-24.5 59.5q0 37 24.5 61.5t61.5 24.5z" />
    <glyph glyph-name="emdash.cap" horiz-adv-x="1650" 
d="M1563 778v-96h-1475v96h1475z" />
    <glyph glyph-name="hyphen.cap" horiz-adv-x="790" 
d="M702 778v-96h-614v96h614z" />
    <glyph glyph-name="zero.dnom" horiz-adv-x="784" 
d="M393 874q147 0 227 -119t80 -325t-80 -326t-227 -120q-148 0 -229.5 120t-81.5 326t81 325t230 119zM393 797q-110 0 -167.5 -98t-57.5 -269t57.5 -269t167.5 -98q108 0 165.5 98t57.5 269t-57.5 269t-165.5 98z" />
    <glyph glyph-name="one.dnom" horiz-adv-x="507" 
d="M371 874v-874h-86v723l-176 -125l-46 72l304 204h4z" />
    <glyph glyph-name="two.dnom" horiz-adv-x="714" 
d="M362 874q116 0 188.5 -68.5t72.5 -180.5q0 -80 -28.5 -142t-92.5 -135l-234 -268h369v-80h-522v8l319 387q57 65 81 116t24 114q0 78 -50 125t-127 47q-147 0 -182 -152l-78 17q45 212 260 212z" />
    <glyph glyph-name="three.dnom" horiz-adv-x="710" 
d="M360 874q110 0 180 -66t70 -169q0 -138 -131 -188q77 -26 122.5 -80.5t45.5 -130.5q0 -114 -75.5 -185t-198.5 -71q-115 0 -182.5 50t-104.5 146l76 23q31 -68 78.5 -104t132.5 -36q84 0 136 50t52 131q0 73 -58 122.5t-149 49.5h-100v69h104q70 0 119 39.5t49 114.5
q0 70 -47 114t-121 44q-133 0 -184 -131l-76 32q69 176 262 176z" />
    <glyph glyph-name="four.dnom" horiz-adv-x="731" 
d="M545 877v-629h135v-72h-135v-176h-84v178h-414v4l492 695h6zM463 647l-277 -399h277v399z" />
    <glyph glyph-name="five.dnom" 
d="M590 858v-80h-369v-293q68 37 146 37q126 0 203 -74t77 -196q0 -114 -76 -191t-200 -77q-204 0 -281 182l72 37q28 -68 76.5 -104t128.5 -36q87 0 141.5 55t54.5 138t-55.5 136.5t-149.5 53.5q-91 0 -174 -57l-47 21v448h453z" />
    <glyph glyph-name="six.dnom" horiz-adv-x="724" 
d="M360 543q120 0 204.5 -80.5t84.5 -200.5t-84.5 -199t-204.5 -79t-203 79t-83 199q0 94 57 168l301 428h98l-225 -321q24 6 55 6zM360 57q86 0 145.5 58.5t59.5 146.5t-59.5 146.5t-145.5 58.5t-144 -58.5t-58 -146.5t58 -146.5t144 -58.5z" />
    <glyph glyph-name="seven.dnom" 
d="M659 858v-8l-466 -850h-95l437 778h-467v80h591z" />
    <glyph glyph-name="eight.dnom" horiz-adv-x="722" 
d="M356 874q102 0 174 -64t72 -161q0 -64 -34 -115.5t-89 -76.5q74 -32 119 -89.5t45 -129.5q0 -108 -83.5 -181t-203.5 -73q-119 0 -202.5 73t-83.5 181q0 73 44 131t117 86q-55 27 -87.5 78t-32.5 116q0 97 72 161t173 64zM356 801q-69 0 -117.5 -45t-48.5 -109
q0 -70 48 -115t118 -45t118 45t48 115q0 64 -48.5 109t-117.5 45zM356 414q-85 0 -143.5 -51t-58.5 -127q0 -75 58.5 -126t143.5 -51t145 51t60 126q0 76 -59.5 127t-145.5 51z" />
    <glyph glyph-name="nine.dnom" horiz-adv-x="724" 
d="M362 874q120 0 203.5 -79t83.5 -199q0 -93 -55 -168l-303 -428h-98l227 322q-32 -7 -58 -7q-120 0 -204 80.5t-84 200.5t84 199t204 79zM362 391q86 0 144.5 58.5t58.5 146.5t-58.5 146.5t-144.5 58.5t-145 -58.5t-59 -146.5t59 -146.5t145 -58.5z" />
    <glyph glyph-name="zero.numr" horiz-adv-x="778" 
d="M393 1518q147 0 227 -119.5t80 -325.5t-80 -326t-227 -120q-148 0 -229.5 120t-81.5 326t81 325.5t230 119.5zM393 1440q-110 0 -167.5 -98t-57.5 -269t57.5 -268.5t167.5 -97.5q108 0 165.5 97.5t57.5 268.5t-57.5 269t-165.5 98z" />
    <glyph glyph-name="one.numr" horiz-adv-x="501" 
d="M371 1518v-875h-86v723l-176 -125l-46 72l304 205h4z" />
    <glyph glyph-name="two.numr" horiz-adv-x="708" 
d="M362 1518q116 0 188.5 -69t72.5 -181q0 -80 -28.5 -142t-92.5 -135l-234 -268h369v-80h-522v8l319 387q57 65 81 116t24 114q0 78 -50 125t-127 47q-147 0 -182 -152l-78 17q45 213 260 213z" />
    <glyph glyph-name="three.numr" horiz-adv-x="702" 
d="M360 1518q110 0 180 -66.5t70 -169.5q0 -138 -131 -188q77 -26 122.5 -80.5t45.5 -130.5q0 -114 -75.5 -185t-198.5 -71q-115 0 -182.5 50t-104.5 146l76 23q31 -68 78.5 -103.5t132.5 -35.5q84 0 136 49.5t52 130.5q0 73 -58 122.5t-149 49.5h-100v69h104q70 0 119 39.5
t49 114.5q0 70 -47 114t-121 44q-133 0 -184 -131l-76 32q70 177 262 177z" />
    <glyph glyph-name="four.numr" horiz-adv-x="724" 
d="M545 1520v-629h135v-72h-135v-176h-84v178h-414v4l492 695h6zM463 1290l-277 -399h277v399z" />
    <glyph glyph-name="five.numr" horiz-adv-x="712" 
d="M590 1501v-80h-369v-293q68 37 146 37q126 0 203 -74.5t77 -195.5q0 -114 -76 -191t-200 -77q-204 0 -281 182l72 37q28 -68 76.5 -103.5t128.5 -35.5q87 0 141.5 54.5t54.5 137.5t-56 137t-149 54q-90 0 -174 -58l-47 21v448h453z" />
    <glyph glyph-name="six.numr" 
d="M360 1186q120 0 204.5 -80.5t84.5 -200.5t-84.5 -199t-204.5 -79t-203 79t-83 199q0 94 57 168l301 428h98l-225 -321q27 6 55 6zM360 700q86 0 145.5 58.5t59.5 146.5t-59.5 146.5t-145.5 58.5t-144 -58t-58 -147t58 -147t144 -58z" />
    <glyph glyph-name="seven.numr" horiz-adv-x="712" 
d="M659 1501v-8l-466 -850h-95l437 778h-467v80h591z" />
    <glyph glyph-name="eight.numr" 
d="M356 1518q101 0 173.5 -64.5t72.5 -161.5q0 -64 -34 -115.5t-89 -76.5q74 -32 119 -89.5t45 -129.5q0 -108 -83.5 -181t-203.5 -73q-119 0 -202.5 73t-83.5 181q0 73 44 131t117 86q-55 27 -87.5 78t-32.5 116q0 97 72 161.5t173 64.5zM356 1444q-69 0 -117.5 -45
t-48.5 -109q0 -70 48 -115t118 -45t118 45t48 115q0 64 -48.5 109t-117.5 45zM356 1057q-85 0 -143.5 -51t-58.5 -127q0 -75 58.5 -126t143.5 -51t145 51t60 126q0 76 -59.5 127t-145.5 51z" />
    <glyph glyph-name="nine.numr" 
d="M362 1518q120 0 203.5 -79.5t83.5 -199.5q0 -93 -55 -168l-303 -428h-98l227 322q-31 -7 -58 -7q-120 0 -204 80.5t-84 200.5t84 199.5t204 79.5zM362 1034q86 0 144.5 58.5t58.5 146.5t-58.5 146.5t-144.5 58.5t-145 -58.5t-59 -146.5t59 -146.5t145 -58.5z" />
    <glyph glyph-name="zero.subs" horiz-adv-x="778" 
d="M393 670q147 0 227 -119.5t80 -325.5t-80 -326t-227 -120q-148 0 -229.5 120t-81.5 326t81 325.5t230 119.5zM393 592q-110 0 -167.5 -98t-57.5 -269t57.5 -268.5t167.5 -97.5q108 0 165.5 97.5t57.5 268.5t-57.5 269t-165.5 98z" />
    <glyph glyph-name="one.subs" horiz-adv-x="501" 
d="M371 670v-875h-86v723l-176 -125l-46 72l304 205h4z" />
    <glyph glyph-name="two.subs" horiz-adv-x="708" 
d="M362 670q116 0 188.5 -69t72.5 -181q0 -80 -28.5 -142t-92.5 -135l-234 -268h369v-80h-522v8l319 387q57 65 81 116t24 114q0 78 -50 125t-127 47q-147 0 -182 -152l-78 17q45 213 260 213z" />
    <glyph glyph-name="three.subs" horiz-adv-x="702" 
d="M360 670q110 0 180 -66.5t70 -169.5q0 -138 -131 -188q77 -26 122.5 -80.5t45.5 -130.5q0 -114 -75.5 -185t-198.5 -71q-115 0 -182.5 50t-104.5 146l76 23q31 -68 78.5 -103.5t132.5 -35.5q84 0 136 49.5t52 130.5q0 73 -58 122.5t-149 49.5h-100v70h104q70 0 119 39
t49 114q0 70 -47 114t-121 44q-133 0 -184 -131l-76 33q69 176 262 176z" />
    <glyph glyph-name="four.subs" horiz-adv-x="724" 
d="M545 672v-629h135v-72h-135v-176h-84v178h-414v4l492 695h6zM463 442l-277 -399h277v399z" />
    <glyph glyph-name="five.subs" horiz-adv-x="712" 
d="M590 653v-80h-369v-292q67 36 146 36q126 0 203 -74.5t77 -195.5q0 -114 -76 -191t-200 -77q-204 0 -281 182l72 37q28 -68 76.5 -103.5t128.5 -35.5q87 0 141.5 54.5t54.5 137.5t-56 137t-149 54q-90 0 -174 -58l-47 21v448h453z" />
    <glyph glyph-name="six.subs" 
d="M360 338q120 0 204.5 -80.5t84.5 -200.5t-84.5 -199t-204.5 -79t-203 79t-83 199q0 94 57 168l301 428h98l-225 -321q27 6 55 6zM360 -147q86 0 145.5 58t59.5 146t-59.5 146.5t-145.5 58.5t-144 -58t-58 -147q0 -88 58 -146t144 -58z" />
    <glyph glyph-name="seven.subs" horiz-adv-x="712" 
d="M659 653v-8l-466 -850h-95l437 778h-467v80h591z" />
    <glyph glyph-name="eight.subs" 
d="M356 670q101 0 173.5 -64.5t72.5 -161.5q0 -64 -34 -115.5t-89 -76.5q74 -32 119 -89.5t45 -129.5q0 -108 -83.5 -181t-203.5 -73q-119 0 -202.5 73t-83.5 181q0 73 44 131t117 86q-55 27 -87.5 78t-32.5 116q0 97 72 161.5t173 64.5zM356 596q-69 0 -117.5 -45
t-48.5 -109q0 -69 48 -114t118 -45t118 45t48 114q0 64 -48.5 109t-117.5 45zM356 209q-85 0 -143.5 -51t-58.5 -127q0 -75 58.5 -125.5t143.5 -50.5t145 51t60 125q0 76 -59.5 127t-145.5 51z" />
    <glyph glyph-name="nine.subs" 
d="M362 670q120 0 203.5 -79.5t83.5 -199.5q0 -93 -55 -168l-303 -428h-98l227 322q-27 -6 -58 -6q-120 0 -204 80t-84 200t84 199.5t204 79.5zM362 186q86 0 144.5 58.5t58.5 146.5t-58.5 146.5t-144.5 58.5t-145 -58.5t-59 -146.5t59 -146.5t145 -58.5z" />
    <glyph glyph-name="zero.lnum" horiz-adv-x="1228" 
d="M614 1532q245 0 377.5 -208t132.5 -570q0 -364 -132.5 -572.5t-377.5 -208.5t-377.5 208.5t-132.5 572.5q0 362 132.5 570t377.5 208zM614 1436q-197 0 -301 -181.5t-104 -500.5q0 -320 104 -502t301 -182t301.5 182t104.5 502q0 318 -104.5 500t-301.5 182z" />
    <glyph glyph-name="one.lnum" horiz-adv-x="1228" 
d="M752 1532v-1436h313v-96h-733v96h317v1241l-399 -293l-53 89l546 399h9z" />
    <glyph glyph-name="two.lnum" horiz-adv-x="1228" 
d="M602 1532q183 0 301.5 -117.5t118.5 -304.5q0 -149 -48.5 -260t-160.5 -242l-428 -512h662v-96h-857v12l545 658q100 123 141.5 219t41.5 223q0 150 -89 237t-227 87q-137 0 -217.5 -69t-112.5 -212l-94 21q37 173 143.5 264.5t280.5 91.5z" />
    <glyph glyph-name="three.lnum" horiz-adv-x="1228" 
d="M594 1532q177 0 290 -109.5t113 -289.5q0 -249 -231 -334q137 -43 216 -143.5t79 -239.5q0 -199 -123 -321t-322 -122q-96 0 -172.5 23t-132 67.5t-95.5 100.5t-73 133l95 31q55 -125 142 -191.5t236 -66.5q152 0 247 95.5t95 252.5q0 143 -105.5 238.5t-270.5 95.5h-170
v88h176q60 1 113.5 18.5t97.5 51.5t70 91.5t26 131.5q0 137 -85 220t-216 83q-238 0 -338 -246l-90 39q121 303 428 303z" />
    <glyph glyph-name="four.lnum" horiz-adv-x="1228" 
d="M883 1509v-1067h239v-96h-239v-346h-103v346h-667v8l759 1155h11zM782 1206l-495 -764h495v764z" />
    <glyph glyph-name="five.lnum" horiz-adv-x="1228" 
d="M981 1505v-96h-629v-578q125 70 269 70q208 0 333 -129t125 -332q0 -128 -54 -233.5t-158 -169.5t-238 -64q-93 0 -167.5 22t-129 65.5t-93 97.5t-71.5 127l92 41q50 -123 135 -189.5t230 -66.5q155 0 252.5 106t97.5 266q0 162 -99 264.5t-264 102.5q-166 0 -313 -109
l-49 21v784h731z" />
    <glyph glyph-name="six.lnum" horiz-adv-x="1228" 
d="M612 940q196 0 332.5 -137.5t136.5 -345.5q0 -209 -136.5 -346.5t-332.5 -137.5t-332.5 137.5t-136.5 346.5q0 157 90 291l519 757h118l-397 -585q68 20 139 20zM612 70q153 0 260 109.5t107 277.5q0 167 -107 278t-260 111q-154 0 -259 -111t-105 -278
q0 -168 105 -277.5t259 -109.5z" />
    <glyph glyph-name="seven.lnum" horiz-adv-x="1228" 
d="M1124 1505v-12l-792 -1493h-115l754 1409h-815v96h968z" />
    <glyph glyph-name="eight.lnum" horiz-adv-x="1228" 
d="M612 1532q165 0 280.5 -108.5t115.5 -272.5q0 -119 -58.5 -212t-154.5 -138q129 -47 208.5 -152.5t79.5 -240.5q0 -185 -137.5 -310t-333.5 -125q-195 0 -331 124.5t-136 310.5q0 136 78.5 242t206.5 151q-96 45 -153.5 138t-57.5 212q0 164 114.5 272.5t278.5 108.5z
M612 1436q-123 0 -209 -82.5t-86 -206.5q0 -131 86 -218t209 -87q124 0 210.5 87t86.5 218q0 125 -86 207t-211 82zM612 748q-152 0 -258 -97.5t-106 -242.5t106 -241.5t258 -96.5q154 0 260.5 96.5t106.5 241.5t-106.5 242.5t-260.5 97.5z" />
    <glyph glyph-name="nine.lnum" horiz-adv-x="1228" 
d="M614 1532q196 0 332.5 -137t136.5 -346q0 -157 -90 -291l-518 -758h-119l398 586q-72 -21 -140 -21q-196 0 -332.5 138t-136.5 346q0 209 136.5 346t332.5 137zM614 659q154 0 259.5 111.5t105.5 278.5q0 168 -105.5 277.5t-259.5 109.5q-153 0 -259.5 -109.5
t-106.5 -277.5q0 -167 106.5 -278.5t259.5 -111.5z" />
    <glyph glyph-name="zero.tnum" horiz-adv-x="1193" 
d="M598 1167q144 0 260.5 -77.5t182 -214t65.5 -304.5q0 -256 -144 -423.5t-364 -167.5q-147 0 -264 76t-182.5 211t-65.5 304q0 168 65.5 304.5t183 214t263.5 77.5zM598 1075q-178 0 -294 -143.5t-116 -360.5q0 -218 115.5 -358.5t294.5 -140.5q176 0 292 141t116 358
t-115.5 360.5t-292.5 143.5z" />
    <glyph glyph-name="one.tnum" 
d="M539 1167v-1167h-103v971l-323 -256l-52 90l469 362h9z" />
    <glyph glyph-name="two.tnum" horiz-adv-x="1077" 
d="M553 1167q177 0 289 -106t112 -281q0 -51 -8.5 -96t-29.5 -84.5t-39 -68t-54.5 -64t-58.5 -55t-66 -56.5l-309 -260h610v-96h-849v12l464 404q106 89 137 123q97 110 99 237q0 143 -82.5 219t-218.5 76q-100 0 -168 -43t-115 -131l-84 45q118 225 371 225z" />
    <glyph glyph-name="three.tnum" horiz-adv-x="1073" 
d="M551 1167q176 0 289.5 -107t113.5 -280q0 -242 -233 -323q138 -42 217.5 -140t79.5 -233q0 -193 -123 -311.5t-322 -118.5q-96 0 -172.5 22.5t-132 66t-94.5 97.5t-72 127l93 33q54 -121 141 -185.5t237 -64.5q153 0 247.5 91.5t94.5 244.5q0 138 -105.5 230t-270.5 92
h-170v88h176q127 0 217 72t90 210q0 133 -85 213t-218 80q-236 0 -336 -237l-90 38q121 295 428 295z" />
    <glyph glyph-name="four.tnum" horiz-adv-x="1095" 
d="M819 1167v-1034h238v-94h-238v-336h-102v336h-670v6l762 1122h10zM717 870l-492 -737h492v737z" />
    <glyph glyph-name="five.tnum" horiz-adv-x="1081" 
d="M915 1145v-94h-630v-559q126 67 268 67q208 0 333.5 -125t125.5 -323q0 -191 -124 -322t-327 -131q-181 0 -287.5 78t-171.5 225l88 39q55 -119 139 -182.5t228 -63.5q155 0 253.5 103t98.5 258q0 156 -99 255t-263 99q-168 0 -316 -104l-49 18v762h733z" />
    <glyph glyph-name="six.tnum" horiz-adv-x="1087" 
d="M543 913q128 0 235.5 -60.5t170.5 -169t63 -241.5q0 -134 -63.5 -242t-170.5 -167.5t-235 -59.5t-235 59.5t-170.5 167.5t-63.5 242q0 153 82 271l526 747h123l-397 -565q64 18 135 18zM543 68q153 0 259.5 106t106.5 268t-106.5 269.5t-259.5 107.5q-154 0 -259.5 -107
t-105.5 -270q0 -162 105.5 -268t259.5 -106z" />
    <glyph glyph-name="seven.tnum" horiz-adv-x="1081" 
d="M1030 1147v-12l-792 -1448h-115l749 1364h-811v96h969z" />
    <glyph glyph-name="eight.tnum" horiz-adv-x="1087" 
d="M532 1487q166 0 281 -105.5t115 -265.5q0 -116 -58 -206t-153 -134q128 -45 207.5 -147.5t79.5 -233.5q0 -118 -64 -215.5t-172 -152t-236 -54.5q-127 0 -233.5 54.5t-169.5 151.5t-63 216q0 131 78.5 234t205.5 147q-96 44 -153.5 134t-57.5 206q0 159 115 265t278 106z
M532 1393q-123 0 -208.5 -80t-85.5 -199q0 -128 85.5 -212.5t208.5 -84.5q124 0 210.5 84.5t86.5 212.5q0 119 -86.5 199t-210.5 80zM532 723q-152 0 -258 -94t-106 -234t106 -233.5t258 -93.5q154 0 261.5 93.5t107.5 233.5t-107.5 234t-261.5 94z" />
    <glyph glyph-name="nine.tnum" horiz-adv-x="1087" 
d="M545 1167q196 0 331.5 -133t135.5 -336q0 -157 -82 -270l-524 -747h-123l395 565q-68 -19 -133 -19q-128 0 -236 60.5t-171.5 169t-63.5 241.5q0 134 64 242t171.5 167.5t235.5 59.5zM545 322q153 0 258.5 107t105.5 269t-105.5 268.5t-258.5 106.5q-154 0 -261.5 -106.5
t-107.5 -268.5t107.5 -269t261.5 -107z" />
    <glyph glyph-name="a.sups" horiz-adv-x="860" 
d="M389 1524q162 0 254 -113l2 98h82v-714h-82l-2 100q-90 -115 -254 -115q-144 0 -237 104.5t-93 266.5t93 267.5t237 105.5zM406 1446q-113 0 -186 -83t-73 -212q0 -128 73 -209.5t186 -81.5q81 0 136 33t97 94v330q-91 129 -233 129z" />
    <glyph glyph-name="b.sups" horiz-adv-x="860" 
d="M223 1884v-469q92 109 248 109q144 0 237 -105.5t93 -267.5t-93 -266.5t-237 -104.5q-160 0 -254 115v-100h-82v1089h88zM457 1446q-143 0 -234 -129v-330q88 -127 234 -127q113 0 184.5 81t71.5 210t-72 212t-184 83z" />
    <glyph glyph-name="c.sups" horiz-adv-x="749" 
d="M414 1524q181 0 291 -152l-66 -49q-87 123 -225 123q-127 0 -197 -81.5t-70 -211.5q0 -131 71 -212t200 -81q78 0 135.5 34.5t91.5 88.5l66 -51q-109 -152 -293 -152q-166 0 -262.5 103.5t-96.5 269.5q0 164 95 267.5t260 103.5z" />
    <glyph glyph-name="d.sups" horiz-adv-x="860" 
d="M727 1884v-1089h-82l-2 100q-90 -115 -254 -115q-144 0 -237 104.5t-93 266.5t93 267.5t237 105.5q154 0 250 -109v469h88zM406 1446q-113 0 -186 -83t-73 -212q0 -128 73 -209.5t186 -81.5q81 0 136 33t97 94v330q-91 129 -233 129z" />
    <glyph glyph-name="e.sups" horiz-adv-x="786" 
d="M399 1524q152 0 239 -103t87 -262v-35h-578q5 -123 75 -195.5t196 -72.5q144 0 231 107l62 -52q-106 -131 -293 -131q-167 0 -263 103t-96 268q0 163 94 268t246 105zM397 1450q-106 0 -175 -72t-75 -186h492q-6 114 -70.5 186t-171.5 72z" />
    <glyph glyph-name="f.sups" horiz-adv-x="516" 
d="M397 1884q89 0 150 -55l-41 -68q-40 43 -105 43q-62 0 -97.5 -43t-35.5 -112v-140h211v-77h-211v-637h-88v637h-135v77h135v136q0 104 59.5 171.5t157.5 67.5z" />
    <glyph glyph-name="g.sups" horiz-adv-x="862" 
d="M389 1524q162 0 254 -113l2 98h82v-704q0 -164 -95 -259t-255 -95q-193 0 -311 147l59 55q95 -123 252 -123q120 0 191 73.5t71 199.5v92q-96 -109 -250 -109q-144 0 -237 104.5t-93 264.5q0 161 92.5 265t237.5 104zM406 1448q-113 0 -186 -82t-73 -211q0 -127 73 -209
t186 -82q143 0 233 127v328q-91 129 -233 129z" />
    <glyph glyph-name="h.sups" horiz-adv-x="849" 
d="M223 1884v-475q39 48 99.5 81.5t140.5 33.5q127 0 198.5 -82t71.5 -219v-428h-88v424q0 99 -54 160t-145 61q-72 0 -123 -32t-100 -95v-518h-88v1089h88z" />
    <glyph glyph-name="i.sups" horiz-adv-x="356" 
d="M178 1810q29 0 48.5 -19t19.5 -48t-19.5 -48.5t-48.5 -19.5t-47 19t-18 49q0 29 18 48t47 19zM221 1509v-714h-86v714h86z" />
    <glyph glyph-name="j.sups" horiz-adv-x="364" 
d="M186 1810q29 0 48.5 -19t19.5 -48t-19.5 -48.5t-48.5 -19.5t-47 19t-18 49q0 29 18 48t47 19zM229 1509v-827q0 -104 -72.5 -167.5t-187.5 -63.5v79q76 0 124 41.5t48 104.5v833h88z" />
    <glyph glyph-name="k.sups" horiz-adv-x="761" 
d="M223 1884v-930l361 555h104l-217 -325l264 -389h-102l-217 315l-209 -315h-72v1089h88z" />
    <glyph glyph-name="l.sups" horiz-adv-x="358" 
d="M223 1884v-1089h-88v1089h88z" />
    <glyph glyph-name="m.sups" horiz-adv-x="1331" 
d="M954 1524q121 0 190.5 -82t69.5 -219v-428h-86v424q0 99 -52.5 160t-139.5 61q-69 0 -122 -33.5t-101 -99.5q6 -37 6 -76v-436h-88v424q0 99 -52 160t-139 61q-126 0 -217 -125v-520h-88v714h82v-98q97 113 242 113q79 0 138.5 -37.5t90.5 -104.5q100 142 266 142z" />
    <glyph glyph-name="o.sups" horiz-adv-x="837" 
d="M420 1524q155 0 255.5 -106.5t100.5 -266.5q0 -161 -100.5 -266t-255.5 -105q-158 0 -259.5 104.5t-101.5 266.5q0 161 102 267t259 106zM420 1446q-120 0 -196.5 -83.5t-76.5 -211.5t76.5 -209.5t196.5 -81.5q117 0 193.5 82t76.5 209q0 128 -76.5 211.5t-193.5 83.5z
" />
    <glyph glyph-name="p.sups" horiz-adv-x="860" 
d="M471 1524q144 0 237 -104.5t93 -266.5t-93 -267.5t-237 -105.5q-160 0 -248 109v-424h-88v1044h82v-100q98 115 254 115zM457 1446q-143 0 -234 -129v-330q88 -127 234 -127q113 0 184.5 82t71.5 211t-71.5 211t-184.5 82z" />
    <glyph glyph-name="q.sups" horiz-adv-x="860" 
d="M389 1524q161 0 254 -115l2 100h82v-1044h-88v424q-93 -109 -250 -109q-144 0 -237 105.5t-93 267.5t93 266.5t237 104.5zM406 1446q-113 0 -186 -82t-73 -211t73 -211t186 -82q81 0 136 33t97 94v330q-91 129 -233 129z" />
    <glyph glyph-name="r.sups" horiz-adv-x="468" 
d="M438 1524v-88h-12q-67 0 -115 -31.5t-88 -95.5v-514h-88v714h80l4 -104q77 119 219 119z" />
    <glyph glyph-name="s.sups" horiz-adv-x="665" 
d="M334 1524q130 0 229 -78l-41 -66q-82 68 -186 68q-74 0 -117 -31.5t-43 -95.5q0 -52 40 -77.5t146 -49.5q124 -28 179 -74.5t55 -126.5q0 -94 -72.5 -153.5t-191.5 -59.5q-151 0 -262 86l41 68q95 -78 221 -78q80 0 129 35t49 100q0 54 -42.5 82t-145.5 51
q-126 28 -179 71.5t-53 123.5q0 97 66.5 151t177.5 54z" />
    <glyph glyph-name="t.sups" horiz-adv-x="559" 
d="M256 1753v-244h242v-77h-242v-418q0 -73 39 -113.5t104 -40.5q73 0 109 25l29 -70q-56 -35 -144 -35q-102 0 -162.5 60.5t-60.5 173.5v418h-147v77h147v244h86z" />
    <glyph glyph-name="u.sups" horiz-adv-x="833" 
d="M698 1509v-714h-80l-2 96q-98 -111 -245 -111q-120 0 -188 80.5t-68 214.5v434h88v-430q0 -96 50 -155.5t134 -59.5q75 0 127 31t96 92v522h88z" />
    <glyph glyph-name="v.sups" horiz-adv-x="765" 
d="M735 1509l-350 -729h-6l-348 729h96l256 -553l256 553h96z" />
    <glyph glyph-name="w.sups" horiz-adv-x="1110" 
d="M1077 1509l-299 -729h-4l-219 547l-221 -547h-4l-299 729h96l211 -540l215 540h4l215 -540l209 540h96z" />
    <glyph glyph-name="x.sups" horiz-adv-x="706" 
d="M653 1509l-241 -352l254 -362h-103l-211 299l-209 -299h-104l256 362l-244 352h103l198 -286l201 286h100z" />
    <glyph glyph-name="y.sups" horiz-adv-x="790" 
d="M748 1509l-498 -1044h-98l196 397l-305 647h96l256 -555l256 555h97z" />
    <glyph glyph-name="z.sups" horiz-adv-x="647" 
d="M598 1509v-6l-412 -633h412v-75h-551v6l410 631h-387v77h528z" />
    <glyph glyph-name="G.smcp_I.smcp" horiz-adv-x="1228" 
d="M649 1573q164 0 296 -79.5t206 -219t74 -311.5q0 -173 -74.5 -312t-206 -218t-295.5 -79q-166 0 -298.5 79t-205.5 218t-73 312q0 172 73 311.5t205.5 219t298.5 79.5zM649 1499q-220 0 -361 -152t-141 -384q0 -233 141 -384t361 -151q217 0 358.5 151.5t141.5 383.5
q0 231 -142 383.5t-358 152.5z" />
    <glyph glyph-name="zero.slash" horiz-adv-x="1193" 
d="M598 1532q245 0 376.5 -208t131.5 -570q0 -364 -131.5 -572.5t-376.5 -208.5q-164 0 -280 96t-174 270.5t-58 414.5q0 362 132.5 570t379.5 208zM598 1438q-133 0 -225.5 -85t-137.5 -237t-45 -362q0 -301 95 -486l569 1051q-96 119 -256 119zM598 66q196 0 301 184
t105 504q0 300 -95 485l-571 -1053q102 -120 260 -120z" />
    <glyph glyph-name="K.alt" horiz-adv-x="1284" 
d="M1171 1505l-503 -616l573 -889h-125l-518 805l-307 -369v-436h-105v1505h105v-917l756 917h124z" />
    <glyph glyph-name="Kcommaaccent.alt" horiz-adv-x="1284" 
d="M1171 1505l-503 -616l573 -889h-125l-518 805l-307 -369v-436h-105v1505h105v-917l756 917h124zM662 -117q42 0 69 -24.5t27 -65.5q0 -32 -17 -55l-100 -207h-8v348q8 4 29 4z" />
    <glyph glyph-name="M.alt" horiz-adv-x="1740" 
d="M1554 1532v-1532h-104v1241l-573 -807h-13l-573 809v-1243h-105v1532h9l675 -942l676 942h8z" />
    <glyph glyph-name="idotaccent" horiz-adv-x="421" 
d="M211 1438q35 0 59.5 -24.5t24.5 -59.5q0 -36 -24 -60t-60 -24q-37 0 -60.5 23.5t-23.5 60.5q0 36 24 60t60 24zM260 1018v-1018h-98v1018h98z" />
    <glyph glyph-name="k.alt" horiz-adv-x="1021" 
d="M268 1556v-1116l545 578h121l-367 -395l430 -623h-118l-381 551l-230 -246v-305h-100v1556h100z" />
    <glyph glyph-name="kcommaaccent.alt" horiz-adv-x="1021" 
d="M268 1556v-1116l545 578h121l-367 -395l430 -623h-118l-381 551l-230 -246v-305h-100v1556h100zM530 -117q42 0 69.5 -24.5t27.5 -65.5q0 -32 -17 -55l-100 -207h-8v348q8 4 28 4z" />
    <glyph glyph-name="f_k.alt" horiz-adv-x="1689" 
d="M522 1556q96 0 164 -47l-31 -84q-51 39 -129 39q-91 0 -144.5 -65.5t-53.5 -167.5v-213h305v-90h-305v-928h-99v928h-188v90h188v211q0 142 80.5 234.5t212.5 92.5zM936 1556v-1116l545 578h121l-367 -395l432 -623h-119l-381 551l-231 -246v-305h-98v1556h98z" />
    </font>
</defs>
</svg>
